#TITLE:Transparent;
#SUBTITLE:;
#ARTIST:Sanxion7;
#TITLETRANSLIT:;
#SUBTITLETRANSLIT:;
#ARTISTTRANSLIT:;
#GENRE:;
#CREDIT:;
#BANNER:transparentbn.png;
#BACKGROUND:transparentbg.png;
#LYRICSPATH:;
#CDTITLE:;
#MUSIC:Transparent.ogg;
#OFFSET:0.786848;
#SAMPLESTART:83.210045;
#SAMPLELENGTH:13.120002;
#SELECTABLE:YES;
#BPMS:0.000000=140.000000
,164.000000=70.000000
,180.000000=140.000000
;
#STOPS:
;
#BGCHANGES:;
#KEYSOUNDS:;
#ATTACKS:;

//---------------dance-single - C. Picardy----------------
#NOTES:
     dance-single:
     C. Picardy:
     Beginner:
     1:
     0.111042,0.131708,0.086366,0.017273,0.000000,78.000000,10.000000,2.000000,0.000000,0.000000,0.000000,0.111042,0.131708,0.086366,0.017273,0.000000,78.000000,10.000000,2.000000,0.000000,0.000000,0.000000:
0000
0000
0000
0000
,
0000
0000
0000
0000
,
0000
0000
0000
0000
,
0000
0000
0000
0000
,
0000
0000
0000
0000
,
1000
0000
0000
0000
,
0001
0000
0000
0000
,
1000
0000
0000
0000
,
0001
0000
0000
0000
,
1001
0000
0000
0000
,
0100
0000
0000
0000
,
0010
0000
0000
0000
,
0100
0000
0000
0000
,
0010
0000
0000
0000
,
1000
0000
0000
0000
,
1000
0000
0000
0000
,
0000
0000
0000
0000
,
0110
0000
0100
0000
,
0010
0000
0010
0000
,
1000
0000
1000
0000
,
0001
0000
0001
0000
,
0100
0000
0000
0000
,
0010
0000
0000
0000
,
1000
0000
0000
0000
,
0001
0000
0000
0000
,
1001
0000
0000
0000
,
1001
0000
0000
0000
,
0110
0000
0000
0000
,
0110
0000
0000
0000
,
1000
0000
0001
0000
,
1000
0000
1001
0000
,
0010
0000
0100
0000
,
0010
0000
0110
0000
,
2000
0000
0000
0000
,
0000
0000
0000
0000
,
0000
0000
3000
0000
,
0000
0000
0000
0000
,
0002
0000
0000
0000
,
0000
0000
0000
0000
,
0000
0000
0003
0000
,
0000
0000
0000
0000
,
0010
0000
1000
0000
,
0001
0000
0100
0000
,
0001
0000
1000
0000
,
0010
0000
0100
0000
,
0010
0000
0010
0000
,
1000
0000
1000
0000
,
0001
0000
0001
0000
,
0100
0000
0100
0000
,
0010
0000
0100
0000
,
0001
0000
1000
0000
,
0001
0000
1000
0000
,
0100
0000
0010
0000
,
0010
0000
0010
0000
,
0100
0000
0100
0000
,
0001
0000
0001
0000
,
1000
0000
1000
0000
,
0010
0000
1000
0000
,
0100
0000
1001
0000
,
1000
0000
0100
0000
,
0001
0000
0100
0000
,
1001
0000
0000
0000
;

//---------------dance-single - C. Picardy----------------
#NOTES:
     dance-single:
     :
     Easy:
     4:
     0.291178,0.316100,0.198642,0.207279,0.000000,189.000000,23.000000,24.000000,0.000000,0.000000,0.000000,0.291178,0.316100,0.198642,0.207279,0.000000,189.000000,23.000000,24.000000,0.000000,0.000000,0.000000:
0000
0000
0000
0000
,
0000
0000
0000
0000
,
0000
0000
0000
0000
,
0000
0000
0000
0000
,
0000
0000
0000
0000
,
0010
0000
0001
0000
,
0010
0000
0001
0000
,
0100
0000
0010
0000
,
1000
0000
0100
0000
,
1000
0001
0000
0100
,
0010
1000
0000
0100
,
0010
0001
0000
0100
,
0010
0100
0000
0010
,
1000
0010
0000
1000
,
0001
1000
0000
0100
,
1000
0100
0010
0001
,
0000
0000
0000
1000
,
1001
0100
1000
0100
,
0010
0100
0010
0100
,
1000
0010
1000
0010
,
0100
0010
0100
0010
,
1000
0100
0001
0100
,
1000
0010
0001
0010
,
1000
0100
0010
0001
,
0100
0010
1000
0100
,
0010
0001
0100
1001
,
0010
1000
0100
1001
,
0010
0001
0100
0110
,
1000
0100
0010
0110
,
0001
0011
0001
0101
,
0010
0110
0010
1010
,
1000
1001
0100
1001
,
1000
0010
0100
0110
,
2000
0000
3200
0000
,
0320
0000
0230
0000
,
2300
0000
3001
0000
,
0100
0000
0000
0000
,
2000
0000
3002
0000
,
0203
0000
0320
0000
,
2030
0000
3200
0000
,
0320
0000
0030
0000
,
1001
0200
0302
0023
,
0230
0310
0001
0000
,
2000
3020
0230
0302
,
0023
0230
2300
3020
,
1030
0100
1000
0010
,
0100
0001
0010
0001
,
0100
0010
1000
0010
,
1000
0100
0010
0001
,
0100
0001
0100
1000
,
0100
0001
0100
1000
,
0100
0001
0010
1000
,
0010
0001
0100
0010
,
0001
0010
1000
0110
,
0001
0100
1000
0110
,
0001
0010
0100
0011
,
1000
0001
0010
1001
,
0010
0001
0100
0011
,
0100
1000
0010
1100
,
0010
0001
0100
1010
,
1000
0100
0110
1100
,
1001
0000
0000
0000
;

//---------------dance-single - C. Picardy----------------
#NOTES:
     dance-single:
     :
     Medium:
     6:
     0.419493,0.450562,0.371375,0.172732,0.017273,277.000000,43.000000,20.000000,0.000000,0.000000,0.000000,0.419493,0.450562,0.371375,0.172732,0.017273,277.000000,43.000000,20.000000,0.000000,0.000000,0.000000:
0000
0000
0000
0000
,
0000
0000
0000
0000
,
0000
0000
0000
0000
,
0000
0000
0000
0000
,
0000
0000
0000
0000
,
0010
0000
1000
0000
0001
0000
0010
0100
,
1000
0000
0100
0000
0010
0000
0001
0010
,
0100
0000
0010
0000
0001
0000
0100
0001
,
0010
0000
0100
0000
0010
0000
0001
1000
,
0100
1001
0100
0101
,
0010
0101
1000
1100
,
0010
1100
0010
0101
,
1000
0101
0010
1100
,
0010
1010
0001
0110
,
0100
1010
0001
1100
,
0011
0101
1010
1100
,
0020
0000
0000
0000
0000
0000
1030
0010
,
0100
0000
0001
0000
0010
0001
0100
0000
,
0001
0000
0100
0000
1000
0100
0001
0000
,
0100
0000
0010
0000
1000
0010
0100
0000
,
0010
0000
1000
0000
0100
0010
0001
0010
,
0100
0000
1100
0000
0010
1000
0100
0000
,
0010
0000
0011
0000
1000
0100
0001
0000
,
0100
0000
0110
0000
0010
0001
1000
0000
,
0010
0000
0110
0000
1000
0001
1000
0001
,
0100
0000
0011
0000
0010
0001
1000
0001
,
0100
0000
1010
0000
0100
1000
0010
0100
,
0010
0000
1010
0000
0001
0100
1000
0100
,
0001
0000
1010
0000
0100
0010
0100
0010
,
0001
0000
1100
0000
0010
0100
1000
0100
,
0010
0000
1001
0000
0010
0001
0100
0010
,
1000
0000
0110
0000
0001
0100
0010
0000
,
1000
0001
1000
0001
0100
0010
0100
0010
,
0200
0000
0301
0200
0000
0320
0000
2030
,
0000
3000
0200
0000
0000
0320
0000
0130
,
0020
0000
0000
0000
0031
0000
0000
1000
,
0010
0000
0000
0000
0100
0000
0000
0001
,
0020
0000
0031
2000
0000
3020
0000
2030
,
0000
3000
2000
0000
0000
3200
0000
0000
,
0320
0000
0130
0020
0000
0032
0000
1003
,
0100
0002
0000
0000
0103
0000
1000
0000
,
0011
0001
0010
0000
1000
0010
0001
0000
,
1000
0100
0001
0000
0100
0000
1000
0000
,
0100
0000
0000
0010
0000
0000
0001
0000
1000
0000
0000
0010
0000
0000
0100
0000
,
0010
0000
0000
1000
0000
0000
0001
0000
0100
0000
0000
0010
0000
0000
1000
0000
,
0010
0000
1001
0000
0001
0100
1000
0000
,
0100
0000
1010
0000
0100
0010
1000
0000
,
0100
0000
0011
0000
1000
0000
0001
0010
,
0100
0000
1100
0000
0010
1000
0100
0000
,
0010
0000
0000
0011
0000
0000
1000
0000
,
0110
0000
0000
1010
0000
0000
0001
0100
,
1000
0000
0000
0101
0000
0000
1000
0100
,
0001
0000
0000
1100
0000
0000
0011
0000
,
0100
0000
0010
0000
1000
0010
0100
0010
,
1000
0000
0100
0000
0010
0100
1000
0010
,
0100
0000
0001
0000
0010
0001
0010
0100
,
1000
0000
0010
0000
0100
0001
0010
0001
,
1000
0000
1010
0000
0001
0100
1000
0100
,
0001
0000
0011
0000
1000
0100
0010
0100
,
1000
0000
0110
0000
0001
0100
1000
0100
,
0001
0000
1010
0000
0100
0000
1000
0001
,
0202
0000
0000
0303
0000
0000
0000
0000
;

//---------------dance-single - C. Picardy----------------
#NOTES:
     dance-single:
     :
     Hard:
     8:
     0.534237,0.535471,0.190006,0.198642,0.207279,388.000000,22.000000,23.000000,0.000000,0.000000,0.000000,0.534237,0.535471,0.190006,0.198642,0.207279,388.000000,22.000000,23.000000,0.000000,0.000000,0.000000:
0000
0000
0000
0000
,
0000
0000
0000
0000
,
0000
0000
0000
0000
,
0000
0000
0000
0000
,
0001
0010
0100
0010
,
0100
1000
0000
0000
0001
0000
0000
0000
0100
0000
0001
0000
0010
0000
0000
0000
,
0001
0100
0000
0000
0010
0000
0000
0000
1000
0000
0010
0000
0001
0000
0000
0000
,
0010
0100
0000
0000
0001
0000
0000
0000
1000
0000
0100
0000
0001
0000
0100
0000
,
1000
0100
0000
0000
0010
0000
0000
0000
0001
0000
0010
0000
0001
0000
1000
0000
,
0010
0000
1010
0000
0001
0100
1000
0100
,
0010
0100
0000
0000
0101
0000
0000
0000
0001
0000
0010
0000
0001
0000
0100
0000
,
0010
1000
0000
0000
1001
0000
0000
0000
1000
0000
0100
0000
0001
0000
0100
0000
,
1000
0010
0000
0000
0110
0000
0000
0000
0100
0000
0001
0000
0010
0000
0001
0000
,
1000
0010
0000
0000
1010
0000
0000
0000
0100
0000
1000
0000
0010
0000
1000
0000
,
0100
0010
0000
0010
0100
0000
0000
0000
0010
0000
0100
0000
1000
0000
0100
0000
,
0010
0001
0000
0000
1001
0000
0000
0000
0100
0000
0010
0000
0110
0000
0000
0000
,
0001
0000
0000
0000
1000
0000
0000
0001
0000
0000
1000
0000
0100
0000
0000
0000
,
0001
0100
0010
0100
1000
0000
0101
0000
,
0100
0001
0000
0100
0001
0000
0100
0001
0000
0100
0001
0000
1000
0000
0000
0000
,
0100
1000
0010
1000
0100
0000
0110
0000
,
0010
0100
0000
0010
0100
0000
0010
0100
0000
0010
0100
0000
0010
0000
0000
0000
,
0001
0010
1000
0010
0001
0000
1100
0000
,
1000
0010
0000
1000
0010
0000
1000
0010
0000
1000
0010
0000
1000
0000
0000
0000
,
0001
0100
1000
0100
0010
0000
1010
0000
,
0001
1000
0000
0001
1000
0000
0001
1000
0000
0001
1000
0000
0200
0000
0000
0000
,
1300
0100
0001
0100
1000
0100
0001
0100
,
1000
0100
0000
1000
0001
0000
0100
0001
0000
1000
0001
0000
0100
0000
0010
0000
,
0001
0010
1000
0010
0001
0010
1000
0010
,
0100
0001
0000
1000
0001
0000
0010
0001
0000
1000
0001
0000
0010
0000
0100
0000
,
1000
0100
1000
0100
0010
0001
0010
0001
,
1000
0100
0000
1000
0100
0000
0010
0001
0000
0010
0001
0000
0100
0000
0001
0000
,
0100
0010
0100
0010
1000
0010
1000
0010
,
1000
0100
0010
0000
0011
0000
0101
0000
,
2001
0000
3100
0200
0000
0320
0000
0032
,
0000
0000
0203
0000
0000
0320
0000
1000
,
2000
0000
0000
0000
3030
0000
0000
0100
,
0100
0000
0000
0000
0000
0000
0000
0000
0000
0000
0000
0000
0000
0000
0100
0010
,
0200
0000
0320
0002
0030
0203
0000
0002
,
0000
0300
0203
0000
0000
0320
0000
0000
,
2030
0000
3200
2000
0300
0200
3000
1300
,
0200
0020
0000
0330
0001
0000
0100
0000
,
1001
0000
0010
0000
0100
0000
1000
0100
0010
0000
0001
0000
0010
0000
0001
0100
,
0010
0000
1000
0000
0010
0000
1000
0010
0100
0000
0001
0000
1000
0000
0100
0010
,
0001
0000
0100
0000
0010
0000
1000
0010
1000
0000
0001
0000
0100
0000
0001
0010
,
0001
0000
1000
0000
0100
0000
0010
0100
0010
0000
0001
0000
0100
0000
0010
0000
,
1000
0000
0010
1000
0100
0010
0001
0000
,
1100
0000
0010
0100
1000
0100
0001
0000
,
0110
0000
0001
0010
0100
0010
0001
0000
,
0110
0000
1000
0001
0100
0010
1000
0000
,
1100
0000
0100
0010
0000
0010
0100
0000
,
0011
0000
0100
0001
0000
0001
0100
0010
,
1000
0000
0100
1000
0000
0100
1000
0010
,
0100
0000
0001
1000
0000
0000
0110
0000
,
0001
0010
0001
0010
0100
1000
0100
1000
,
0100
0010
0100
0010
0001
0010
0001
0010
,
0001
0100
0001
0100
0010
0100
0010
0100
,
1000
0100
1000
0100
0010
1000
0010
1000
,
0100
0010
1000
0010
0100
0010
1000
0010
,
0001
0100
1000
0100
0001
0100
1000
0100
,
0010
0001
0010
0100
0010
0001
0010
1000
,
0100
0010
1000
0010
0001
0010
0100
1000
,
2002
0000
0000
0000
,
3003
0000
0000
0000
;

//---------------dance-single - C. Picardy----------------
#NOTES:
     dance-single:
     :
     Challenge:
     10:
     0.883403,1.000000,0.155459,0.190006,1.000000,676.000000,18.000000,22.000000,77.000000,7.000000,0.000000,0.883403,1.000000,0.155459,0.190006,1.000000,676.000000,18.000000,22.000000,77.000000,7.000000,0.000000:
0000
0000
0000
0000
,
0000
0000
0000
0000
,
0000
0000
0000
0000
,
1000
0100
1000
0000
0100
1000
0000
0100
1000
0100
1000
0100
0000
0010
0100
0010
,
0100
0010
0000
0001
0010
0000
0100
0010
0000
0001
0010
0000
0001
0010
0001
0010
,
0001
0100
0001
0000
0100
0001
0000
0100
0001
0100
0001
0100
0000
0010
1000
0010
,
1000
0010
0000
1000
0001
0000
1000
0010
0000
1000
0001
0000
1000
0010
1000
0010
,
1000
0001
0100
0000
0001
0010
0000
0001
0010
0001
1000
0001
0000
0010
0001
0010
,
0001
0010
0000
0001
1000
0000
0001
0010
0000
0001
1000
0000
0100
1000
0100
1000
,
0100
0000
1000
0000
1010
0000
0001
0100
0001
0000
1000
0000
1010
0000
0010
1000
,
0010
0100
0000
0010
1000
0000
0010
0100
0000
0100
0001
0000
0010
0001
0010
0001
,
0010
0100
1000
0000
1100
0000
1000
0001
0100
0000
0001
0000
0011
0000
1000
0001
,
0100
0001
0000
1000
0100
0000
1000
0001
0000
0100
0001
0000
0100
0001
0100
0001
,
0100
0000
0010
0000
0110
0000
1000
0010
0100
0000
0010
0000
1010
0000
0001
0100
,
0001
0100
0000
0010
0100
0000
0010
1000
0000
0100
1000
0000
0010
0100
0010
0100
,
0010
0000
1000
0000
1100
0000
0001
0010
0001
0010
0100
1000
0100
0010
0001
0010
,
0000
0000
MMMM
0000
M000
0000
MMMM
0000
000M
0000
MMMM
0000
0001
0010
0001
0010
,
0001
1000
0100
0000
1000
0010
0000
1000
0001
0100
0001
1000
0010
1000
0010
0100
,
0001
1000
0000
0010
1000
0000
0001
0100
0000
0001
0100
0001
0100
0010
1000
0010
,
1000
0001
1000
0000
0010
0100
0000
0010
1000
0010
1000
0001
0100
0001
0100
0010
,
1000
0010
0000
0100
0001
0000
1000
0100
0000
1000
0100
0010
0001
0010
0100
1000
,
0100
0010
0001
0000
1000
0100
0000
1000
0100
1000
0100
0010
0001
0010
0001
0100
,
0001
0100
0000
0001
0010
0000
0001
1000
0000
0001
0100
0001
1000
0010
1000
0010
,
0100
0001
1000
0000
0010
0100
0000
0010
1000
0010
1000
0001
1000
0001
1000
0100
,
1000
0100
0000
0010
0001
0000
1000
0100
0000
0010
0001
0010
0001
1000
0100
0010
,
0001
0010
0100
0000
1000
0010
0000
1000
0001
0100
0001
1000
0010
1000
0001
0100
,
0010
1000
0000
0001
0100
0000
0010
1000
0000
0001
0100
0010
1000
0010
0100
0001
,
1000
0100
0010
0000
0001
1000
0000
0010
0100
0001
1000
0010
0100
0001
1000
0010
,
0100
0001
0000
1000
0100
0000
0010
0001
0000
1000
0010
0000
1000
0100
0001
0100
,
1000
0100
0010
0000
1000
0010
0000
0001
0010
0001
0010
0001
1000
0100
1000
0100
,
1000
0010
0000
0001
0010
0000
1000
0010
0000
0100
1000
0100
0010
1000
0100
0010
,
0001
1000
0010
0000
0100
1000
0000
0100
0001
0100
0010
0100
1000
0100
0010
0100
,
0001
0010
0100
0010
1000
0010
0001
0100
0010
1000
0010
0100
0001
1000
0100
0010
,
0120
0000
0031
2000
0000
0200
0000
0010
,
0000
0000
0001
0000
3300
1000
0000
0002
,
0200
0000
0000
0000
0000
0000
0000
0000
0303
0000
0000
0M0M
0000
0000
0010
0000
,
0010
0000
0010
0000
00M0
0000
1000
0000
1000
0000
M000
0000
0001
0000
0001
0100
,
0020
0000
0230
0002
0000
0010
0000
1000
,
0000
0000
1000
0303
0000
0002
0000
0000
,
2000
0000
0010
0010
3003
2000
0000
3100
,
M020
0000
0M02
0000
0000
0000
0033
0000
0200
0000
0000
0000
0320
0000
0000
0030
,
1010
0010
0M01
0010
1M00
0010
0M01
0010
1000
0100
00M1
0100
10M0
0100
00M1
0100
,
1000
0000
0010
0000
M100
0000
0010
0000
M001
0000
0010
0000
M100
0000
0010
0000
M001
0000
0010
0000
010M
0000
1000
0000
010M
0000
0010
0000
010M
0000
1000
0100
,
001M
1000
010M
1000
001M
1000
010M
0010
M001
0100
M001
0010
M001
0100
M010
0100
,
M001
0100
0001
0100
M001
0100
0001
0100
0010
1000
0010
1000
0M10
1000
0010
1000
0M01
1000
0001
1000
0MM1
1000
0001
1000
01M0
1000
0100
1000
01MM
1000
0100
1000
,
0100
0000
1000
0100
1000
0000
0001
1000
0001
0000
0100
0001
0100
0000
0010
0000
,
2010
0000
0001
3100
0001
0000
1000
0001
1000
0000
0010
1000
0010
0000
1000
0000
,
1020
0000
1000
0031
0100
0000
0010
1000
0001
0000
1000
0100
0010
0000
0001
0000
,
0201
0000
0010
1300
0001
0000
0010
0100
1000
0000
0100
0010
0001
0000
1000
0000
,
1200
0000
0010
0301
1000
0000
0010
0100
0001
0000
0100
0010
1000
0000
0001
0000
,
0102
0000
0010
0103
0010
0000
0001
0100
0010
0000
1000
0010
1000
0000
0010
0000
,
2001
0000
0100
3010
0100
0000
1000
0100
1000
0000
0001
0010
0100
0000
0010
0000
,
0021
0000
0001
1030
0100
0000
0010
0001
1000
0000
0010
0000
1001
0000
0000
0000
,
0001
0000
0001
01M0
0001
0000
0001
1M00
0001
0000
0001
01M0
0001
0000
0001
0M10
,
0001
0000
0001
10M0
0001
0000
0001
M010
0001
0000
0001
01M0
0001
0000
0001
1M00
,
0001
0000
1000
00M1
1000
0000
1000
010M
1000
0000
1000
00M1
1000
0000
1000
0M10
,
1000
0000
1000
01M0
1000
0000
1000
001M
1000
0000
1000
00M1
1000
0000
1000
0M10
,
1000
0000
0001
0100
0010
0000
1000
0100
0010
0000
0001
0010
0100
0000
1000
0010
,
0100
0000
0001
0010
0100
0000
1000
0100
0010
0000
0100
0010
0001
0000
0001
0100
,
0010
0000
0010
1000
0001
0000
0010
0100
1000
0000
0100
0010
0001
0000
1000
0010
,
0100
0000
0001
0010
0100
0000
1000
0001
0100
0010
1000
0100
0010
0001
0010
0001
,
1001
MMMM
M00M
000M
000M
00M0
0M00
M000
;
