#TITLE:Trance Theory;
#SUBTITLE:;
#ARTIST:Sanxion7;
#TITLETRANSLIT:;
#SUBTITLETRANSLIT:;
#ARTISTTRANSLIT:;
#GENRE:;
#CREDIT:;
#BANNER:trancetheorybn.png;
#BACKGROUND:trancetheorybg.png;
#LYRICSPATH:;
#CDTITLE:;
#MUSIC:trancetheory.ogg;
#OFFSET:-0.180798;
#SAMPLESTART:82.449837;
#SAMPLELENGTH:12.000000;
#SELECTABLE:YES;
#BPMS:0.000000=140.000000
;
#STOPS:
;
#BGCHANGES:17.000=4Klaser.mp4=1.000=1=0=1=SongBgWithMovieViz==CrossFade=#FFFFFF80=,
32.000=flash=1.600=0=0=1=====,
32.250=4KcometequalizerTrim.mp4=1.000=0=1=1=StretchRewind====,
64.000=flash=1.600=0=0=1=====,
64.250=4KcometequalizerTrim.mp4=1.000=0=0=1=====,
96.000=4Klaser.mp4=1.000=0=0=1===CrossFade_Faster=#FFFFFF=,
128.000=flash=1.600=0=0=1=====,
128.250=4Klaser.mp4=1.000=0=0=1=SongBgWithMovieViz===#FFFFFF80=,
160.000=4Klaser.mp4=1.000=0=0=1===CrossFade_Fastest=#808080=,
192.000=flash=1.600=0=0=1=====,
192.250=massiveparticletunnel.mp4=1.000=0=1=1=StretchRewind====,
224.000=flash=1.600=0=0=1=====,
224.250=massiveparticletunnel.mp4=1.000=0=0=1=====,
256.000=trancetheorybg.png=1.000=0=0=1===CrossFade_Fastest==,
99999=-nosongbg-=1.000=0=0=0 // don't automatically add -songbackground-
;
#KEYSOUNDS:;
#ATTACKS:;

//---------------dance-single - C. Picardy----------------
#NOTES:
     dance-single:
     :
     Beginner:
     1:
     0.087292,0.170030,0.106269,0.017711,0.000000,69.000000,57.000000,12.000000,2.000000,0.000000,0.000000,0.087292,0.170030,0.106269,0.017711,0.000000,69.000000,57.000000,12.000000,2.000000,0.000000,0.000000:
// measure 0
0000
0000
0000
0000
,  // measure 1
0000
0000
0000
0000
,  // measure 2
0000
0000
0000
0000
,  // measure 3
0000
0000
0000
0000
,  // measure 4
0000
0000
0000
0000
,  // measure 5
0000
0000
0000
0000
,  // measure 6
0000
0000
0000
0000
,  // measure 7
0000
0000
0000
0000
,  // measure 8
0010
0000
0000
0000
,  // measure 9
0100
0000
0000
0000
,  // measure 10
0001
0000
0000
0000
,  // measure 11
1000
0000
0000
0000
,  // measure 12
1000
0000
0000
0000
,  // measure 13
0010
0000
0000
0000
,  // measure 14
0100
0000
0000
0000
,  // measure 15
0001
0000
0000
0000
,  // measure 16
0100
0000
0000
0000
,  // measure 17
0110
0000
0000
0000
,  // measure 18
0001
0000
0000
0000
,  // measure 19
1001
0000
0000
0000
,  // measure 20
0100
0000
0000
0000
,  // measure 21
0110
0000
0000
0000
,  // measure 22
1000
0000
0000
0000
,  // measure 23
1001
0000
0000
0000
,  // measure 24
1000
0000
0000
0000
,  // measure 25
0000
0000
0000
0000
,  // measure 26
0001
0000
0000
0000
,  // measure 27
0000
0000
0000
0000
,  // measure 28
0100
0000
0000
0000
,  // measure 29
0010
0000
0000
0000
,  // measure 30
0001
0000
0000
0000
,  // measure 31
1000
0000
0000
0000
,  // measure 32
1001
0000
0000
0000
,  // measure 33
0001
0000
0001
0000
,  // measure 34
0000
0000
0000
0000
,  // measure 35
1000
0000
1000
0000
,  // measure 36
1001
0000
0000
0000
,  // measure 37
0010
0000
0000
0000
,  // measure 38
0100
0000
0000
0000
,  // measure 39
0000
0000
0000
0000
,  // measure 40
1000
0000
1000
0000
,  // measure 41
0000
0000
0000
0000
,  // measure 42
0001
0000
0001
0000
,  // measure 43
0000
0000
0000
0000
,  // measure 44
2002
0000
0000
0000
,  // measure 45
0000
0000
0000
0000
,  // measure 46
0000
0000
0000
0000
,  // measure 47
3003
0000
0000
0000
,  // measure 48
0001
0000
0001
0000
,  // measure 49
1000
0000
1000
0000
,  // measure 50
0010
0000
0010
0000
,  // measure 51
0100
0000
0100
0000
,  // measure 52
1001
0000
0000
0000
,  // measure 53
0110
0000
0000
0000
,  // measure 54
0110
0000
0000
0000
,  // measure 55
1001
0000
0000
0000
,  // measure 56
0000
0000
0000
0000
,  // measure 57
1000
0000
0000
0000
,  // measure 58
0001
0000
0000
0000
,  // measure 59
0010
0000
0000
0000
,  // measure 60
0100
0000
0100
0000
,  // measure 61
1000
0000
1000
0000
,  // measure 62
0001
0000
0000
0000
,  // measure 63
0100
0000
0000
0000
,  // measure 64
1001
0000
0000
0000
;

//---------------dance-single - C. Picardy----------------
#NOTES:
     dance-single:
     :
     Easy:
     4:
     0.231515,0.453414,0.221394,0.123980,0.000000,183.000000,158.000000,25.000000,14.000000,0.000000,0.000000,0.231515,0.453414,0.221394,0.123980,0.000000,183.000000,158.000000,25.000000,14.000000,0.000000,0.000000:
0000
0000
0000
0000
,
0000
0000
0000
0000
,
0000
0000
0000
0000
,
0000
0000
0000
0000
,
0000
0000
0000
0000
,
0000
0000
0000
0000
,
0000
0000
0000
0000
,
0000
0000
0000
0000
,
1000
0000
0010
0000
,
1000
0000
0100
0000
,
0010
0000
0001
0000
,
0100
0000
1000
0000
,
0001
0000
0010
0000
,
1000
0000
0100
0000
,
1000
0000
0010
0000
,
0100
0000
0001
0000
,
0010
0001
0100
0010
,
0100
0001
0010
0000
,
0100
1000
0010
1000
,
0100
0010
0001
0000
,
1000
0100
0001
0100
,
1000
0010
0100
0000
,
0001
0100
0010
1000
,
1100
0110
0011
0101
,
2002
0000
0000
0000
,
3003
0000
0000
0000
,
0100
0000
0010
0000
,
0100
0000
0001
0000
,
1100
0000
0010
0000
,
0100
0000
0001
0000
,
2000
0000
0000
0000
,
0002
0000
0000
3003
,
0110
0000
1000
0000
,
0001
0000
1000
0100
,
0010
0000
0001
0000
,
1000
0000
0010
0100
,
0101
0000
1000
0000
,
0100
0000
0010
0100
,
2000
0000
0000
0000
,
0020
0000
0000
3030
,
0100
0001
0100
1000
,
0100
0001
1000
0010
,
1000
0100
0010
0001
,
0010
0100
1000
0100
,
0020
0000
0000
0000
,
0002
0000
0030
0000
,
0200
0000
0003
0000
,
0020
0000
0000
0330
,
1001
0100
0010
1000
,
0100
0010
0001
0100
,
0110
1000
0100
0010
,
0100
1000
0010
0100
,
1001
0100
0010
0001
,
0010
0100
1000
0010
,
0110
1000
0010
0100
,
0001
0010
0100
1000
,
0011
0100
0010
1000
,
0101
0010
1000
0100
,
0110
0001
1000
0100
,
1010
0100
0001
1000
,
1002
0010
0010
0103
,
2001
0010
0010
3100
,
2010
3010
0201
0301
,
0110
1010
1100
0011
,
1001
0000
0000
0000
;

//---------------dance-single - C. Picardy----------------
#NOTES:
     dance-single:
     :
     Medium:
     6:
     0.351700,0.485516,0.177115,0.230249,0.048707,278.000000,258.000000,20.000000,26.000000,0.000000,0.000000,0.351700,0.485516,0.177115,0.230249,0.048707,278.000000,258.000000,20.000000,26.000000,0.000000,0.000000:
0000
0000
0000
0000
,
0000
0000
0000
0000
,
0000
0000
0000
0000
,
0000
0000
0000
0000
,
0000
0100
0010
0000
0000
0000
0000
0000
,
0000
0000
0000
0000
,
0000
0001
1000
0000
0000
0000
0000
0000
,
0000
0000
0200
0000
,
0310
0001
0100
0000
0010
0000
1000
0000
,
0100
1000
0010
0100
,
0001
0100
1000
0000
0100
0000
0010
0000
,
1000
0100
0010
0100
,
0010
0100
1000
0000
0100
0000
0010
0000
,
0001
0100
0001
0010
,
0001
0010
1000
0000
0010
0000
0001
0000
,
1000
0010
1000
0100
,
0012
1000
0100
0013
,
1200
0010
0001
1300
,
1020
0100
1000
0130
,
0001
0000
1000
0000
0010
0100
0010
1000
,
0002
0203
2300
3200
,
0320
2030
3200
0320
,
0032
0203
0320
1030
,
0101
0000
1010
0000
1000
0100
0010
0001
,
2000
0000
0000
0100
3200
0000
0000
0010
,
0320
0000
0000
0001
0032
0000
0000
1000
,
1003
0000
0000
0000
0000
0000
0000
0100
,
0200
0000
0000
0001
0302
0000
0000
1003
,
2001
0000
0000
3100
0000
0000
0010
0000
,
0020
0000
0000
0031
0000
0000
0100
0000
,
0001
0010
0100
1000
0100
0010
0001
0000
,
0011
0101
1010
1100
,
1001
0000
0000
0100
0010
0000
0000
1000
,
0010
0000
0000
1000
0100
0000
0000
0010
,
0100
0000
0000
0001
1000
0000
0000
0001
,
0010
0000
0000
0100
0010
0000
0000
0001
,
1000
0000
0000
1000
0000
0000
1000
0000
0000
0000
0000
0000
0000
0000
0000
0000
,
0100
0000
0000
0100
0000
0000
0100
0000
0000
0000
0000
0000
0000
0000
0000
0000
,
0010
0000
0000
0010
0000
0000
0010
0000
0000
0000
0000
0000
0000
0000
0000
0000
,
0001
0000
0000
1000
0000
0000
0100
0000
0000
0000
0000
0000
0100
0000
0000
0000
,
1001
0001
1000
0001
,
0100
0010
0100
0010
,
1000
0010
1000
0010
,
0100
0001
0100
0001
,
0000
0000
1000
0000
0000
0100
0000
0000
0010
0000
0000
0010
0000
0000
0010
0000
,
0000
0000
0001
0000
0000
1000
0000
0000
0010
0000
0000
0010
0000
0000
0010
0000
,
0000
0000
1000
0000
0000
0010
0000
0000
0100
0000
0000
0001
0000
0000
0100
0000
,
0000
0000
0010
0000
0000
1000
0000
0000
0002
0000
0000
0000
0103
0000
0000
0000
,
1010
0000
0100
0000
0010
0000
0001
0100
,
0010
0000
1000
0100
0010
0000
0001
0000
,
0010
0000
0100
0000
1000
0000
0010
1000
,
0100
0000
0010
0001
0100
0000
0010
0000
,
0101
0000
1000
0000
0100
0000
0010
0100
,
1000
0000
0001
0000
0010
0000
0100
0010
,
0001
0000
0100
0000
0010
0000
0100
0010
,
1000
0000
0001
0100
1000
0000
0100
0000
,
0011
0000
0001
0100
1000
0000
1000
0100
,
0001
0000
0001
0010
0100
0000
0100
0010
,
0001
0000
0001
0100
0010
0000
0010
1000
,
0100
0000
0100
1000
0010
0000
0100
1000
,
0010
0000
0100
0000
0010
0100
0001
0000
,
1000
0000
0100
0000
0010
0100
1000
0000
,
0100
0010
0001
0010
0100
1000
0001
0000
,
0011
0101
1010
1100
,
0220
0000
0330
0000
;

//---------------dance-single - C. Picardy----------------
#NOTES:
     dance-single:
     :
     Hard:
     7:
     0.428871,0.516069,0.070846,0.053134,0.208110,339.000000,331.000000,8.000000,6.000000,4.000000,0.000000,0.428871,0.516069,0.070846,0.053134,0.208110,339.000000,331.000000,8.000000,6.000000,4.000000,0.000000:
0000
0000
0000
0000
,
0000
0000
0000
0000
,
0000
0000
0000
0000
,
0000
0000
0000
0000
,
0000
0000
0001
0000
1000
0000
0000
0100
0000
0100
0000
0000
0000
0000
0000
0000
,
0000
0000
0000
0000
,
0000
0000
1000
0000
0001
0000
0000
0010
0000
0010
0000
0000
0000
0000
0000
0000
,
0000
0000
MMMM
0100
,
0011
0000
0100
0000
0010
1000
0001
0000
,
0010
0100
1000
0100
,
0010
0001
0100
0001
0010
0001
0100
0000
,
0010
1000
0001
0100
,
0010
1000
0100
1000
0010
1000
0100
0000
,
0010
0001
0100
0010
,
1000
0010
0100
0010
1000
0010
0100
0000
,
0010
0100
0001
1000
,
0110
0000
1000
0000
0001
0100
1000
0000
,
0100
0010
1000
0100
,
0010
0000
0001
0000
0010
0000
0001
0010
0000
0001
0010
0000
0001
0000
0000
0000
,
0100
0010
1000
0100
,
0010
0000
0100
0000
0010
0000
0100
0010
0000
0100
0010
0000
0100
0000
0000
0000
,
1000
0010
0001
0010
,
1000
0000
0010
0000
1000
0000
0010
1000
0000
0010
1000
0000
0010
0000
0000
0000
,
1000
0010
0100
0001
0010
0001
0100
0010
,
0220
0000
0000
0330
,
1000
0000
0000
1000
0000
0000
1000
0000
0000
0000
0000
0000
1000
0000
0000
0000
,
0001
0000
0000
0001
0000
0000
0001
0000
0000
0000
0000
0000
0100
0000
0000
0000
,
0010
0000
0000
0010
0000
0000
0010
0000
0000
0000
0000
0000
0000
0000
0010
0000
,
1000
0000
0000
0010
0000
0000
1000
0000
0000
0000
0000
0000
0001
0000
0000
0000
,
1000
0000
0000
0001
0000
0000
0100
0000
0000
0000
0000
0000
0100
0000
0010
0000
,
1000
0100
1000
0100
0010
0001
0010
0001
,
1000
0100
0010
0001
1000
0100
0010
0001
,
0011
0000
0000
1000
0000
0000
0100
0000
0000
0010
0000
0000
0001
0000
0100
0000
,
0010
0000
0000
1000
0000
0000
0010
0000
1000
0000
0000
0001
0000
0000
0100
0000
,
0010
0000
0000
0010
0000
0000
1000
0000
0000
1000
0000
0000
1000
0000
0100
0000
,
0001
0000
0000
0001
0000
0000
0100
0000
1000
0000
0000
1000
0000
0000
0001
0000
,
0010
0000
0000
0010
0000
0000
0001
0000
0000
0010
0000
0000
0100
0000
0010
0000
,
0001
0000
0000
0100
0000
0000
0010
0000
0000
0100
0000
0000
0001
0000
0100
0000
,
0010
1000
0010
1000
0001
0100
0001
0100
,
0001
0100
0010
1000
0001
0100
0010
1000
,
1010
0001
0100
0010
,
1000
0100
0010
0100
,
1000
0000
0001
0000
0100
0000
0001
0100
0000
0001
0100
0000
0010
0000
0000
0000
,
1000
0001
0100
0010
,
0000
0000
0100
0000
0000
0010
0000
0000
1000
0000
0000
0100
0000
0000
0010
0000
,
0000
0000
0001
0000
0000
0010
0000
0000
0100
0000
0000
1000
0000
0000
0100
0000
,
0000
0000
0010
0000
0000
0001
0000
0000
0010
0000
0000
0100
0000
0000
0010
0000
,
2002
0000
0000
3003
,
0001
0000
0000
0100
0000
0000
0010
0000
0000
0100
0000
0000
0010
0000
1000
0000
,
0100
0000
0100
1000
0010
0000
0100
0001
,
0010
0000
0000
0001
0000
0000
1000
0000
0000
0100
0000
0000
0010
0000
0100
0000
,
1000
0000
0100
0010
0001
0000
0001
0100
,
1000
0000
0000
0100
0000
0000
0010
0000
0000
1000
0000
0000
0100
0000
0010
0000
,
0100
0000
0000
1000
0000
0000
0100
0000
0000
0010
0000
0000
0100
0000
1000
0000
,
0010
0000
0000
1000
0000
0000
0100
0000
0000
0010
0000
0000
0100
0000
0010
0000
,
0001
0000
0000
0001
0000
0000
1000
0000
0000
1000
0000
0000
1000
0000
0000
0000
,
0101
0000
0010
0100
0001
0100
0010
1000
,
0100
0000
1000
0010
0100
0000
0010
0100
,
0001
0010
0100
0010
0001
1000
0100
0010
,
0001
0000
1000
0100
0010
0000
0001
0100
,
1000
0100
0001
0100
1000
0100
0001
0010
,
0100
0000
0100
1000
0010
0000
1000
0100
,
0001
0100
0001
0100
1000
0010
1000
0010
,
1000
0100
0010
0001
0010
0100
1000
0001
,
0202
0000
0000
0303
;

//---------------dance-single - C. Picardy----------------
#NOTES:
     dance-single:
     :
     Challenge:
     10:
     0.735027,0.949779,0.088557,0.230249,0.912142,581.000000,571.000000,10.000000,26.000000,21.000000,14.000000,0.735027,0.949779,0.088557,0.230249,0.912142,581.000000,571.000000,10.000000,26.000000,21.000000,14.000000:
0000
0000
0000
0000
,
0000
0000
0000
0000
,
0000
0000
0000
0000
,
0000
0000
0000
0000
,
0000
0000
0001
0000
0100
0000
0100
0010
0000
0010
1000
0000
0000
0000
0000
0000
,
000M
00M0
0M00
M000
,
0000
0000
1000
0000
0100
0000
0100
0010
0000
0010
0001
0000
0000
0000
0000
0000
,
M000
0000
0M00
0000
20M0
0000
010M
3000
,
1000
0000
0001
0000
0100
0000
0001
1000
0000
1000
0010
0000
1000
0100
0000
0100
,
0010
0001
1000
0001
0100
0001
1000
0100
,
0010
0000
0001
0000
1000
0000
0010
0100
0000
0100
0001
0000
1000
0010
0000
0100
,
0010
1000
0001
0100
0010
1000
0100
1000
,
0010
0000
1000
0000
0100
0000
0010
0100
0000
0100
1000
0000
0001
0100
0000
0001
,
0010
0100
1000
0100
0001
0100
0010
0001
,
0100
0000
0001
0000
0010
0000
0001
0100
0000
0100
0010
0000
1000
0001
0000
1000
,
0001
0100
0010
1000
0001
0100
1000
0100
,
0110
0000
0100
0000
0010
0000
1000
0001
0000
0100
0001
0000
1000
0100
0000
0000
,
1000
0001
1000
0000
0001
1000
0001
0000
0100
0001
0100
0000
0001
0100
0001
0000
,
1000
0000
0001
0000
0010
0000
0100
1000
0000
0001
0010
0000
0100
0010
0000
0000
,
0001
0010
0001
0000
0100
0001
0100
0000
0010
0100
0010
0000
1000
0010
1000
0000
,
0001
0000
0100
0000
1000
0000
0100
0001
0000
1000
0010
0000
0100
0001
0000
0000
,
0100
0010
0100
0000
0010
1000
0010
0000
1000
0001
1000
0000
0100
1000
0100
0000
,
0010
0000
0001
0000
0010
0000
0100
1000
0000
0100
0010
0000
0100
1000
0000
0000
,
0001
0010
0001
0010
0100
0010
0100
0010
0100
1000
0100
1000
0001
1000
0001
1000
,
0001
0000
0000
0100
0000
0000
0010
0000
0000
0100
0000
0000
1000
0000
0100
0000
,
0001
0000
0000
1000
0000
0000
0001
0000
0010
0000
0000
0100
0000
0000
1000
0000
,
0002
0000
0000
0203
0000
0000
2300
0000
0000
3200
0000
0000
0310
0000
0001
0000
,
0020
0000
0000
2030
0000
0000
3100
0000
0002
0000
0000
0203
0000
0000
1300
0000
,
1020
0000
0000
0100
0000
0000
0001
0000
0000
0100
0000
0000
1030
0000
0100
0000
,
0020
0000
0000
1000
0000
0000
0001
0000
0000
0100
0000
0000
0031
0000
0010
0000
,
0001
0100
0001
0100
0001
0100
0001
0100
0010
1000
0010
1000
0010
1000
0010
1000
,
0001
1000
0001
1000
0001
1000
0001
1000
0100
1000
0100
1000
0100
1000
0100
1000
,
0010
0000
0000
0200
0000
0000
0002
0000
0000
1000
0000
0303
0001
0000
2000
0000
,
0200
0000
0000
0010
0000
3300
0002
0000
2000
0000
0000
0010
0000
3003
0001
0000
,
2000
0000
0000
0200
0000
0000
0010
0000
0000
0001
0000
3300
1000
0000
0001
0000
,
0200
0000
0000
0002
0000
0000
1000
0000
0010
0000
0000
1000
0000
0303
0001
0000
,
2200
0000
0000
0010
0000
0000
0001
0000
0000
0001
0000
3300
1000
0000
0200
0000
,
0020
0000
0000
0001
0000
0000
0001
0000
0000
0001
0000
0330
1000
0000
0001
0000
,
0100
0010
0100
0010
0100
0010
0100
0010
1000
0010
1000
0010
1000
0010
1000
0010
,
1000
0001
1000
0001
1000
0001
1000
0001
0010
0001
0010
0001
0010
0001
0010
0001
,
1000
0000
0010
0000
0100
0000
0001
1000
0000
0001
1000
0000
0100
0000
0010
0000
,
0001
0010
0100
0010
0001
1000
0100
1000
,
0010
0000
0100
0000
0001
0000
0010
0001
0000
1000
0010
0000
0100
0000
0001
0000
,
1000
0001
0100
0001
1000
0001
1000
0001
,
1000
0001
1000
0001
1000
0001
1000
0001
1000
0001
1000
0001
1000
0001
1000
0001
,
0100
0001
0100
0001
0100
0001
0100
0001
0100
0001
0100
0001
0100
0001
0100
0001
,
0100
0010
0100
0010
0100
0010
0100
0010
0100
0010
0100
0010
0100
0010
0100
0010
,
1000
0000
0010
0000
1000
0000
0010
0000
1000
0000
0010
0000
1000
0000
0010
0000
4000
0040
0000
0000
0000
0000
0000
0000
0000
0000
0000
0000
0000
0000
3030
0000
,
0100
0000
0001
0000
1000
0000
0010
0000
1000
0010
0000
0100
0001
0000
1000
0000
,
0100
0000
0010
0001
0000
0000
0100
0000
0001
0000
0010
0001
0000
0000
0100
0000
,
1000
0100
0010
1000
0100
0010
1000
0010
,
0001
0000
0100
0010
0000
0000
1000
0000
0001
0000
0001
0010
0000
0000
0100
0000
,
1000
0000
1000
0100
0000
0100
0010
0000
0010
0001
0000
0001
0100
0000
0010
0000
,
1000
0000
1000
0010
0000
0010
0100
0000
0100
0001
0000
0001
1000
0000
1000
0000
,
0100
0000
0100
0010
0000
0010
0001
0000
0001
0100
0000
0100
1000
0000
1000
0000
,
0100
1000
0000
1000
0100
0000
0100
0010
0000
0010
0001
0000
0010
0000
1000
0000
,
0101
0000
0100
0010
0000
0010
1000
0000
0001
0100
0000
0100
0001
0100
0010
0000
,
1010
0000
1000
0100
0000
1000
0010
0000
0100
0010
0000
1000
0010
0100
0001
0000
,
0011
0000
0010
0100
0000
0010
0001
0000
0100
0010
0000
1000
0010
1000
0100
0000
,
0110
0000
0010
0001
0000
0000
0100
0000
0110
0000
0010
1000
0000
0000
0001
0000
,
1100
0000
0001
0010
0000
0100
1000
0000
0001
0010
0000
0100
1000
0001
0010
0000
,
0110
0000
1000
0001
0000
0100
0010
0000
1000
0001
0000
0010
0100
1000
0010
0000
,
1000
0010
1000
0010
1000
0010
1000
0010
0100
0001
0100
0001
0100
0001
0100
0001
,
1000
0001
1000
0001
0100
0010
0100
0010
1000
0010
0100
0001
1000
0010
0100
0001
,
2000
0M0M
0M0M
0M0M
00M0
0M0M
0M0M
0M0M
,
3000
0000
0000
0000
;
