#TITLE:Touch My Heart;
#SUBTITLE:;
#ARTIST:Lagoona;
#TITLETRANSLIT:;
#SUBTITLETRANSLIT:;
#ARTISTTRANSLIT:;
#GENRE:;
#CREDIT:;
#BANNER:touchmyheartbn.png;
#BACKGROUND:touchmyheartbg.png;
#LYRICSPATH:;
#CDTITLE:;
#MUSIC:touchmyheart.ogg;
#OFFSET:-0.639054;
#SAMPLESTART:41.999992;
#SAMPLELENGTH:12.000000;
#SELECTABLE:YES;
#DISPLAYBPM:72.000000:145.000000;
#BPMS:0.000000=72.489998
,17.000000=144.979996
,18.000000=289.959991
,20.000000=144.979996
;
#STOPS:84.000000=0.005000
;
#BGCHANGES:8.000=Rainbowfan.mp4=1.000=1=0=1=SongBgWithMovieViz==CrossFade==,
16.000=touchmyheartbg.png=1.000=1=0=1===CrossFade==,
20.000=flash=1.800=0=0=1=====,
20.250=Rainbowfan.mp4=1.000=0=1=1=StretchRewind====,
52.000=flash=1.800=0=0=1=====,
52.250=Rainbowfan.mp4=1.000=0=0=1=====,
84.000=flash=1.800=0=0=1=====,
84.250=purpleblue.mp4=1.000=0=1=1=StretchRewind====,
116.000=flash=1.800=0=0=1=====,
116.250=purpleblue.mp4=1.000=0=0=1=====,
148.000=flash=1.800=0=0=1=====,
148.250=purplespacelines.mp4=1.000=0=1=1=StretchRewind====,
176.000=touchmyheartbg.png=1.000=1=0=1===CrossFade==,
180.000=flash=1.800=0=0=1=====,
180.250=purplespacelines.mp4=1.000=0=0=1=====,
212.000=flash=1.800=0=0=1=====,
212.250=Rainbowfan.mp4=1.000=0=0=1=====,
244.000=flash=1.800=0=0=1=====,
244.250=touchmyheartbg.png=1.000=0=0=1=====,
99999=-nosongbg-=1.000=0=0=0 // don't automatically add -songbackground-
;
#KEYSOUNDS:;
#ATTACKS:;

//---------------dance-single - C. Picardy----------------
#NOTES:
     dance-single:
     :
     Beginner:
     1:
     0.098866,0.138867,0.063742,0.009106,0.000000,76.000000,69.000000,7.000000,1.000000,0.000000,0.000000,0.098866,0.138867,0.063742,0.009106,0.000000,76.000000,69.000000,7.000000,1.000000,0.000000,0.000000:
0000
0000
0000
0000
,
0000
0000
0000
0000
,
0000
0000
0000
0000
,
0000
0000
0000
0000
,
0200
0000
0000
0000
,
0300
0000
0000
0000
,
0010
0000
0000
0000
,
1000
0000
0000
0000
,
0001
0000
0000
0000
,
0100
0000
0000
0000
,
0010
0000
0000
0000
,
1000
0000
0000
0000
,
0001
0000
0000
0000
,
1001
0000
0000
0000
,
0100
0000
0000
0000
,
0010
0000
0000
0000
,
0100
0000
0000
0000
,
0010
0000
0000
0000
,
1000
0000
0000
0000
,
0001
0000
0000
0000
,
1000
0000
0000
0000
,
0110
0000
0100
0000
,
0100
0000
0000
0000
,
0010
0000
0010
0000
,
0010
0000
0000
0000
,
1000
0000
1000
0000
,
1000
0000
0000
0000
,
0001
0000
0001
0000
,
0001
0000
0000
0000
,
1001
0000
0000
0000
,
0100
0000
0100
0000
,
0100
0000
0000
0000
,
0010
0000
0010
0000
,
0010
0000
0000
0000
,
1000
0000
1000
0000
,
1000
0000
0000
0000
,
0001
0000
0001
0000
,
1001
0000
0000
0000
,
1000
0000
0000
0000
,
0001
0000
0000
0000
,
1000
0000
0000
0000
,
0010
0000
0000
0000
,
0100
0000
0000
0000
,
0010
0000
0000
0000
,
0100
0000
0000
0000
,
1001
0000
1000
0000
,
1000
0000
0000
0000
,
0001
0000
0001
0000
,
0001
0000
0000
0000
,
1000
0000
1000
0000
,
1000
0000
0000
0000
,
0001
0000
0001
0000
,
0001
0000
0000
0000
,
0110
0000
0000
0000
,
0010
0000
0000
0000
,
1000
0000
0000
0000
,
0001
0000
0000
0000
,
0100
0000
0000
0000
,
0010
0000
0000
0000
,
1000
0000
0000
0000
,
0100
0000
0000
0000
,
1001
0000
0000
0000
;

//---------------dance-single - C. Picardy----------------
#NOTES:
     dance-single:
     :
     Easy:
     4:
     0.282288,0.388829,0.173015,0.054636,0.000000,217.000000,198.000000,19.000000,6.000000,0.000000,0.000000,0.282288,0.388829,0.173015,0.054636,0.000000,217.000000,198.000000,19.000000,6.000000,0.000000,0.000000:
0000
0000
0000
0000
,
0000
0000
0000
0000
,
0100
0000
0000
0010
,
0010
0000
1000
0000
,
0002
2000
0000
0000
,
3003
0000
0100
0000
,
0010
0000
1000
0001
,
1000
0000
0100
0000
,
0010
0000
0001
1000
,
0001
0000
0010
0000
,
0100
0000
1000
0100
,
0010
0000
0001
0000
,
0100
0000
0010
1000
,
1001
0000
0100
0100
,
0010
0000
1000
0001
,
1000
0000
0010
0010
,
0100
0000
1000
0001
,
1000
0000
0010
0010
,
0100
0000
0001
0100
,
0010
0000
1000
1000
,
0100
0000
1000
0001
,
0110
0000
1000
0001
,
0100
0001
1000
1000
,
1100
0000
0001
0100
,
0001
0010
0100
0100
,
0110
0000
1000
0010
,
0100
0001
1000
1000
,
0011
0000
0100
0010
,
0100
0001
0010
0100
,
1001
0100
1000
0100
,
0010
0100
0010
0100
,
0010
0001
0010
0001
,
0100
0001
0100
0001
,
0100
0010
0100
0010
,
1000
0010
1000
0010
,
1000
0100
1000
0100
,
1000
0001
1000
0000
,
1001
1000
0001
0001
,
0100
0100
0010
0010
,
1000
1000
0100
0100
,
0010
0010
0001
0001
,
1000
0010
1000
1000
,
0001
0010
0001
0001
,
0100
0010
0100
0100
,
0020
0000
0000
0030
,
0100
0001
1000
0001
,
0010
0100
0010
0001
,
1000
0010
0100
0010
,
1000
0100
0010
0010
,
1001
0100
0010
1000
,
0001
0010
0100
1000
,
0110
1000
0001
0100
,
2002
0000
0000
3003
,
0001
0100
0010
1001
,
0010
0100
0010
1001
,
1000
0100
0010
0110
,
1000
0001
0100
0110
,
0001
0101
1000
1100
,
0010
1010
0001
0011
,
0010
0100
1000
0010
,
0200
0000
0010
0310
,
1001
0000
0000
0000
;

//---------------dance-single - C. Picardy----------------
#NOTES:
     dance-single:
     :
     Medium:
     6:
     0.386357,0.416602,0.200333,0.081955,0.000000,297.000000,275.000000,22.000000,9.000000,0.000000,0.000000,0.386357,0.416602,0.200333,0.081955,0.000000,297.000000,275.000000,22.000000,9.000000,0.000000,0.000000:
0000
0000
0000
0000
,
0000
0000
0000
0100
,
1000
0010
0100
0001
,
0001
1000
0100
1000
,
0002
0200
0000
0303
,
1010
0100
0001
0100
,
0010
0000
1000
0000
0100
0000
1000
0010
,
1000
0001
0010
0100
,
0010
0000
0001
0000
1000
0000
0010
0100
,
0010
1000
0001
0010
,
0100
0000
1000
0000
0010
0000
0100
0001
,
0100
0010
1000
0100
,
0011
0100
1010
1100
,
1001
0100
0010
1000
,
0001
0000
0010
0000
0100
0000
0010
0100
,
1000
0100
0001
0100
,
1000
0000
0010
0000
0100
0000
0001
0010
,
0100
0010
0001
0100
,
1000
0000
0100
0000
0001
0000
1000
0100
,
0001
0100
1000
0010
,
0110
0000
1010
0000
1001
0000
0010
0100
,
1000
0000
0001
0000
0100
0100
0010
0000
,
1000
0000
0001
0000
0010
0000
0100
1000
,
0000
0000
0010
0000
0100
0100
0001
0000
,
0010
0000
0100
0000
1000
0000
0001
1000
,
0000
0000
0100
0000
1000
1000
0100
0000
,
0010
0000
0001
0000
0100
0000
0010
1000
,
0000
0000
0001
0000
0100
0100
0010
0000
,
1000
0000
0001
0000
0010
0010
0100
1000
,
0001
0000
1000
0000
0100
1000
0100
0000
,
0010
0000
0001
0000
1000
0000
0010
0100
,
0001
0000
1000
0000
0010
0100
0010
0000
,
1000
0000
0100
0000
0010
0000
0100
1000
,
0001
0000
0100
0000
0010
1000
0010
0000
,
0100
0000
0001
0000
0010
0000
0100
0010
,
0001
0000
0100
0000
0001
0010
0001
0000
,
1000
0000
0100
0000
1000
0000
0010
0100
,
0002
0010
1000
0013
,
0200
0010
0001
0310
,
2000
0010
0100
3001
,
0020
0001
0100
0130
,
2000
0000
0010
0000
3001
0100
0010
0000
,
2000
0000
0100
0000
3010
0100
0001
0000
,
0020
0000
0100
0000
0031
0100
0010
0000
,
0000
1000
0000
0001
0000
1000
0000
0100
,
0010
0110
0010
0011
,
0001
0101
0010
0110
,
1000
1010
1000
1100
,
0001
0011
0100
0010
,
1000
0000
1001
0000
0100
0010
1000
0000
,
0100
0000
0110
0000
0010
0100
1000
0000
,
0001
0000
0101
0000
0010
0100
0001
0000
,
1000
0000
0110
0000
1001
0000
0100
0010
,
0100
0100
0100
0000
0010
0010
0000
1000
,
1000
0000
0001
0001
0000
0000
1000
0000
,
0100
0100
0100
0000
0010
0010
0000
0001
,
0001
0000
0100
0100
0000
0000
1010
0000
,
1000
0100
0010
0000
0010
0100
1000
0000
,
0001
0100
0010
0000
0010
0100
0001
0000
,
1000
0100
0001
0000
0001
0100
1000
0000
,
0010
0000
0100
0000
0001
1000
0100
0000
,
0011
0000
0000
0000
;

//---------------dance-single - C. Picardy----------------
#NOTES:
     dance-single:
     :
     Hard:
     7:
     0.485223,0.499923,0.163909,0.245864,0.036424,373.000000,355.000000,18.000000,27.000000,0.000000,0.000000,0.485223,0.499923,0.163909,0.245864,0.036424,373.000000,355.000000,18.000000,27.000000,0.000000,0.000000:
0000
0000
0000
0000
,
0000
0000
0000
0000
0000
0000
0000
0000
0000
0000
0000
0000
0001
0000
1000
0200
,
0000
0000
0000
0000
0000
0000
0000
0000
0300
0000
0000
0000
1000
0000
0001
0200
,
0000
0000
0300
0000
,
0020
1000
0130
0000
,
1010
0000
0100
0000
0001
0100
1000
0000
,
1000
0100
0001
0000
0010
0000
0100
2000
,
0000
0001
3001
0000
1000
0100
0001
0000
,
0001
0100
1000
0000
0001
0000
0100
0002
,
0000
1000
1003
0000
0001
0100
1000
0000
,
1000
0100
0001
0000
1000
0000
0100
0020
,
0000
0100
0130
0000
1000
0100
0010
0000
,
0001
0100
0010
0000
1000
0001
0100
0001
,
0011
0000
0100
0000
0010
1000
0100
0000
,
1000
0100
0010
0001
0020
0000
0130
2000
,
0000
0001
3001
0000
0010
0100
1000
0000
,
0001
0100
0010
1000
0002
0000
0103
0020
,
0000
1000
1030
0000
0001
0100
1000
0000
,
1000
0100
0001
0010
0200
0000
1300
0020
,
0000
0100
0130
0000
0001
0100
0010
0000
,
1000
0000
0000
0000
1010
0000
0000
0000
0100
0000
0000
0001
0010
0000
0001
0000
,
1001
0000
1000
0100
0010
0100
1000
0100
,
0010
0100
1000
0100
0020
0000
0031
0201
,
0000
0010
0310
1000
0001
0100
0010
0100
,
0001
0100
0010
0100
0002
0000
1003
1200
,
0000
1000
1300
0010
0100
0010
1000
0010
,
0100
0010
1000
0001
0200
0000
0301
1002
,
0000
0010
0013
0001
0100
0010
0100
0001
,
0010
0100
1000
0000
0101
0000
1000
0100
,
0010
0100
1000
0000
0001
0100
1000
0000
,
1000
0100
0001
0000
1000
0000
0100
0020
,
0000
0000
0001
0000
0031
0000
0000
0100
0000
0000
0010
0000
0000
0000
1000
0000
,
0001
0100
0010
0000
1000
0000
0100
2000
,
0000
0000
0001
0000
3001
0000
0000
1000
0000
0000
0001
0000
0000
0000
0100
0000
,
0010
0100
0001
0000
0010
0000
0100
0020
,
0000
0000
0100
0000
0130
0000
0000
1000
0000
0000
0001
0000
0000
0000
0100
0000
,
0010
0000
1000
0000
1000
0000
0000
0000
0001
0000
0000
1000
0100
0000
0110
0000
,
0010
0100
1000
0000
1000
0100
0010
0000
,
0010
0001
0100
0000
0100
0001
0010
0000
,
0001
0100
1000
0000
1000
0100
0001
0000
,
0001
0100
1000
0000
0110
0000
0101
0000
,
1000
0010
0001
0000
0001
0010
1000
0000
,
0001
0100
1000
0000
1000
0100
0001
0000
,
0001
0010
1000
0000
1000
0010
0001
0000
,
0000
1100
0000
0001
0000
0101
0000
1000
,
0001
0100
0010
0100
0001
0010
0000
0100
,
0010
0000
0100
1000
0000
0001
0100
0100
,
0001
0010
0100
0010
0100
1000
0000
0100
,
0010
0000
0001
1000
0000
0010
1000
1000
,
0010
0100
0001
0010
0100
0010
0000
0100
,
1000
0000
0001
1000
0000
0100
0010
0010
,
0100
1000
0100
0010
0001
1000
0000
0010
,
0100
0000
0101
0000
0110
0000
0001
1000
,
0100
1000
0010
1000
0001
0010
0100
1000
,
2000
0000
3001
0002
0000
0103
0100
0010
,
1000
0010
0100
0010
1000
0010
0100
0001
,
0002
0000
0013
0020
0000
0130
0100
1000
,
0001
0010
0100
0010
0001
0010
0100
1000
,
2000
0000
3001
0002
0000
0103
0100
0010
,
0100
0001
0010
0100
1000
0010
0100
0010
,
1000
0000
0000
0000
1100
0000
0000
0000
0101
0000
0000
0100
0010
0000
0100
0000
,
1001
0000
0000
0000
;

//---------------dance-single - C. Picardy----------------
#NOTES:
     dance-single:
     :
     Challenge:
     9:
     0.669946,0.666564,0.245864,0.437091,0.346030,515.000000,488.000000,27.000000,48.000000,21.000000,13.000000,0.669946,0.666564,0.245864,0.437091,0.346030,515.000000,488.000000,27.000000,48.000000,21.000000,13.000000:
// measure 0
0000
0000
0000
0000
,  // measure 1
0000
0000
0000
0000
0000
0000
0000
0000
0000
0000
0000
0000
1000
0000
0100
2000
,  // measure 2
0000
0000
0001
0000
0001
0000
0000
0100
0000
0000
0010
0000
0000
0000
0001
0000
0000
0000
0100
0000
0100
0000
0000
0000
0010
0000
0000
0000
0100
0000
3002
0000
,  // measure 3
0000
0000
0010
0000
0010
0000
0000
1000
0000
0000
0100
0000
0000
0000
0010
0000
0000
0000
1000
0000
1000
0000
0000
0100
0000
0000
1000
0000
0000
0000
0100
0000
,  // measure 4
0013
0000
0000
0100
0000
0000
1000
0000
0400
0000
0040
0000
0000
0000
0000
0000
0000
0000
0000
0000
0000
0000
0000
0000
0000
0000
0000
0000
0330
0000
0000
0000
,  // measure 5
1100
0100
0010
0100
1000
0100
0010
0100
,  // measure 6
1000
0001
0100
0001
0012
00M0
1003
2100
,  // measure 7
0M00
0000
3010
0000
0010
0000
0100
0001
0000
0000
0010
0000
0100
0000
0010
0000
,  // measure 8
0001
0000
0100
0010
1000
0000
0001
0000
0201
0000
000M
0000
0310
0000
1020
0000
,  // measure 9
M000
0000
1030
0000
1000
0000
0100
0010
0000
0000
0100
0000
1000
0000
0100
0000
,  // measure 10
0001
0000
0100
0010
0001
0000
0100
0000
0120
0000
0M00
0000
1030
0000
2001
0000
,  // measure 11
000M
0000
3010
0000
0010
0000
0100
0010
0000
0000
0100
0000
0001
0000
0100
0000
,  // measure 12
0010
0000
0100
0001
1000
0000
0100
0000
1000
0000
0010
0100
0001
0000
1000
0000
,  // measure 13
0101
0100
1000
0100
0001
0100
1000
0100
,  // measure 14
0001
0010
1000
0010
0210
00M0
0310
0012
,  // measure 15
00M0
0000
0103
0000
0100
0000
0010
1000
0000
0000
0001
0000
0100
0000
1000
0000
,  // measure 16
0100
0000
0001
0010
0100
0000
1000
0000
1002
0000
M000
0000
0103
0000
0201
0000
,  // measure 17
000M
0000
0310
0000
1000
0000
0001
0010
0000
0000
0100
0000
1000
0000
0100
0000
,  // measure 18
0010
0000
0001
0100
0010
0000
1000
0000
2100
0000
0M00
0000
3001
0000
0021
0000
,  // measure 19
000M
0000
0031
0000
1000
0000
0001
1000
0000
0000
0100
0000
0010
0000
0001
0000
,  // measure 20
0100
0001
0100
0001
0100
0001
0100
0001
1000
0010
1000
0010
1000
0000
0001
0000
,  // measure 21
1MM1
1000
0100
0001
0100
1000
0100
0001
,  // measure 22
0100
1000
0001
0100
0220
0000
1000
1000
,  // measure 23
0330
0000
0001
0000
0001
0000
0100
0010
0000
0010
1000
0000
0001
0000
0010
0000
,  // measure 24
0100
0010
0001
1000
2200
0000
0010
0010
,  // measure 25
3300
0000
0100
0000
0010
0000
0001
0100
0000
0100
0010
0000
1000
0000
0100
0000
,  // measure 26
0010
0100
1000
0001
0202
0000
1000
1000
,  // measure 27
0303
0000
0001
0000
0100
0000
0010
1000
0000
1000
0100
0000
0010
0000
0100
0000
,  // measure 28
1000
0000
0100
0000
0010
0000
0001
0100
0000
0100
0010
0000
1000
0000
0100
0000
,  // measure 29
0110
0010
0001
0100
1000
0100
0001
0100
,  // measure 30
1000
0100
0001
1000
2200
0000
0001
0010
,  // measure 31
3300
0000
0100
0000
1000
0000
0001
0010
0000
0001
0010
0000
0001
0000
0100
0000
,  // measure 32
1000
0000
0100
0010
0100
0000
0001
0000
0202
0000
0000
0000
0010
0000
1000
0000
,  // measure 33
0303
0000
0001
0000
0010
0000
0100
0010
0000
0100
1000
0000
0001
0000
0100
0000
,  // measure 34
0010
0000
1000
0010
1000
0000
0001
0000
2002
0000
0000
0000
0010
0000
0010
0000
,  // measure 35
3003
0000
0100
0000
0001
0000
0100
0010
0000
1000
0001
0000
0010
0000
0100
0000
,  // measure 36
1000
0000
0010
0100
0010
0000
1000
0000
0001
0000
1000
0100
1000
0000
0010
0000
,  // measure 37
0001
0010
1000
0010
0001
0010
1000
0100
,  // measure 38
0001
0100
1000
0100
0001
0100
1000
0010
,  // measure 39
0100
0010
0001
0010
0100
0010
0001
0010
,  // measure 40
1000
0100
0010
0002
0200
0000
1010
0303
,  // measure 41
0001
0010
1000
0010
0001
0010
1000
0010
,  // measure 42
0100
0001
0100
0010
0100
0001
0100
0010
,  // measure 43
0100
1000
0010
0100
0010
1000
0001
00M2
,  // measure 44
0000
0000
0M20
0003
000M
0000
M200
0030
00M0
0000
2000
0300
0M00
0000
0010
3000
,  // measure 45
M100
0001
0020
0001
0001
0031
0200
0010
,  // measure 46
0310
2000
0100
3100
0010
0100
1000
0001
,  // measure 47
0200
0010
0320
1000
1000
2030
0001
3001
,  // measure 48
0020
0100
0230
1000
1300
0100
0010
0001
,  // measure 49
0200
1000
1300
0200
0001
0302
1000
1000
,  // measure 50
2003
0100
0100
3100
0001
0100
1000
0010
,  // measure 51
0200
0010
0310
0200
0001
0302
0010
0023
,  // measure 52
0100
0100
0130
1000
0001
0100
0101
0110
,  // measure 53
1000
0000
0001
0100
0010
0000
1000
0000
0001
0010
0100
0000
1000
0000
0001
0000
,  // measure 54
0100
0000
0010
1000
0001
0000
1000
0000
0100
0010
0001
0000
1000
0000
0010
0000
,  // measure 55
0100
0000
0001
1000
0100
0000
0010
0000
0001
0100
0010
0000
1000
0000
0001
0000
,  // measure 56
0010
0000
0100
0010
0001
0000
1000
0000
0010
0100
0001
0000
0010
0000
0100
0000
,  // measure 57
1000
0100
1000
0000
0010
0000
0100
0001
0000
0001
0010
0000
0100
1000
0100
0000
,  // measure 58
0010
0001
0010
0000
0001
0000
0100
0010
0000
0010
1000
0000
0001
0100
0001
0000
,  // measure 59
0100
0010
0100
0000
0001
0000
1000
0100
0000
0100
1000
0000
0010
0100
0010
0000
,  // measure 60
1000
0001
1000
0000
0100
0000
0100
0000
0010
0000
0000
0100
0010
0000
0110
0000
,  // measure 61
1001
0000
0000
0000
;
