#VERSION:0.83;
#TITLE:Ti Un Fou;
#SUBTITLE:;
#ARTIST:Olivier Deriviere;
#TITLETRANSLIT:;
#SUBTITLETRANSLIT:;
#ARTISTTRANSLIT:;
#GENRE:;
#ORIGIN:;
#CREDIT:;
#BANNER:tiunfoubn.png;
#BACKGROUND:tiunfoubg.png;
#PREVIEWVID:;
#JACKET:;
#CDIMAGE:;
#DISCIMAGE:;
#LYRICSPATH:;
#CDTITLE:;
#MUSIC:tiunfou.ogg;
#OFFSET:0.603000;
#SAMPLESTART:6.433799;
#SAMPLELENGTH:11.339994;
#SELECTABLE:YES;
#DISPLAYBPM:170.000000;
#BPMS:0.000=170.000,
192.000=42.500,
193.000=170.000,
212.500=680.000,
213.000=170.000;
#STOPS:212.500=0.132;
#DELAYS:;
#WARPS:;
#TIMESIGNATURES:0.000=4=4;
#TICKCOUNTS:0.000=4;
#COMBOS:0.000=1;
#SPEEDS:0.000=1.000=0.000=0;
#SCROLLS:0.000=1.000;
#FAKES:;
#LABELS:0.000=Song Start;
#BGCHANGES:12.000=greenmatrix.mp4=1.000=1=0=1=SongBgWithMovieViz==CrossFade==,
20.000=flash=1.600=0=0=1====#00FF00=,
20.250=greenmatrix.mp4=1.000=0=0=1=====,
52.000=redmatrixrings.mp4=1.000=0=1=1=StretchRewind==CrossFade_Fastest==,
84.000=greenmatrix.mp4=1.000=0=0=1===CrossFade_Fastest==,
116.000=redmatrixrings.mp4=1.000=0=0=1===CrossFade_Fastest==,
148.000=greenmatrix.mp4=1.000=0=0=1===CrossFade_Fastest==,
176.000=flash=0.900=0=0=1====#FF0000=,
176.250=tiunfoubg.png=1.000=1=0=1===CrossFade==,
180.000=redmatrixrings.mp4=1.000=0=0=1=====,
181.000=greenmatrix.mp4=1.000=0=0=1=====,
182.000=redmatrixrings.mp4=1.000=0=0=1=====,
183.000=greenmatrix.mp4=1.000=0=0=1=====,
184.000=redmatrixrings.mp4=1.000=0=0=1=====,
185.000=greenmatrix.mp4=1.000=0=0=1=====,
186.000=redmatrixrings.mp4=1.000=0=0=1=====,
187.000=greenmatrix.mp4=1.000=0=0=1=====,
188.000=tiunfoubg.png=1.000=0=0=1====#FF0000=,
189.000=tiunfoubg.png=1.000=0=0=1====#00FF00=,
190.000=tiunfoubg.png=1.000=0=0=1====#0000FF=,
191.000=tiunfoubg.png=1.000=0=0=1=====,
192.000=flash=0.800=0=0=1====#FF0000=,
192.167=tiunfoubg.png=1.000=1=0=1===CrossFade==,
193.000=plasmavortex.mp4=1.000=0=1=1=StretchRewind==SlideLeft==,
212.500=tiunfoubg.png=1.000=0=0=1=====,
213.000=flash=1.600=0=0=1====#00FF00=,
213.250=plasmavortex.mp4=1.000=0=0=1=====,
225.000=flash=2.000=0=0=1=====,
225.250=plasmavortex.mp4=2.000=0=1=1=StretchRewind====,
241.000=greenmatrix.mp4=2.000=0=0=1=====,
257.000=plasmavortex.mp4=2.000=0=1=1=StretchRewind====,
305.000=redmatrixrings.mp4=2.000=0=0=1===SlideRight==,
337.000=redmatrixrings.mp4=2.000=0=0=1=Checkerboard1File2x2====,
369.000=tiunfoubg.png=1.000=0=0=1===SlideUp==,
99999=-nosongbg-=1.000=0=0=0 // don't automatically add -songbackground-
;
#KEYSOUNDS:;
#ATTACKS:
;

//---------------dance-single - C. Picardy----------------
#NOTEDATA:;
#CHARTNAME:;
#STEPSTYPE:dance-single;
#DESCRIPTION:C. Picardy;
#CHARTSTYLE:;
#DIFFICULTY:Beginner;
#METER:1;
#RADARVALUES:0.121368,0.279904,0.075855,0.037927,0.000000,112.000000,102.000000,10.000000,5.000000,0.000000,0.000000,0.000000,0.000000,0.000000,0.121368,0.279904,0.075855,0.037927,0.000000,112.000000,102.000000,10.000000,5.000000,0.000000,0.000000,0.000000,0.000000,0.000000;
#CREDIT:C. Picardy;
#DISPLAYBPM:170.000000;
#NOTES:
// measure 0
0000
0000
0000
0000
,  // measure 1
0000
0000
0000
0000
,  // measure 2
0000
0000
0000
0000
,  // measure 3
0000
0000
0000
0000
,  // measure 4
0000
0000
0000
0000
,  // measure 5
1000
0000
0000
0000
,  // measure 6
0001
0000
0000
0000
,  // measure 7
1000
0000
0000
0000
,  // measure 8
0001
0000
0000
0000
,  // measure 9
0100
0000
0000
0000
,  // measure 10
0010
0000
0000
0000
,  // measure 11
0100
0000
0000
0000
,  // measure 12
0010
0000
0000
0000
,  // measure 13
1000
0000
1000
0000
,  // measure 14
1000
0000
0000
0000
,  // measure 15
0001
0000
0001
0000
,  // measure 16
0001
0000
0000
0000
,  // measure 17
0100
0000
0100
0000
,  // measure 18
0100
0000
0000
0000
,  // measure 19
0010
0000
0010
0000
,  // measure 20
0010
0000
0000
0000
,  // measure 21
0001
0000
0000
0000
,  // measure 22
1000
0000
0000
0000
,  // measure 23
0001
0000
0000
0000
,  // measure 24
1000
0000
0000
0000
,  // measure 25
0010
0000
0000
0000
,  // measure 26
0100
0000
0000
0000
,  // measure 27
0010
0000
0000
0000
,  // measure 28
0100
0000
0000
0000
,  // measure 29
0001
0000
0000
0000
,  // measure 30
0010
0000
0000
0000
,  // measure 31
0100
0000
0000
0000
,  // measure 32
1000
0000
0000
0000
,  // measure 33
0010
0000
0000
0000
,  // measure 34
0100
0000
0000
0000
,  // measure 35
0001
0000
0000
0000
,  // measure 36
1000
0000
0000
0000
,  // measure 37
0100
0000
0000
0000
,  // measure 38
0010
0000
0000
0000
,  // measure 39
0001
0000
0000
0000
,  // measure 40
1000
0000
0000
0000
,  // measure 41
0010
0000
0000
0000
,  // measure 42
0100
0000
0000
0000
,  // measure 43
0001
0000
0000
0000
,  // measure 44
0200
0000
0000
0300
,  // measure 45
0100
0100
0100
0000
,  // measure 46
0010
0010
0010
0000
,  // measure 47
1000
1000
1000
0000
,  // measure 48
0001
1001
0000
0000
,  // measure 49
0000
0100
0000
0000
,  // measure 50
0000
0010
0000
0000
,  // measure 51
0000
1000
0000
0000
,  // measure 52
0000
0001
0000
0000
,  // measure 53
0000
1000
0000
0000
,  // measure 54
0000
2002
0000
0000
,  // measure 55
0000
0000
0000
3003
,  // measure 56
0000
0100
0000
0100
,  // measure 57
0000
0100
0000
0000
,  // measure 58
0000
0010
0000
0010
,  // measure 59
0000
0010
0000
0000
,  // measure 60
0000
1000
0000
0000
,  // measure 61
0000
0002
0000
0003
,  // measure 62
0000
0100
0000
0000
,  // measure 63
0000
0020
0000
0030
,  // measure 64
0000
0010
0000
0000
,  // measure 65
0000
0100
0000
0000
,  // measure 66
0000
0001
0000
0000
,  // measure 67
0000
1000
0000
0000
,  // measure 68
0000
0100
0000
0000
,  // measure 69
0000
0010
0000
0000
,  // measure 70
0000
0001
0000
0000
,  // measure 71
0000
1000
0000
0000
,  // measure 72
0000
0010
0000
0010
,  // measure 73
0000
0010
0000
0000
,  // measure 74
0000
0100
0000
0100
,  // measure 75
0000
0100
0000
0000
,  // measure 76
0000
1001
0000
0000
,  // measure 77
0000
1001
0000
0000
,  // measure 78
0000
1001
0000
0000
,  // measure 79
0000
1001
0000
0000
,  // measure 80
0000
0110
0000
0000
,  // measure 81
0000
0110
0000
0000
,  // measure 82
0000
0110
0000
0000
,  // measure 83
0000
0110
0000
0000
,  // measure 84
0000
1000
0000
0000
,  // measure 85
0000
0001
0000
0000
,  // measure 86
0000
1000
0000
0000
,  // measure 87
0000
0001
0000
0000
,  // measure 88
0000
0100
0000
0000
,  // measure 89
0000
0010
0000
0000
,  // measure 90
0000
0100
0000
0000
,  // measure 91
0000
0010
0000
0000
,  // measure 92
0000
0100
0000
0000
;

//---------------dance-single - C. Picardy----------------
#NOTEDATA:;
#CHARTNAME:;
#STEPSTYPE:dance-single;
#DESCRIPTION:C. Picardy;
#CHARTSTYLE:;
#DIFFICULTY:Challenge;
#METER:12;
#RADARVALUES:1.046795,1.154603,0.978526,0.030342,1.171955,966.000000,837.000000,129.000000,4.000000,240.000000,2.000000,14.000000,0.000000,0.000000,1.046795,1.154603,0.978526,0.030342,1.171955,966.000000,837.000000,129.000000,4.000000,240.000000,2.000000,14.000000,0.000000,0.000000;
#CREDIT:C. Picardy;
#DISPLAYBPM:170.000000;
#NOTES:
0000
0000
0000
0000
,
0000
0000
0000
0000
,
0000
0000
0000
0000
,
1M00
0000
1000
00M1
0000
0001
1M00
0000
1000
00M1
0000
0001
,
M100
0000
0100
001M
0000
0010
M100
0000
0100
001M
0000
0000
,
1MM1
11MM
MM11
M1M1
,
1M1M
0000
0000
11MM
0000
0000
MM11
0000
0001
0100
0000
0010
,
1M1M
1MM1
11MM
M1M1
,
MM11
0000
0000
1M1M
0000
1000
0000
0000
0001
1000
0000
0100
,
11MM
MM11
1M1M
M1M1
,
M11M
0000
0000
1MM1
0000
0000
11MM
0000
0001
0100
0000
0001
,
MM11
M1M1
1M1M
11MM
,
MM11
0000
0000
11MM
0000
0000
M1M1
0000
0010
1000
0000
0010
,
M11M
0000
1000
1MM1
0000
1000
11MM
0000
0001
M1M1
0000
1000
,
1M1M
0000
0001
1MM1
0000
0000
M11M
0000
1000
0001
0000
1000
,
11MM
0000
0001
M1M1
0000
0010
MM11
0000
1000
1M1M
0000
0100
,
M11M
0000
0001
MM11
0000
0001
0000
0000
0100
0010
0000
1000
,
1MM1
0000
1000
1M1M
0000
0001
MM11
0000
0001
M1M1
0000
1000
,
1M1M
0000
1000
11MM
0000
0001
M1M1
0000
0100
0010
0000
1000
,
1MM1
0000
0100
M11M
0000
1000
1M1M
0000
0001
MM11
0000
0010
,
M11M
0000
0100
11MM
0000
1000
1MM1
0000
0001
0100
0000
0000
,
0010
0000
0010
1000
0000
1000
0100
0000
0100
0001
0000
0001
,
0100
0000
0100
1000
0000
1000
0010
0000
0010
0001
0000
0001
,
0010
0000
0010
1000
0000
1000
0001
0000
0001
0100
0000
0100
,
1000
0000
1000
0100
0000
0100
0010
0000
0010
1000
0100
0010
,
0001
0000
0001
0100
0000
1000
0100
0000
0010
1000
0000
0100
,
0001
0000
0100
0010
0000
0100
1000
0000
0010
0001
0000
0010
,
1000
0000
0001
0100
0000
0001
0010
0000
1000
0010
0000
0100
,
1000
0000
0100
0001
0000
1000
0010
0000
0001
1000
0000
0010
,
M100
0001
01M0
0100
M001
0100
01M1
0101
,
001M
1000
1M00
0010
001M
1000
1M10
1010
,
010M
1000
01M0
1000
100M
0100
11M0
1100
,
M010
0001
0M10
0010
M001
0001
0M11
0011
,
M100
0100
001M
0100
M010
0010
011M
0110
,
1M00
0001
00M1
1000
1M00
0001
10M1
1001
,
100M
0100
M100
0010
0M01
0001
M011
0011
,
M100
0001
00M1
0100
M010
1000
1M1M
1010
,
0001
0100
0001
0100
0010
0010
1000
1000
,
0100
0001
0100
0001
0100
0100
0010
0010
,
0001
0100
1000
0100
0010
0010
1000
1000
,
0100
1000
0010
0001
0010
0010
1000
1000
,
0100
0001
0100
0010
0001
0001
0100
0100
,
1000
0100
0010
1000
0100
0100
0010
0010
,
0100
0010
1000
0010
0001
0001
0100
0100
,
4MM4
0000
0MM0
0000
0MM0
0000
0MM0
3003
,
1MM1
M00M
0110
0MM0
1001
M00M
1100
MM00
,
0101
0000
0000
0M0M
0000
0000
0011
0000
0000
00MM
0000
0000
1010
0000
0000
M0M0
0000
0000
0011
0000
0000
0000
0001
0000
,
1000
0002
0200
0020
,
2000
0000
0000
3333
0010
1000
0100
0010
0001
0100
0010
1000
0100
0010
0100
0010
,
0100
0010
0100
1000
0001
0100
0010
1000
0100
0010
0001
1000
0010
0100
0010
0100
,
0010
0100
0010
1000
0001
0010
0100
1000
0100
0010
0001
0100
0010
1000
0010
1000
,
0010
1000
0010
0100
0001
0010
0100
0010
0001
1000
0010
0100
0001
0010
0001
0010
,
0001
0010
0001
1000
0010
0100
0010
1000
0001
0010
0100
1000
0010
0100
0010
1000
,
0001
0100
0010
0000
1MM0
0100
0010
0100
1000
0001
0100
0010
1000
0100
1000
0100
,
1000
0100
1000
0001
0100
0010
1000
0010
1000
0010
1000
0100
0010
0001
0010
0001
,
0010
0100
1000
0001
0100
0010
0100
0010
0100
0001
1000
0100
0010
0001
0010
0100
,
1000
0001
M00M
0000
1000
0001
0100
0010
0100
0001
1000
0100
0010
0001
0010
0001
,
0010
0001
0010
0001
0010
0100
1000
0001
0100
0010
1000
0100
0010
0100
0010
0100
,
0010
0100
0010
0100
0010
0100
1000
0001
0100
0010
1000
0001
1000
0100
1000
0100
,
1000
0100
1000
0100
1000
0001
0100
0010
1000
0100
0010
0001
0100
0001
0100
0001
,
0100
0001
0100
0001
M400
0000
0000
0000
004M
0000
0000
0030
4000
0000
0000
3000
,
00M4
0000
0000
0303
4040
0000
0000
0000
000M
0000
0000
0000
0M00
0000
0000
0000
,
000M
0000
3030
0000
M400
0000
0000
0000
004M
0000
0000
0030
M004
0000
0000
0003
,
40M0
0000
0000
3300
0404
0000
0000
0000
M000
0000
0000
0000
00M0
0000
0000
0000
,
M000
0000
0303
0000
0001
0100
0010
1000
0100
0010
0001
0100
0010
1000
0010
1000
,
0010
1000
0010
1000
0010
0100
0001
0010
0100
1000
0010
0100
0001
0010
0001
0010
,
0001
0010
0001
0010
0001
1000
0100
0010
0100
1000
0010
0100
0001
1000
0001
1000
,
0001
1000
0001
1000
0001
0010
0100
1000
0010
0100
0001
0010
0100
1000
0100
1000
,
0100
1000
0100
1000
0100
0010
0001
0010
0100
1000
0001
1000
0010
0100
0010
0100
,
0010
0100
0010
0100
0010
1000
0100
0010
0001
0100
0010
1000
0100
0010
0100
0010
,
0100
0010
0100
0010
0100
1000
0001
0100
0010
1000
0100
0010
0001
0100
0001
0100
,
0001
0100
0001
0100
0001
0010
0100
1000
0010
0100
0001
1000
0010
1000
0010
1000
,
0010
1000
0010
1000
0010
0100
0001
0010
0100
1000
0001
0100
0001
0010
0001
0010
,
0001
0010
0001
0010
0001
1000
0010
0100
0001
1000
0100
0010
0001
1000
0001
1000
,
0001
1000
0001
1000
0001
0010
0100
1000
0010
0100
0010
1000
0100
0010
0100
0010
,
0100
0010
0100
0010
0100
1000
0001
0100
0010
1000
0100
0010
0001
1000
0001
1000
,
0001
1000
0001
1000
0001
0000
0010
0000
0110
0000
0100
0000
1100
0000
MM00
0101
,
0000
0M0M
1010
0000
M0M0
0000
0001
0000
0101
0000
0001
0000
0101
0000
0M0M
1100
,
0000
MM00
0011
0000
00MM
0000
1000
0000
1100
0000
MM01
0000
0101
0000
0M0M
1010
,
0000
M0M0
0101
0000
0M0M
0000
1000
0000
1100
0000
MM01
0000
0011
0000
00MM
0110
,
0000
0MM0
1001
0000
M00M
0000
1000
0000
1010
0000
M0M1
0000
0011
0000
00MM
0101
,
0000
0M0M
1100
0000
MM00
0000
0010
0000
0110
0000
1MM0
0000
1001
0000
M00M
0011
,
0000
00MM
1010
0000
M0M0
0100
0000
0000
0101
0000
0101
0000
1100
0000
MM00
0011
,
0000
00MM
1100
0000
MM00
0001
0000
0000
0011
0000
0011
0000
0110
0000
0110
0000
,
1000
0001
0100
0000
1001
0000
1000
0000
0100
0000
0010
0000
0001
0010
0000
0010
,
0100
0000
1000
0010
1010
0000
0100
0000
0001
0000
0010
0000
0100
1000
0000
1000
,
0010
0100
0010
0000
1001
0000
0010
0000
0100
0000
1000
0000
0001
0100
0000
0100
,
0010
0000
1000
0001
1001
0000
0010
0000
0100
0000
0010
0000
0001
1000
0000
1000
,
0100
0000
0010
0001
0011
0000
0010
0000
0100
0000
1000
0000
0001
0010
0000
0010
,
0001
0000
0100
0010
0110
0000
1000
0000
0001
0000
1000
0000
0100
0010
0000
0010
,
0001
0000
0100
0001
0101
0000
1000
0010
1000
0000
1001
0000
0100
0010
0100
0000
,
0010
0000
1001
0000
0000
1100
0000
0000
0101
0000
0101
0000
1010
0000
0011
0000
,
1000
0100
0010
0000
1001
0000
0000
0000
0000
0000
0000
0000
0000
0000
0000
0000
;

//---------------dance-single - C. Picardy----------------
#NOTEDATA:;
#CHARTNAME:;
#STEPSTYPE:dance-single;
#DESCRIPTION:C. Picardy;
#CHARTSTYLE:;
#DIFFICULTY:Hard;
#METER:9;
#RADARVALUES:0.762882,0.734748,0.720620,0.075855,0.447543,704.000000,609.000000,95.000000,10.000000,45.000000,0.000000,6.000000,0.000000,0.000000,0.762882,0.734748,0.720620,0.075855,0.447543,704.000000,609.000000,95.000000,10.000000,45.000000,0.000000,6.000000,0.000000,0.000000;
#CREDIT:C. Picardy;
#DISPLAYBPM:170.000000;
#NOTES:
0000
0000
0000
0000
,
0000
0000
0000
0000
,
0000
0000
0000
0000
,
1000
0000
1000
0100
0000
0100
1000
0000
1000
0001
0000
0001
,
1000
0000
1000
0010
0000
0010
0100
0000
0000
0100
0000
0000
,
0110
0110
1010
1010
,
1100
0000
0000
1100
0000
0000
0011
0000
0001
MM10
0000
0000
,
0101
0101
1010
1010
,
1001
0000
0000
1001
0000
1000
0000
0000
0001
1MM0
0000
0000
,
1100
1100
0011
0011
,
0101
0000
0000
0101
0000
0000
1010
0000
0010
1M0M
0000
0000
,
1001
1001
0110
0110
,
1001
0000
0000
0110
0000
0000
1001
0000
0100
M01M
0000
0000
,
1100
0011
0101
1010
,
1100
0000
0000
0101
0000
0000
1010
0000
0100
M0M1
0000
0000
,
0101
1010
1100
0110
,
0011
0000
0000
1001
0000
0001
0000
0000
1000
01MM
0000
0000
,
0011
0101
1010
0101
,
1100
0000
0000
0101
0000
0000
0110
0000
1000
0MM1
0000
0000
,
1100
1100
0101
0101
,
1001
0000
0000
1001
0000
0000
0110
0000
1000
0MM1
0000
0000
,
0100
0000
0100
0010
0000
0010
1000
0000
1000
0010
0000
0010
,
1000
0000
1000
0001
0000
0001
1000
0000
1000
0100
0000
0100
,
0010
0000
0010
0100
0000
0100
0010
0000
0010
0001
0000
0001
,
0100
0000
0100
0001
0000
0001
1000
0000
1000
0100
0010
0100
,
0010
0000
0010
0001
0000
0001
0010
0000
0010
1000
0000
1000
,
0010
0000
0010
0001
0000
0001
0100
0000
0100
1000
0000
1000
,
0100
0000
0100
0010
0000
0010
1000
0000
1000
0100
0000
0100
,
0001
0000
0001
0100
0000
0100
1000
0000
1000
0010
0000
0010
,
0100
0001
0100
0010
1000
1000
1010
0000
,
0001
0100
0001
0100
0100
0010
0110
0000
,
1000
0010
0010
1000
0010
1000
1010
0000
,
0001
0010
0010
0001
0010
0001
0011
0000
,
1000
0100
0010
0100
0100
1000
1100
0000
,
0010
0100
0010
0100
0100
0010
0110
0000
,
0001
0010
0010
0001
0100
0100
0110
0000
,
1000
0010
0010
1000
0001
0001
1001
0000
,
0100
0000
0100
0010
0000
0010
0100
0000
0000
1001
0000
0000
,
1000
0000
1000
0100
0000
0100
1000
0000
0000
0101
0000
0000
,
0010
0000
0010
1000
0000
1000
0010
0000
0000
1001
0000
0000
,
0001
0000
0001
0010
0000
0010
0100
0000
0000
0011
0000
0000
,
0010
0000
0010
0100
0000
0100
0010
0000
0000
1100
0000
0000
,
0010
0000
0010
0100
0000
0100
0010
0000
0000
1010
0000
0000
,
1000
0000
1000
0001
0000
0001
1000
0000
0000
1001
0000
0000
,
M22M
0000
0000
M33M
,
1001
1100
0101
1010
,
0011
0000
0000
1100
0000
0000
0110
0000
0000
1001
0000
1000
,
0200
0010
0001
1300
,
0202
0000
0000
0303
0001
0000
0100
0000
0001
0000
0100
0000
0010
0000
0100
0000
,
0010
0100
1000
0100
1000
0100
0001
0010
,
0001
0010
0100
1000
0100
1000
0100
0001
,
0100
0001
0100
0010
0100
0010
0001
0010
,
0001
0010
1000
0010
1000
0010
0001
0010
,
0100
1000
0000
0000
0001
0000
0100
0000
0010
0000
0100
0000
0001
0000
0100
0000
,
0010
1000
04M0
0000
0000
0000
M040
0000
,
0300
0M04
0030
4000
,
3MM3
0000
0000
0000
0001
0000
0010
0000
0100
0000
0010
0000
0001
0010
0001
0000
,
0100
0000
0010
0000
0100
0000
0001
0000
1000
0000
0010
0000
1000
0010
1000
0010
,
1000
0000
0100
0000
0010
0000
0100
0000
1000
0000
0100
0000
0010
0100
0010
0000
,
0001
0000
0010
0000
0100
0000
1000
0000
0010
0000
0100
0000
0001
0100
0001
0100
,
0001
1000
0020
0000
0230
0000
0301
0100
,
1000
0100
0004
0000
MMM0
0000
MMM0
0000
,
MMM0
0003
0020
0000
2030
0000
3010
0001
,
0010
0100
4000
0000
0MMM
0000
0MMM
0000
,
0MMM
0000
3000
0000
0001
0000
0100
0000
0010
0000
0100
0000
0001
0100
0001
0000
,
0010
0000
0100
0000
1000
0000
0100
0000
0010
0000
0100
0000
1000
0100
1000
0100
,
1000
0000
0001
0000
0010
0000
0100
0000
0010
0000
0001
0000
0010
0100
0010
0000
,
0001
0000
0010
0000
0100
0000
1000
0000
0010
0000
0100
0000
0001
0100
0001
0100
,
0001
0000
0010
0000
0100
0000
0010
0000
1000
0000
0010
0000
0001
0010
0001
0000
,
0100
0000
0010
0000
0100
0000
1000
0000
0100
0000
0010
0000
1000
0010
1000
0010
,
1000
0000
0100
0000
0001
0000
0100
0000
0010
0000
0100
0000
1000
0010
1000
0000
,
0001
0000
0100
0000
1000
0000
0100
0000
0001
0000
0010
0000
0100
0010
0100
0010
,
0100
0000
0010
0000
0100
0000
1000
0000
0001
0000
0100
0000
0010
1000
0001
0000
,
0010
0000
0100
0000
1000
0000
0100
0000
0010
0000
0001
0000
1000
0100
0010
0001
,
1000
0000
0010
0000
0100
0000
0001
0000
0100
0000
0010
0000
1000
0001
0100
0000
,
0010
0000
1000
0000
0100
0000
0010
0000
0001
0000
0010
0000
0100
1000
0001
0010
,
0100
0000
0MM0
0000
1000
0000
0100
0000
1000
0000
0001
0000
0100
0000
0000
0101
,
0000
0000
0101
0000
0000
0000
0100
0000
0010
0000
1000
0000
0001
0000
0000
1100
,
0000
0000
1100
0000
0000
0000
0010
0000
0100
0000
1000
0000
0001
0000
0000
1001
,
0000
0000
1001
0000
0000
0000
1000
0000
0100
0000
0010
0000
0001
0000
0000
0101
,
0000
0000
0110
0000
0000
0000
1000
0000
0010
0000
1000
0000
0100
0000
0000
0011
,
0000
0000
1100
0000
0000
0000
0001
0000
0100
0000
0010
0000
1000
0000
0000
0101
,
0000
0000
2010
0000
0000
0001
0000
0000
0001
0000
3001
0000
1000
0000
0000
0101
,
0000
0000
1100
0000
0000
0100
0000
0000
0100
0000
0100
0000
0010
0000
0010
0000
,
0001
0010
0001
0000
0011
0000
0010
0000
0100
0000
1000
0000
0001
0100
0000
0100
,
0010
0000
1000
0000
0100
0000
0010
0000
0100
0000
1000
0000
0010
0100
0000
0100
,
0001
0000
0010
0000
0100
0000
0010
0000
0001
0000
1000
0000
0100
0010
0000
0010
,
0100
0000
1000
0000
0010
0000
0100
0000
0001
0000
0010
0000
0001
0100
0000
0100
,
0010
0000
0010
1000
0001
0000
0010
0000
0100
0000
1000
0000
0010
0100
0000
0100
,
0001
0000
0010
0100
1000
0000
0001
0000
0100
0000
0010
0000
1000
0100
0000
0100
,
0010
0000
0100
1000
0001
0000
0100
0000
0010
0000
0100
0000
0001
1000
0000
1000
,
0100
0000
0010
0001
1000
0000
0010
0000
0100
0000
0100
0000
0001
0000
0001
0000
,
1000
0100
1000
0000
1100
0000
0000
0000
0000
0000
0000
0000
0000
0000
0000
0000
;

//---------------dance-single - C. Picardy----------------
#NOTEDATA:;
#CHARTNAME:;
#STEPSTYPE:dance-single;
#DESCRIPTION:C. Picardy;
#CHARTSTYLE:;
#DIFFICULTY:Medium;
#METER:7;
#RADARVALUES:0.536401,0.594796,0.508226,0.265491,0.064476,495.000000,428.000000,67.000000,35.000000,12.000000,0.000000,0.000000,0.000000,0.000000,0.536401,0.594796,0.508226,0.265491,0.064476,495.000000,428.000000,67.000000,35.000000,12.000000,0.000000,0.000000,0.000000,0.000000;
#CREDIT:C. Picardy;
#DISPLAYBPM:170.000000;
#NOTES:
0000
0000
0000
0000
,
0000
0000
0000
0000
,
0000
0000
0000
0000
,
0001
0010
0100
0010
,
2002
0000
0000
3003
,
0010
1100
0010
0101
,
1000
0000
0000
0110
0000
0000
1000
0000
0001
1000
0000
0000
,
0010
0101
1000
0101
,
1000
0000
0000
0100
0000
1000
0000
0000
0100
1000
0000
0000
,
0001
0011
0100
0101
,
0010
0000
0000
0110
0000
0000
0100
0000
0010
0100
0000
0000
,
0010
1010
0001
0011
,
1100
0000
0000
0101
0000
0000
0010
0000
0001
0010
0000
0000
,
1100
1100
0101
0101
,
1000
0000
0000
0001
0000
0000
0100
0000
0100
0010
0000
0000
,
1010
1010
0011
0011
,
0010
0000
0000
0100
0000
0100
0000
0000
1000
0100
0000
0000
,
0011
0011
1010
1010
,
1001
0000
0000
1001
0000
0000
0010
0000
0100
0010
0000
0000
,
0101
0101
1010
1010
,
0110
0000
0000
0110
0000
0000
0001
0000
1000
0001
0000
0000
,
0200
0010
1000
0301
,
0020
0001
0100
0031
,
0200
0010
1000
0310
,
2000
0100
0001
3010
,
0002
1000
0010
0103
,
0200
0010
1000
0301
,
0020
1000
0001
0130
,
2000
0010
0001
3010
,
1000
0100
1000
0000
0001
0000
0100
0000
,
0010
0100
0010
0000
1000
0000
0001
0000
,
0001
0010
0001
0000
1000
0000
0100
0000
,
0010
0100
0010
0000
0001
0000
1000
0000
,
0010
1000
0010
0000
0100
0000
0101
0000
,
1000
0100
1000
0000
0100
0000
0110
0000
,
0001
0010
0001
0000
1000
0000
1010
0000
,
0001
0100
0001
0000
0010
0000
1001
0000
,
1000
0100
0001
0000
0100
0000
1000
0000
,
0010
0001
0010
0000
1000
0000
0001
0000
,
0001
0100
1000
0000
0100
0000
0001
0000
,
0001
0010
1000
0000
0010
0000
0001
0000
,
1000
0100
0010
0000
0001
0000
0011
0000
,
0100
0010
1000
0000
0100
0000
0011
0000
,
1000
0010
0100
0000
0001
0000
1100
0000
,
0202
0000
0000
0303
,
1010
0100
0101
1000
,
1100
0001
0011
0100
,
1010
0101
0011
1100
,
0220
0000
0000
0330
0100
0000
0010
0000
0100
0000
0000
0000
0010
0000
0100
0000
,
0010
0000
0001
0010
0001
0000
0010
0001
,
0010
0000
0100
1000
0100
0000
1000
0100
,
1000
0000
0001
0100
0001
0000
0100
0001
,
0100
0000
0010
1000
0010
0000
0100
0000
,
1001
0000
1000
0100
1000
0000
0010
0100
,
0010
0000
2000
0000
0200
3000
0020
0300
,
0002
0030
0200
0003
0020
0300
2000
0030
,
3001
0000
1000
0100
0010
0000
0010
0100
,
1000
0000
0001
0100
0010
0000
0010
0100
,
0001
0000
0010
0100
1000
0000
1000
0010
,
0100
0000
0001
0010
0100
0000
0100
0010
,
0001
0000
0200
0000
0320
0000
1030
0001
,
1000
0001
0200
0000
M0MM
0000
0000
0000
,
M0MM
0300
0020
0000
0230
0000
0301
0010
,
0001
0010
0020
0000
MM0M
0000
0000
0000
,
MM0M
0030
0001
0100
1000
0000
1000
0100
,
0001
0000
0001
0010
1000
0000
1000
0010
,
0001
0000
1000
0100
0001
0000
0001
0100
,
1000
0000
1000
0010
0001
0000
0001
0010
,
1000
0000
0001
0100
1000
0000
0001
0010
,
1000
0000
0001
0100
1000
0000
0001
0010
,
1000
0000
1000
0100
0001
0000
1000
0010
,
0001
0000
1000
0100
0001
0000
1000
0010
,
0001
0000
1000
0001
0100
0000
0001
1000
,
0100
0000
0010
0001
1000
0000
0010
1000
,
0001
0002
0023
0230
,
2300
3200
0320
0032
,
1003
0000
0000
0000
0000
0000
0001
0000
0001
0000
0000
0000
0001
0000
0000
0001
,
0000
0000
0001
0000
0000
0000
1000
0000
1000
0000
0000
0000
1000
0000
0000
1000
,
0000
0000
1000
0000
0000
0000
0010
0000
0010
0000
0000
0000
0010
0000
0000
0010
,
0000
0000
0010
0000
0000
0000
0100
0000
0100
0000
0000
0000
0100
0000
0000
0100
,
0000
0000
0100
0000
0000
0000
0001
0000
0001
0000
0000
0000
1000
0000
0000
0001
,
0000
0000
1000
0000
0000
0000
1000
0000
1000
0000
0000
0000
0001
0000
0000
1000
,
0000
0000
0001
0000
0000
0000
0100
0000
0100
0000
0000
0000
0010
0000
0000
0100
,
0000
0010
0000
0010
0010
0000
1000
0001
,
0100
0000
0010
1000
0100
0000
0011
0000
,
1100
0000
0001
0100
0010
0000
0101
0000
,
1010
0000
1000
0100
0001
0000
0110
0000
,
0011
0000
0001
0100
1000
0000
0110
0000
,
1010
0000
0010
1000
0100
0000
0011
0000
,
1100
0000
0010
0100
0010
0000
1010
0000
,
0011
0000
1000
0100
0010
0000
0011
0000
,
0101
0000
0010
0100
0010
0000
1001
0000
,
0210
0301
0000
0000
;

//---------------dance-single - C. Picardy----------------
#NOTEDATA:;
#CHARTNAME:;
#STEPSTYPE:dance-single;
#DESCRIPTION:C. Picardy;
#CHARTSTYLE:;
#DIFFICULTY:Easy;
#METER:5;
#RADARVALUES:0.406364,0.558291,0.409615,0.303419,0.000000,375.000000,321.000000,54.000000,40.000000,0.000000,0.000000,0.000000,0.000000,0.000000,0.406364,0.558291,0.409615,0.303419,0.000000,375.000000,321.000000,54.000000,40.000000,0.000000,0.000000,0.000000,0.000000,0.000000;
#CREDIT:C. Picardy;
#DISPLAYBPM:170.000000;
#NOTES:
0000
0000
0000
0000
,
0000
0000
0000
0000
,
0000
0000
0000
0000
,
2000
3000
0002
0003
,
2002
0000
0000
3003
,
0100
0100
0010
0010
,
0100
0100
0010
0100
,
0001
0001
1000
1000
,
0001
0001
1000
0001
,
0010
0010
0100
0100
,
1000
1000
0001
0100
,
0010
0010
1000
1000
,
0001
0001
0010
0100
,
1000
1100
0100
1100
,
1000
1100
0010
0001
,
0100
0101
0001
0101
,
0100
0101
0010
1000
,
0001
1001
0100
1001
,
0010
1001
0010
0100
,
1000
1100
0001
0101
,
1000
1010
0101
1100
,
0001
0010
0100
0100
,
1000
0001
0100
0100
,
0010
1000
0001
0001
,
1000
0100
0010
0010
,
0001
0100
0010
1001
,
0010
0100
1000
0110
,
1000
0001
0100
1010
,
0100
0010
0001
1100
,
0020
1000
0100
1030
,
0200
0010
1000
0310
,
0002
0010
1000
0013
,
0002
0100
0010
0103
,
2000
0100
0001
3100
,
0020
0001
0100
0031
,
0200
1000
0010
1300
,
0020
1000
0001
1030
,
0002
0000
1000
1003
,
0200
0000
1000
1300
,
0020
0000
0100
0130
,
0002
0000
0010
0013
,
0200
0000
0010
1300
,
0002
0000
1000
0103
,
0020
0000
1000
0130
,
2020
0000
0000
3030
,
0011
0100
0011
1000
,
1010
0001
1100
0010
,
0110
0110
0101
1100
,
2002
0000
0000
3003
1000
0000
0000
0000
0001
0000
0000
0000
1000
0000
0000
0000
,
0001
0100
0001
0100
,
0001
0010
0100
0010
,
0100
1000
0010
1000
,
0010
0100
0001
0010
,
1001
0100
0010
0100
,
0001
2000
0000
3020
,
0000
0230
0000
0301
,
1001
0100
0001
1000
,
1000
0100
1000
0010
,
0010
0100
0001
1000
,
1000
0100
0010
0001
,
0100
0020
0230
0320
,
2030
3002
0000
0000
,
0003
0020
0230
0320
,
0032
2003
0000
0000
,
3000
0001
0100
1000
,
0010
1000
0100
0001
,
0010
1000
0100
0001
,
0010
1000
0001
0100
,
1000
0010
0100
0001
,
1100
0010
1000
0100
,
0011
1000
0100
0001
,
0101
1000
0010
0001
,
1010
0100
1000
0010
,
0011
0100
1000
0010
,
0101
2000
0000
3002
,
0000
0203
0000
0320
,
0000
0030
1000
1000
,
1100
0000
0001
0001
,
0101
0000
0100
0100
,
0110
0000
1000
1000
,
1001
0000
0100
0010
,
0110
0000
1000
0100
,
1100
0000
0001
0010
,
0011
0000
0100
0010
,
1001
0100
0010
1000
,
0101
0010
0100
1000
,
0110
1000
0001
0100
,
0011
1000
0001
0100
,
1100
0010
0100
0001
,
1010
0100
0001
1000
,
0011
0100
0010
0100
,
1010
0001
0100
0110
,
1001
0000
0000
0000
;
