#TITLE:This is my Life;
#SUBTITLE:;
#ARTIST:DJ Splash;
#TITLETRANSLIT:;
#SUBTITLETRANSLIT:;
#ARTISTTRANSLIT:;
#GENRE:;
#CREDIT:;
#BANNER:thisismylifebn.png;
#BACKGROUND:thisismylifebg.png;
#LYRICSPATH:;
#CDTITLE:;
#MUSIC:thisismylife.ogg;
#OFFSET:-0.000740;
#SAMPLESTART:39.699245;
#SAMPLELENGTH:12.000000;
#SELECTABLE:YES;
#BPMS:0.000000=145.000000
;
#STOPS:
;
#BGCHANGES:8.000=spacestars.mp4=1.000=1=0=1=SongBgWithMovieViz==CrossFade==,
32.000=spacestars.mp4=1.000=1=0=1===CrossFade==,
63.000=thisismylifebg.png=1.000=0=0=1=====,
64.000=flash=2.000=0=0=1=====,
64.250=starsarena.mp4=1.000=0=1=1=StretchRewind====,
96.000=flash=2.000=0=0=1====#00FF00=,
96.250=starsarena.mp4=2.000=0=1=1=StretchRewind====,
128.000=trianglelightstunnel.mp4=1.000=0=1=1=StretchRewind==SlideUp==,
160.000=flash=2.000=0=0=1====#FF00FF=,
160.250=spacestars.mp4=1.000=0=1=1=StretchRewind====,
192.000=starsarena.mp4=1.000=0=1=1=StretchRewind==SlideLeft==,
224.000=flash=2.000=0=0=1====#FF00FF=,
224.250=trianglelightstunnel.mp4=1.000=0=1=1=StretchRewind====,
256.000=spacestars.mp4=2.600=0=1=1=StretchRewind==SlideUp==,
288.000=flash=1.000=0=0=1=====,
288.250=thisismylifebg.png=1.000=0=0=1=====,
99999=-nosongbg-=1.000=0=0=0 // don't automatically add -songbackground-
;
#KEYSOUNDS:;
#ATTACKS:;

//---------------dance-single - C. Picardy----------------
#NOTES:
     dance-single:
     :
     Beginner:
     1:
     0.104811,0.210098,0.058361,0.033349,0.000000,88.000000,81.000000,7.000000,4.000000,0.000000,0.000000,0.104811,0.210098,0.058361,0.033349,0.000000,88.000000,81.000000,7.000000,4.000000,0.000000,0.000000:
0000
0000
0000
0000
,
0000
0000
0000
0000
,
0000
0000
0000
0000
,
0000
0000
0000
0000
,
1000
0000
0000
0000
,
0001
0000
0000
0000
,
1000
0000
0000
0000
,
0001
0000
0000
0000
,
1001
0000
0000
0000
,
1001
0000
0000
0000
,
1001
0000
0000
0000
,
1000
1000
1000
1000
,
1000
0000
0000
0000
,
0000
0000
0000
0000
,
0000
0000
0000
0000
,
0000
0000
0000
0000
,
0010
0000
0000
0000
,
0100
0000
0000
0000
,
0010
0000
0000
0000
,
0100
0000
0000
0000
,
0001
0000
0000
0000
,
1000
0000
0000
0000
,
0001
0000
0000
0000
,
1000
0000
0000
0000
,
0001
0000
0001
0000
,
0001
0000
0000
0000
,
1000
0000
1000
0000
,
1000
0000
0000
0000
,
0010
0000
0010
0000
,
0010
0000
0000
0000
,
0100
0000
0100
0000
,
0100
0000
0000
0000
,
0001
0000
1000
0000
,
0001
0000
0000
0000
,
1000
0000
0001
0000
,
1000
0000
0000
0000
,
0010
0000
0100
0000
,
0010
0000
0000
0000
,
0100
0000
0010
0000
,
0100
0000
0000
0000
,
1001
0000
0000
0000
,
0001
0000
0000
0000
,
1000
0000
0000
0000
,
0001
0000
0000
0000
,
0100
0000
0000
0000
,
0010
0000
0000
0000
,
0100
0000
0000
0000
,
0110
0000
0000
0000
,
2000
0000
0000
0000
,
3000
0000
0000
0000
,
0002
0000
0000
0000
,
0003
0000
0000
0000
,
0200
0000
0000
0000
,
0300
0000
0000
0000
,
0020
0000
0000
0000
,
0030
0000
0000
0000
,
1001
0000
0000
0000
,
0001
0000
0001
0000
,
0001
0000
0000
0000
,
1000
0000
1000
0000
,
1000
0000
0000
0000
,
0100
0000
0100
0000
,
0100
0000
0000
0000
,
0010
0000
0010
0000
,
0010
0000
0000
0000
,
1000
0000
0001
0000
,
1000
0000
0000
0000
,
0001
0000
1000
0000
,
0001
0000
0000
0000
,
0100
0000
0010
0000
,
0100
0000
0000
0000
,
0010
0000
0100
0000
,
1001
0000
0000
0000
;

//---------------dance-single - C. Picardy----------------
#NOTES:
     dance-single:
     :
     Easy:
     4:
     0.322770,0.423114,0.483559,0.191756,0.000000,271.000000,213.000000,58.000000,23.000000,0.000000,0.000000,0.322770,0.423114,0.483559,0.191756,0.000000,271.000000,213.000000,58.000000,23.000000,0.000000,0.000000:
0000
0000
0000
0000
,
0000
0000
0000
0000
,
0000
0000
0000
0000
,
0000
0000
0000
0000
,
1001
0000
0001
0000
,
1000
0000
0001
0000
,
0110
0000
0100
0000
,
0010
0000
0100
0000
,
1001
0000
0100
0000
,
1001
0000
0010
0000
,
1001
0000
0110
0000
,
1100
0101
0010
0100
,
2002
0000
0000
0000
,
0000
0000
0000
0000
,
0000
0000
0000
0000
,
3003
0000
0000
0010
,
1001
0000
1000
0001
,
0001
0000
0100
0010
,
0010
0000
1000
0100
,
0100
0000
1001
0100
,
1001
0000
0010
0100
,
0010
0000
1000
0001
,
1000
0000
0100
0010
,
0001
0000
0010
0100
,
1001
0100
0001
0001
,
0001
1000
0100
0100
,
0100
1000
0010
0010
,
0010
0100
0001
1000
,
0110
0001
0010
0100
,
0100
1000
0010
1000
,
1000
0001
0100
0001
,
0002
0000
2000
3003
,
0110
1000
0001
1000
,
0110
0010
0001
1000
,
0101
1000
0010
0100
,
1010
0010
1000
0001
,
0110
1000
0001
0100
,
1001
0010
1000
0100
,
0110
0001
1000
0010
,
0100
0001
1100
0101
,
2001
0000
3001
0001
,
0002
0000
0013
0010
,
0020
0000
0130
0100
,
1000
0000
0001
0000
,
0200
0000
0310
0010
,
2000
0000
3100
0100
,
0020
0000
0031
0001
,
2002
0000
0000
3003
0000
0000
0000
0000
,
0110
0000
2000
3000
,
0002
0003
2000
3000
,
0200
0300
0020
0030
,
0002
0003
0200
0300
,
0010
0010
0010
0010
,
1000
1000
1000
1000
,
0001
0001
1000
1000
,
2200
0000
0000
3300
,
0100
1100
1000
1100
,
0010
1010
1000
1100
,
0001
0101
0100
0101
,
0010
0011
0100
0101
,
1000
1100
0001
0101
,
1000
1100
0001
0101
,
1000
1010
0001
0011
,
0100
0110
0010
0110
,
1000
0101
0010
1100
,
0001
1010
0001
0110
,
1000
0011
0100
1010
,
0100
0011
1000
0101
,
1000
0110
0001
0110
,
0100
1001
0010
1001
,
0001
0110
0100
1001
,
0010
0100
1000
0001
,
0220
0000
0330
0000
;

//---------------dance-single - C. Picardy----------------
#NOTES:
     dance-single:
     :
     Challenge:
     10:
     0.775362,0.870406,0.525245,0.300140,0.683652,651.000000,588.000000,63.000000,36.000000,46.000000,0.000000,0.775362,0.870406,0.525245,0.300140,0.683652,651.000000,588.000000,63.000000,36.000000,46.000000,0.000000:
0000
0000
0000
0000
,
0000
0000
0000
0000
,
0000
0000
0000
0000
,
0000
0000
0000
0000
,
1MM1
0000
0000
1MM1
0000
0000
2MM2
0000
0000
0000
0000
0000
3003
0000
0100
0010
,
0100
0000
0000
0000
0000
0000
0010
0100
0010
0000
0000
0000
0000
0000
0000
0000
,
M11M
0000
0000
M11M
0000
0000
M22M
0000
0000
0000
0000
0000
0330
0000
1000
0001
,
1000
0000
0000
0001
0000
0000
1000
0000
0100
0000
1000
0100
1000
0000
0001
0000
,
1001
0000
0000
0101
0000
0000
0220
0000
0000
0000
0000
0330
1000
0010
1000
0000
,
1001
0000
0000
1100
0000
0000
0220
0000
0000
0000
0000
0330
0001
0000
0001
0000
,
0101
0000
0000
1100
0000
0000
0010
0000
1010
0000
0000
0110
0000
0000
0001
0000
,
0101
0000
1000
0000
1100
0000
0010
0000
0010
1000
0100
0010
0001
0100
0010
1000
,
0002
0000
00M0
1000
0000
0000
0010
0000
M000
0000
0000
0000
0000
0000
0013
0100
,
0020
0000
000M
1000
0000
0000
0100
0000
M000
0000
0030
0000
0001
0010
0001
0010
,
0200
0000
00M0
0001
0000
0000
M010
0000
0000
0000
0300
0000
1000
0010
1000
0010
,
2000
0000
0000
0100
0000
0000
0010
0000
0000
0000
0001
0000
3001
0000
MMMM
0000
,
1001
0000
0000
0000
0100
0000
0001
0100
0001
0000
1000
0000
0100
0000
1000
0100
,
1000
0000
0000
0000
0001
0000
1000
0010
1000
0000
0001
0010
0001
0000
1000
0000
,
0010
0000
0000
0000
0100
0000
0010
0100
0010
0000
1000
0000
0001
0000
0001
1000
,
0001
0000
0000
1000
0000
0000
0100
0000
0010
0000
0001
0010
0100
0000
0010
0100
,
1000
0000
0000
0000
0101
0000
0001
0100
0001
0000
1000
0000
0100
0000
1000
0100
,
1000
0000
0000
0000
1001
0000
1000
0001
1000
0000
0001
1000
0001
0000
0010
0000
,
0100
0000
0000
0000
0011
0000
0010
0100
0010
0000
0100
0000
1000
0000
0001
0100
,
0010
1000
0010
1000
0010
0000
1000
0000
0100
0000
1000
0010
0100
0000
0010
0000
,
1001
0000
0000
0000
0110
0000
1000
0010
1000
0000
0001
0000
0011
0000
1000
0100
,
1000
0000
0000
0000
0101
0000
1000
0100
1000
0000
0001
0010
0001
0000
1000
0000
,
1001
0000
0000
0000
0110
0000
0100
1000
0100
0000
0010
0000
0011
0000
0100
0001
,
0100
0000
0000
0110
0000
0000
1000
0000
0001
0000
0010
0100
1000
0000
0001
0100
,
0010
0000
0000
0000
1001
0000
1000
0100
0010
0000
0100
0000
1100
0000
0001
0100
,
0010
0000
0000
0000
1001
0000
0010
1000
0100
0000
0010
0001
0100
0000
0010
0000
,
0110
0000
0000
0000
1001
0000
0001
0010
0100
0000
1000
0000
1010
0000
0100
0010
,
0001
0100
0001
0100
0001
0000
0010
0000
0100
0000
1000
0010
0100
0000
0101
0000
,
1MM1
0000
0000
0000
1100
0000
0100
0010
0001
0000
0100
0000
0101
0000
0010
1000
,
0100
0000
0010
0000
0011
0000
0010
0100
1000
0000
0001
0100
0010
0000
1000
0000
,
1100
0000
0001
0000
0101
0000
1000
0001
0100
0000
0010
0000
0110
0000
1000
0010
,
1000
0000
0000
0110
0000
0000
0001
0000
1001
0000
0010
0100
1000
0000
0001
0100
,
0010
0000
1000
0000
1001
0000
0010
0001
0100
0000
0010
0000
1010
0000
0100
0010
,
1000
0000
0100
0000
0011
0000
1000
0100
0010
0000
0001
0100
0010
0000
1000
0000
,
1001
0000
0100
0000
0110
0000
1000
0001
0100
0000
0001
0000
1001
0000
0010
0100
,
1000
0000
0010
0000
1M00
0000
0010
0000
100M
0000
0010
0000
1000
0000
0010
0000
4M00
0040
0000
0000
000M
0000
0000
0000
0M00
0000
0000
0000
000M
0000
3030
0000
,
0102
0000
0000
0000
0103
0000
0001
0100
0001
0000
0100
0000
0001
0000
0001
0100
,
0002
0000
0000
0000
1003
0000
0100
1000
0100
0000
1000
0100
1000
0000
0100
0000
,
2000
0000
0000
0000
3001
0000
0010
0001
0010
0000
0001
0000
0010
0000
0001
0010
,
0001
0000
0000
0001
0000
0000
1000
0000
0001
0000
1000
0010
1000
0000
0010
1000
,
0020
0000
0000
0000
1030
0000
0001
1000
0001
0000
1000
0000
0001
0000
1000
0001
,
2000
0000
0000
0000
3001
0000
0100
0001
0100
0000
0001
0100
0001
0000
0100
0000
,
0020
0000
0000
0000
0130
0000
0010
0100
0010
0000
0100
0000
0010
0000
0100
0000
,
M11M
0000
0000
M11M
0000
0000
M11M
0000
0000
0000
0000
0000
0100
0010
0100
0000
,
1001
0000
0000
0100
0001
0000
0100
0000
0010
0000
0000
1000
0010
0000
0100
0000
,
0010
0000
0000
0001
0010
0000
0100
0000
0010
1000
0000
0000
0100
0000
0000
0001
,
0100
0000
0000
0010
0100
0000
0010
0000
1000
0000
0000
0010
0001
0000
0010
0000
,
0100
0000
0000
1000
0100
0000
0010
0000
0001
0000
0000
1000
0010
0000
0100
0000
,
0010
0000
0000
1000
0001
0000
0100
0000
1000
0000
0000
0100
0010
0000
1000
0000
,
0001
0000
0000
0010
0100
0000
1000
0000
0MM1
1000
0001
1000
0MM1
0000
1000
0001
,
1MM0
0000
0000
0100
0010
0000
0001
0000
1000
0000
0000
0010
0100
0000
0010
0000
,
2020
0000
0000
0000
0030
0001
3001
MMMM
,
0120
0000
0000
1000
0130
0000
0001
0000
0200
0000
0000
1000
0310
0000
0001
0000
,
0020
0000
0000
1000
0031
0000
0100
0000
2000
0000
0000
0100
3010
0000
1000
0000
,
0002
0000
0000
0010
1003
0000
0010
0000
0200
0000
0000
0010
0301
0000
0010
0000
,
0200
0000
0000
0010
0301
0000
0100
0000
0020
0000
0000
1000
0031
0000
0010
0000
,
0012
0000
0000
1000
0013
0000
1000
0000
0200
0000
0000
1000
0310
0000
0100
0000
,
2000
0000
0000
0100
3010
0000
1000
0000
0200
0000
0000
0010
0301
0000
0100
0000
,
0002
0000
0000
0100
0013
0000
0100
0000
0002
0000
0000
1000
0013
0000
0100
0000
,
0020
0000
0000
0100
1030
0000
0100
0000
0002
0000
0000
1000
0103
0000
0110
0000
,
1100
0000
0010
0001
0010
0000
0001
0100
0001
0000
1000
0001
1000
0000
0100
1000
,
0100
0000
1000
0001
1000
0000
0001
0100
0001
0000
0100
0010
0100
0000
0010
1000
,
0010
0000
0100
0001
0100
0000
0001
1000
0001
0000
0010
0001
0010
0000
0100
1000
,
0100
0000
1000
0010
1000
0000
0001
0010
0001
0000
1000
0100
1000
0000
0001
0100
,
0010
0000
1000
0100
0010
0000
0001
1000
0100
0000
0010
0100
1000
0000
0001
0100
,
0010
0000
1000
0001
0100
0000
0010
1000
0001
0000
0010
0100
1000
0000
0001
0100
,
0010
1000
0010
1000
0010
1000
0010
1000
0001
0010
0001
0010
0001
0010
0001
0010
,
0400
0000
4000
0000
0000
0000
0000
0000
0000
0000
0000
0000
0000
0000
3300
0000
0004
0400
0000
0000
0000
0000
0000
0000
0000
0000
0000
0000
0000
0000
0303
0000
,
1010
0000
0000
0000
;

//---------------dance-single - C. Picardy----------------
#NOTES:
     dance-single:
     :
     Hard:
     9:
     0.594325,0.660308,0.241779,0.150070,0.404355,499.000000,470.000000,29.000000,18.000000,8.000000,0.000000,0.594325,0.660308,0.241779,0.150070,0.404355,499.000000,470.000000,29.000000,18.000000,8.000000,0.000000:
0000
0000
0000
0000
,
0000
0000
0000
0000
,
0000
0000
0000
0000
,
0000
0000
0000
0000
,
0101
0000
0000
0101
0000
0000
0101
0000
0000
0000
0000
0000
0000
0000
0010
0000
,
2000
0000
0000
3001
0200
0000
0000
0301
,
1001
0000
0000
1001
0000
0000
1001
0000
0000
0000
0000
0000
0000
0000
0100
0000
,
1000
0000
0000
0001
0000
0000
1000
0000
0001
0000
0000
0100
0010
0000
1000
0000
,
1010
0000
0000
1000
0000
0000
1010
0000
0000
0000
0000
0000
0001
0000
0000
0000
,
0011
0000
0000
0001
0000
0000
0011
0000
0000
0000
0000
0000
1000
0000
0000
0000
,
0100
0000
0000
0110
0000
0000
0001
0000
1000
0000
0000
1001
0000
0000
0100
0000
,
0010
0000
0100
0000
0010
0000
0100
0000
0010
0100
0010
0100
0010
0000
0000
0000
,
2001
0000
0000
0001
0000
0000
0002
0000
0000
0000
0000
0000
3003
0000
0000
0000
,
0200
0000
0000
0001
0000
0000
0002
0000
0000
0000
0000
0000
0303
0000
0000
0000
,
2000
0000
0000
0100
0000
0000
0200
0000
0000
0000
0000
0000
3300
0000
0000
0000
,
0020
0000
0000
0100
0000
0000
0200
0000
0000
0000
0330
0000
0MM0
0000
0000
0000
,
1001
0000
0000
0000
1000
0000
0000
0001
1000
0000
0100
0000
0010
0000
0100
0000
,
1000
0000
0000
0000
0001
0000
0000
0100
0010
0000
0100
0000
0001
0000
0010
0000
,
0100
0000
0000
0000
0010
0000
0000
0010
0100
0000
1000
0000
0100
0000
0010
0000
,
0001
0000
0000
0001
0000
0000
1000
0000
1000
0000
0000
0010
1000
0000
0001
0000
,
1000
0000
0000
0000
0101
0000
0000
0100
0010
0000
0100
0000
0001
0000
0010
0000
,
0100
0000
0000
0000
1100
0000
0000
0100
0010
0000
0100
0000
1000
0000
0100
0000
,
0010
0000
0000
0000
0011
0000
0000
0001
0100
0000
0001
0000
0010
0000
0100
0000
,
1000
0100
1000
0100
1000
0000
0100
0000
0010
0000
0000
0000
1001
0000
0000
0000
,
0100
0000
0000
0100
0010
0000
0000
0010
1000
0000
0000
1000
0001
0000
0100
0000
,
0010
0000
0000
0010
1000
0000
0000
1000
0100
0000
0000
0100
0010
0000
0100
0000
,
1000
0000
0000
1000
0001
0000
0000
0001
0100
0000
0000
0100
0010
0000
1000
0000
,
0001
0000
0000
0001
0000
0000
1000
0000
1000
0000
0100
0010
0100
0000
1000
0000
,
0001
0000
0000
0001
0100
0000
0000
0100
0010
0000
0000
0010
0001
0000
0010
0000
,
1000
0000
0000
1000
0001
0000
0000
0001
0010
0000
0000
0010
1000
0000
0010
0000
,
0001
0000
0000
0001
0010
0000
0000
0010
0100
0000
0000
0100
0001
0000
0100
0000
,
0010
0100
0010
0100
0010
0000
0100
0000
0010
0000
0000
0000
1001
0000
0000
0000
,
0110
0000
0000
0000
1000
0000
0010
1000
0010
0000
1000
0000
0010
0000
1000
0010
,
1000
0000
0000
0000
0001
0000
0100
0001
0100
0000
0001
0100
0001
0000
0100
0000
,
0001
0000
0000
0000
0010
0000
0001
0010
0001
0000
0010
0000
0001
0000
0010
0001
,
0010
0000
0000
0010
0000
0000
0100
0000
1000
0000
0100
1000
0100
0000
1000
0100
,
1000
0000
0000
0000
0001
0000
1000
0001
1000
0000
0001
0000
0100
0000
0001
1000
,
0001
0000
0000
0000
0010
0000
0001
1000
0001
0000
0100
0001
0100
0000
0001
0000
,
1000
0000
0000
0000
0100
0000
0010
0100
0010
0000
0100
0000
0010
0000
0001
0000
,
1000
0001
1000
0001
1000
0000
0100
0000
0010
0000
0000
0000
1001
0000
0000
0000
,
0120
0000
1000
0000
0100
0000
1030
0100
,
0020
0000
0001
0000
0100
0000
0031
0100
,
0002
1000
0010
0100
,
1003
0000
0000
1000
0000
0000
0001
0000
0001
0000
0000
0000
1000
0000
0100
0000
,
2000
0000
0010
0000
0001
0000
3100
0010
,
0200
0000
1000
0000
0010
0000
1300
0010
,
0200
0001
0010
0301
,
1001
0000
0000
1001
0000
0000
1001
0000
0000
0000
0000
0000
0100
0010
0000
0000
,
1MM1
0000
1000
0100
0001
0000
0001
0100
,
1000
0000
1000
0010
0001
0000
0001
0010
,
1000
0000
1000
0010
0100
0000
0100
1000
,
0100
0000
0100
0001
0010
0000
0010
0001
,
0100
0000
0001
0100
1000
0000
1000
0100
,
0001
0000
0001
0010
1000
0000
1000
0010
,
0001
0000
0100
0000
0010
0000
1000
0001
,
2002
0000
0000
0000
0000
0000
3003
MMMM
,
1000
0000
0000
0100
0010
0000
0100
0000
1000
0000
0000
0100
0010
0000
0001
0000
,
1000
0000
0000
0010
0100
0000
0001
0000
1000
0000
0000
0001
0100
0000
0010
0000
,
1000
0000
0000
0001
1000
0000
0100
0000
0010
0000
0000
0100
1000
0000
0001
0000
,
0100
0000
0000
0010
0100
0000
0001
0000
1000
0000
0000
0001
0100
0000
0010
0000
,
1000
0000
0000
1000
0100
0000
0010
0000
0001
0000
0000
0010
0001
0000
0010
0000
,
0100
0000
0000
1000
0010
0000
0100
0000
0001
0000
0000
1000
0001
0000
0100
0000
,
0010
0000
0000
1000
0001
0000
0100
0000
1000
0000
0000
0100
0001
0000
1000
0000
,
0100
0000
0000
0001
0100
0000
1000
0000
0010
0000
0000
0100
0001
0000
0101
0000
,
1000
0000
1000
0001
1000
0000
0100
0000
1000
0000
1000
0100
1000
0000
0001
0000
,
0100
0000
0100
0001
0100
0000
0001
0000
0010
0000
0010
0001
0010
0000
0100
0000
,
1000
0000
1000
0010
1000
0000
0100
0000
0010
0000
0010
0100
0010
0000
0001
0000
,
1000
0000
1000
0001
1000
0000
0010
0000
0100
0000
0100
0010
0100
0000
0001
0000
,
1000
0000
1000
0100
0010
0000
0001
0000
1000
0000
1000
0010
0100
0000
0001
0000
,
0010
0000
0010
0001
0100
0000
0001
0000
0100
0000
0100
0001
1000
0000
0100
0000
,
0010
0000
0010
0001
1000
0000
0010
0000
0100
0000
0100
0010
1000
0000
0100
0000
,
0010
0000
0010
0001
1000
0000
0010
0000
0100
0000
0000
0010
0100
0000
0010
0000
,
1001
0000
0000
0000
;

//---------------dance-single - C. Picardy----------------
#NOTES:
     dance-single:
     :
     Medium:
     6:
     0.413288,0.480224,0.300140,0.408524,0.041686,347.000000,311.000000,36.000000,49.000000,0.000000,0.000000,0.413288,0.480224,0.300140,0.408524,0.041686,347.000000,311.000000,36.000000,49.000000,0.000000,0.000000:
0000
0000
0000
0000
,
0000
0000
0000
0000
,
0000
0000
0000
0000
,
0000
0000
0000
0000
,
0100
0000
0000
0100
0000
0000
0100
0000
0000
0000
0000
0000
0000
0000
0000
0000
,
0002
0000
2003
0000
,
3010
0000
0000
0010
0000
0000
0010
0000
0000
0000
0000
0000
0000
0000
0000
0000
,
0200
0000
0320
0000
,
1030
0000
0000
1000
0000
0000
1100
0000
0000
0000
0000
0000
0000
0000
0000
0000
,
0001
0000
0000
0001
0000
0000
0101
0000
0000
0000
0000
0000
0000
0000
0000
0000
,
1000
0000
0000
1000
0000
0000
0001
0000
0001
0000
0000
0001
0000
0000
0100
0000
,
0010
0000
1000
0000
0001
1000
0100
0010
,
1002
0000
0000
2000
0000
0000
3003
0000
,
0200
0000
0000
0020
0000
0000
0330
0000
,
0002
0000
0000
0200
0000
0000
0303
0000
,
0020
0000
0000
2000
0000
0000
3030
0000
,
0110
0000
0001
0000
1000
0000
1000
0100
,
1000
0000
0010
0000
0100
0000
0001
0100
,
0001
0000
0010
0000
0100
0000
1000
0100
,
0010
0000
0000
0010
0000
0000
0001
0000
0001
0000
0000
0000
1000
0000
0000
0000
,
0101
0000
0010
0000
1000
0000
0001
0100
,
0010
0000
1000
0000
0100
0000
0010
0100
,
1000
0000
0010
0000
0100
0000
0001
0010
,
0100
0100
0100
0000
1000
0000
0101
0000
,
1001
0000
0100
0000
0010
0100
1000
0100
,
0010
0000
0001
0000
0001
0010
0100
0010
,
0001
0000
0100
0000
0010
1000
0100
0010
,
0010
0000
0000
0010
0000
0000
0100
0000
0100
0000
0000
0000
0011
0000
0000
0000
,
1100
0000
0010
0000
0100
0001
0010
0001
,
0100
0000
0010
0000
1000
0100
1000
0010
,
0100
0000
0001
0000
1000
0100
0010
0100
,
1000
1000
1000
0000
0010
0000
0110
0000
,
1001
0000
0100
0000
0010
1000
0100
1000
,
0010
0000
0110
0000
0001
0100
0010
0100
,
0001
0000
1100
0000
0010
0100
1000
0100
,
0010
0000
0000
0010
0000
0000
0001
0000
0001
0000
0100
0000
0010
0000
0000
0000
,
1001
0000
0110
0000
1000
0001
0100
0010
,
1000
0000
0101
0000
1000
0100
0010
0100
,
1000
0000
0011
0000
1000
0100
0010
0001
,
0100
0100
0100
0000
0010
0010
0010
0000
,
1002
0203
0302
0203
,
0320
2030
3020
2030
,
3200
0320
0230
2300
,
3020
0230
0302
0203
,
2300
3200
0302
0023
,
2030
3020
0230
2300
,
3200
0302
0203
2300
,
0001
0000
0000
0001
0000
0000
3001
0000
0000
0000
0000
0000
0010
0000
0000
0000
,
0012
1000
0010
0103
,
2000
0100
0001
3010
,
0200
0010
0001
1300
,
0020
0001
0100
1030
,
0200
0001
1000
0310
,
0002
0100
1000
0103
,
2000
0010
0001
3010
,
0220
0000
0000
0330
,
0100
0101
0010
1010
,
0001
0011
1000
1100
,
0001
1100
0010
0101
,
0010
1010
0001
0110
,
1000
1100
0001
0011
,
1000
0110
0001
0110
,
0010
1001
0100
1001
,
0100
0000
0010
0000
0100
0000
0010
1000
,
0100
0000
0100
1000
0010
0000
0010
0100
,
0001
0000
0001
0100
0010
0000
0010
1000
,
0001
0000
0010
0001
1000
0000
0010
0100
,
0001
0000
1000
0001
0010
0000
0001
0100
,
1000
0000
1000
0100
0001
0000
0001
0010
,
1000
0000
1000
0010
0001
0000
1000
0100
,
0001
0000
0001
0100
1000
0000
1000
0010
,
0001
0010
1000
0101
,
1100
0000
0000
0000
;
