#TITLE:There's an Angel;
#SUBTITLE:;
#ARTIST:Lagoona;
#TITLETRANSLIT:;
#SUBTITLETRANSLIT:;
#ARTISTTRANSLIT:;
#GENRE:;
#CREDIT:;
#BANNER:theresanangelbn.png;
#BACKGROUND:theresanangelbg.png;
#LYRICSPATH:;
#CDTITLE:;
#MUSIC:theresanangel.ogg;
#OFFSET:0.777412;
#SAMPLESTART:36.689915;
#SAMPLELENGTH:23.100004;
#SELECTABLE:YES;
#BPMS:0.000000=160.009995
;
#STOPS:
;
#BGCHANGES:20.000=relaxingpurple.mp4=1.000=1=0=1=SongBgWithMovieViz==CrossFade==,
36.000=relaxingpurple.mp4=1.000=0=0=1===CrossFade_Faster==,
100.000=lightpole.mp4=1.000=0=0=0=StretchNoLoop==CrossFade_Fastest==,
160.000=lightpole.mp4=1.000=1=0=1=SongBgWithMovieViz==CrossFade==,
164.000=flash=1.800=0=0=1=====,
164.250=sunrays.mp4=1.000=0=0=0=StretchNoLoop====,
228.000=relaxingpurple.mp4=1.000=0=0=0=StretchNoLoop==CrossFade_Fastest==,
260.000=lightpole.mp4=1.000=0=0=0=StretchNoLoop==CrossFade_Fastest==,
292.000=flash=1.600=0=0=1=====,
292.250=theresanangelbg.png=1.000=0=0=1=====,
99999=-nosongbg-=1.000=0=0=0 // don't automatically add -songbackground-
;
#KEYSOUNDS:;
#ATTACKS:;

//---------------dance-single - C. Picardy----------------
#NOTES:
     dance-single:
     :
     Beginner:
     1:
     0.098868,0.199428,0.072850,0.018213,0.000000,76.000000,68.000000,8.000000,2.000000,0.000000,0.000000,0.098868,0.199428,0.072850,0.018213,0.000000,76.000000,68.000000,8.000000,2.000000,0.000000,0.000000:
0000
0000
0000
0000
,
0000
0000
0000
0000
,
0000
0000
0000
0000
,
0000
0000
0000
0000
,
0000
0000
0000
0000
,
0010
0000
0000
0000
,
0100
0000
0000
0000
,
0001
0000
0000
0000
,
1000
0000
0000
0000
,
0010
0000
0000
0000
,
0000
0000
0000
0000
,
0100
0000
0000
0000
,
0000
0000
0000
0000
,
0001
0000
0000
0000
,
0000
0000
0000
0000
,
1000
0000
0000
0000
,
2002
0000
0000
0000
,
0000
0000
0000
0000
,
0000
0000
0000
0000
,
0000
0000
0000
0000
,
3003
0000
0000
0000
,
0010
0000
0000
0000
,
0100
0000
0000
0000
,
0001
0000
0001
0000
,
0001
0000
0001
0000
,
1001
0000
0000
0000
,
0100
0000
0000
0000
,
0010
0000
0000
0000
,
1000
0000
0000
0000
,
0001
0000
0000
0000
,
0100
0000
0000
0000
,
0010
0000
0000
0000
,
1000
0000
0000
0000
,
0001
0000
0000
0000
,
0001
0000
0001
0000
,
0001
0000
0000
0000
,
1000
0000
0000
0000
,
0010
0000
0000
0000
,
0100
0000
0100
0000
,
0100
0000
0000
0000
,
0010
0000
0000
0000
,
1001
0000
0000
0000
,
0100
0000
0000
0000
,
0010
0000
0000
0000
,
1000
0000
0000
0000
,
0001
0000
0000
0000
,
0010
0000
0000
0000
,
0100
0000
0000
0000
,
1000
0000
0000
0000
,
1000
0000
0000
0000
,
0100
0000
0000
0000
,
0010
0000
0000
0000
,
0001
0000
0000
0000
,
0100
0000
0000
0000
,
0010
0000
0000
0000
,
1000
0000
0000
0000
,
0100
0000
0000
0000
,
0001
0000
0001
0000
,
0001
0000
0000
0000
,
1000
0000
1000
0000
,
1000
0000
0000
0000
,
0100
0000
0100
0000
,
0100
0000
0000
0000
,
0001
0000
0001
0000
,
0001
0000
0000
0000
,
0110
0000
0000
0000
,
0000
0000
0000
0000
,
1001
0000
0000
0000
,
0000
0000
0000
0000
,
1001
0000
0000
0000
,
0000
0000
0000
0000
,
0110
0000
0000
0000
,
0010
0000
0010
0000
,
0110
0000
0000
0000
;

//---------------dance-single - C. Picardy----------------
#NOTES:
     dance-single:
     :
     Easy:
     4:
     0.262782,0.332380,0.091063,0.291402,0.000000,202.000000,192.000000,10.000000,32.000000,0.000000,0.000000,0.262782,0.332380,0.091063,0.291402,0.000000,202.000000,192.000000,10.000000,32.000000,0.000000,0.000000:
// measure 0
0000
0000
0000
0000
,  // measure 1
0000
0000
0000
0000
,  // measure 2
0000
0000
0000
0000
,  // measure 3
0000
0000
0000
0000
,  // measure 4
0000
0000
0000
0000
,  // measure 5
1000
0000
0000
0000
,  // measure 6
0001
0000
0000
0000
,  // measure 7
0100
0000
0000
0000
,  // measure 8
0010
0000
0000
0000
,  // measure 9
1000
0000
0010
0000
,  // measure 10
0100
0000
0010
0000
,  // measure 11
1000
0000
0100
0000
,  // measure 12
0001
0000
0100
0000
,  // measure 13
0020
0000
0032
0000
,  // measure 14
0203
0000
0320
0000
,  // measure 15
0230
0000
0302
0000
,  // measure 16
2003
0000
3020
0000
,  // measure 17
2030
0000
0000
0000
,  // measure 18
3200
0000
0000
0000
,  // measure 19
0320
0000
0000
0000
,  // measure 20
0032
0000
0000
0000
,  // measure 21
1003
0000
1000
0000
,  // measure 22
0001
0000
0001
0000
,  // measure 23
0100
0000
0100
0000
,  // measure 24
0100
0100
0010
0010
,  // measure 25
0110
1000
0010
1000
,  // measure 26
0100
0010
0100
0010
,  // measure 27
0001
0010
0001
0010
,  // measure 28
0100
1000
0100
1000
,  // measure 29
0100
0010
0001
0010
,  // measure 30
0100
1000
0100
0010
,  // measure 31
0100
1000
0010
1000
,  // measure 32
0001
0100
0010
0100
,  // measure 33
1001
0100
0010
0001
,  // measure 34
1000
0100
0010
0001
,  // measure 35
1000
0010
0100
0001
,  // measure 36
1000
0010
0100
0001
,  // measure 37
0010
0100
1000
0001
,  // measure 38
0010
0100
1000
0001
,  // measure 39
0100
0010
0001
0010
,  // measure 40
2000
0000
3000
0010
,  // measure 41
1010
0100
0010
0001
,  // measure 42
0100
0010
1000
0001
,  // measure 43
0200
0010
0001
0301
,  // measure 44
2000
0010
0100
3100
,  // measure 45
0010
0100
1000
0100
,  // measure 46
0010
0001
1000
0100
,  // measure 47
0020
0001
0100
0130
,  // measure 48
0002
0100
0010
0013
,  // measure 49
0001
0100
0010
0100
,  // measure 50
0001
0010
0100
1000
,  // measure 51
2002
0000
0000
0000
,  // measure 52
0000
0000
0000
3003
,  // measure 53
0100
0010
0001
0100
,  // measure 54
1000
0100
0010
1000
,  // measure 55
0220
0000
0000
0000
,  // measure 56
0000
0000
0000
0330
,  // measure 57
1000
1000
0010
0010
,  // measure 58
2000
0000
0000
3010
,  // measure 59
0100
0100
0001
0001
,  // measure 60
0200
0000
0000
0310
,  // measure 61
1000
1000
0001
0001
,  // measure 62
0020
0000
0000
0130
,  // measure 63
1000
1000
0010
0010
,  // measure 64
0002
0000
0000
0013
,  // measure 65
1000
0001
1000
0001
,  // measure 66
2200
0000
0000
3300
,  // measure 67
0010
0100
0010
0100
,  // measure 68
0022
0000
0000
0033
,  // measure 69
1000
0010
1000
0010
,  // measure 70
0202
0000
0000
0303
,  // measure 71
0100
0010
1000
0100
,  // measure 72
2010
0000
0000
3100
,  // measure 73
1001
0000
0000
0000
;

//---------------dance-single - C. Picardy----------------
#NOTES:
     dance-single:
     :
     Medium:
     6:
     0.396775,0.465332,0.282296,0.236764,0.036425,305.000000,274.000000,31.000000,26.000000,0.000000,0.000000,0.396775,0.465332,0.282296,0.236764,0.036425,305.000000,274.000000,31.000000,26.000000,0.000000,0.000000:
0000
0000
0000
0000
,
0000
0000
0000
0000
,
0000
0000
0000
0000
,
0000
0000
0000
0000
,
0000
0000
0000
0000
,
2000
0000
3100
0000
,
0020
0000
0031
0000
,
0200
0000
0000
0010
0310
0000
0000
0000
,
2000
0000
0000
0001
3001
0000
0000
0000
,
0000
0000
1000
0000
0000
1000
0000
0000
1000
0000
0000
1000
0000
0000
1000
0000
,
0000
0000
0001
0000
0000
0001
0000
0000
0001
0000
0000
0001
0000
0000
0001
0000
,
0000
0000
0000
0100
0100
0000
0000
0010
,
0010
0000
0000
1000
1000
0000
0001
0000
,
0000
0000
0100
0000
0000
0100
0000
0000
0100
0000
0000
0100
0000
0000
0100
0000
,
0000
0000
0010
0000
0000
0010
0000
0000
0010
0000
0000
0010
0000
0000
0010
0000
,
0000
0000
0000
1000
2000
0000
0000
3100
,
0200
0000
0000
1300
2000
0000
0000
3100
,
0200
0000
0000
0310
0020
0000
0000
0031
,
0002
0000
0000
0103
0200
0000
0000
0300
,
0010
0010
0010
0010
,
1000
1000
1000
1000
,
0001
0001
0001
0001
,
0100
0100
0100
0100
,
0101
0000
1010
0000
,
0011
1100
0110
1001
,
1000
0100
0001
0100
,
1000
0010
0100
0001
,
0020
0001
0100
0001
,
0100
1030
0001
0100
,
0110
1000
0001
0100
,
1000
0100
0010
1000
,
0200
0010
0001
0001
,
1000
0000
0301
0000
1000
0000
0100
0010
,
0001
0101
1000
1010
,
0100
0110
0001
0110
,
0201
0010
1000
1000
,
0001
0310
1000
1100
,
0010
1001
0100
0110
,
1000
0101
0010
1000
,
0120
1000
0001
0130
,
0010
0000
0010
0000
1000
0001
1000
0001
,
0100
0000
0010
0000
1000
0100
0010
0000
,
0001
0000
1000
0000
0010
0100
0001
0000
,
1100
0000
0010
0000
0001
0100
0010
0000
,
1000
0000
0001
0000
0010
0100
1000
0000
,
0011
0000
1000
0000
0100
0010
0001
0000
,
0010
0000
0001
0000
0100
0010
1000
0000
,
0110
0000
1000
0000
0100
0010
0001
0000
,
1000
0000
0100
0000
0010
0001
0100
0010
,
0100
0010
0001
0100
,
0010
1000
0100
0010
,
0120
0001
0100
0100
,
0001
1000
0100
0130
,
0010
0000
0001
0000
1000
0100
1000
0000
,
0001
0000
0100
0000
0010
1000
0100
0000
,
0210
0001
1000
1000
,
0010
0001
1000
1300
,
0001
1001
1000
1001
,
0002
0000
0000
0103
,
0010
0110
0100
0110
,
0200
0000
0000
0310
,
1000
1010
0010
1010
,
2000
0000
0000
3100
,
0010
0011
0001
0011
,
0020
0000
0000
0130
,
1000
0000
0001
0000
0100
0000
0010
1000
,
0002
1000
1000
0103
,
0010
0000
1000
0000
0001
0000
0010
0100
,
2000
0001
0100
3100
,
0010
0000
0001
0000
0100
0000
0010
0100
,
0020
1000
1000
0130
,
0001
0000
0100
0000
0001
0000
1000
0002
,
2000
0000
3003
0010
,
1001
0000
0000
0000
;

//---------------dance-single - C. Picardy----------------
#NOTES:
     dance-single:
     :
     Hard:
     8:
     0.506050,0.565046,0.227658,0.154807,0.077404,389.000000,364.000000,25.000000,17.000000,0.000000,0.000000,0.506050,0.565046,0.227658,0.154807,0.077404,389.000000,364.000000,25.000000,17.000000,0.000000,0.000000:
0000
0000
0000
0000
,
0000
0000
0000
0000
,
0000
0000
0000
0000
,
0000
0000
0000
0000
,
0000
0000
0000
0000
,
0000
0000
1000
0000
0000
0001
0000
0000
1000
0000
0000
0001
0000
0000
1000
0000
,
0000
0000
0010
0000
0000
0100
0000
0000
0010
0000
0000
0100
0000
0000
0010
0000
,
0000
0000
1000
0000
0000
0100
0000
0000
1000
0000
0000
0100
0000
0000
1000
0000
,
0000
0000
0001
0000
0000
0010
0000
0000
0001
0000
0000
0010
0000
0000
0001
0000
,
0000
0000
1000
0000
0000
1000
0000
0000
1000
0000
0000
1000
0000
0000
0010
0000
,
0000
0000
0100
0000
0000
0100
0000
0000
0100
0000
0000
0100
0000
0000
0001
0000
,
0000
0000
1000
0000
0000
1000
0000
0000
1000
0000
0000
0000
0100
0000
0000
0000
,
1000
0000
0010
0000
0100
0001
1000
0000
,
0000
0000
0001
0000
0000
0001
0000
0000
1000
0000
0000
1000
0000
0000
0010
0000
,
0000
0000
0100
0000
0000
0100
0000
0000
0010
0000
0000
0010
0000
0000
1000
0000
,
0100
0010
0001
0100
,
1000
0100
0010
1000
,
0100
0010
0100
1000
,
0100
0010
0001
0100
,
1000
0001
0010
1000
,
0100
0001
1000
0010
,
0001
0100
0010
1000
,
0100
0010
0001
0100
,
1001
0000
0110
0000
,
1010
0000
0101
0000
0001
0010
0100
1000
,
0010
0000
0100
0000
0001
0010
0100
0000
,
0010
0000
1100
0000
0001
0100
0010
0000
,
1000
0000
0101
0000
1000
0100
0001
0000
,
1000
0000
0010
0000
0100
0001
0010
0000
,
0110
0000
1000
0000
0001
0100
0010
0000
,
1000
0000
0110
0000
0001
0100
0010
0000
,
1000
0000
1100
0000
0001
0100
1000
0000
,
0001
0000
0011
0000
1000
0100
0010
0001
,
0100
0011
0100
1010
,
0001
0100
0010
0000
1000
0000
1100
0000
,
1000
0100
0001
0000
0001
0100
1000
0000
,
1000
0100
0001
0000
0001
0100
1000
0000
,
1010
0100
0011
0100
,
0010
1000
0100
0011
,
0001
0100
1000
0000
1000
0100
0001
0000
,
2000
0000
0010
3100
,
1000
0100
1000
0100
1000
0100
1000
0100
,
0010
0100
0010
0100
0010
0100
0010
0100
,
0010
0001
0010
0001
0010
0001
0010
0001
,
1000
0001
1000
0001
1000
0001
1000
0001
,
0100
0001
0010
0001
0100
0001
0010
0001
,
0100
0010
1000
0010
0100
0010
1000
0010
,
0100
0001
1000
0001
0100
0001
1000
0001
,
0010
0100
1000
0100
0010
0100
1000
0100
,
1000
0100
1000
0100
0001
0100
0001
0100
,
1000
0010
1000
0010
0001
0010
0001
0010
,
1000
0010
0001
0010
1000
0010
0001
0010
,
1000
0100
0001
0100
1000
0100
0001
0100
,
1000
0001
1000
0100
1000
0010
1000
0001
,
0010
0001
0010
0100
0010
0001
0010
0100
,
1000
0100
0010
0001
0010
0100
1000
0100
,
0010
0001
0100
0010
,
1000
1020
1030
2010
,
3200
0000
0000
0310
,
0001
0021
0031
0012
,
0203
0000
0000
0310
,
0100
0120
0130
0210
,
0302
0000
0000
0013
,
1000
1002
1003
2001
,
3020
0000
0000
1030
,
0001
0010
0001
0010
0100
1000
0100
1000
,
0002
0010
1000
1003
,
0001
0100
0001
0100
0010
1000
0010
1000
,
0200
0010
1000
1300
,
0001
0100
1000
0100
0001
0100
1000
0100
,
0002
0010
1000
1003
,
0100
0010
0001
0010
0100
0010
0001
0100
,
0020
0000
1000
0130
,
1001
0000
0000
0000
;

//---------------dance-single - C. Picardy----------------
#NOTES:
     dance-single:
     :
     Challenge:
     11:
     0.934047,1.096855,0.209445,0.382465,1.361393,718.000000,695.000000,23.000000,42.000000,44.000000,0.000000,0.934047,1.096855,0.209445,0.382465,1.361393,718.000000,695.000000,23.000000,42.000000,44.000000,0.000000:
0000
0000
0000
0000
,
0000
0000
0000
0000
,
0000
0000
0000
0000
,
0000
0000
0000
0000
,
0000
0000
0000
0000
,
0000
1000
0100
0000
1000
0100
0000
1000
0001
0000
1000
0001
0000
0100
0001
0100
,
0000
0010
1000
0000
0010
1000
0000
0001
0100
0000
0001
0100
0000
0010
0100
0010
,
0000
1000
0010
0000
0010
1000
0000
0010
1000
0000
0010
1000
0000
0010
1000
0010
,
0000
0000
1000
0000
0000
0001
0000
0000
0100
0000
0001
0100
0000
0010
0100
0010
,
0000
1000
0001
0000
0001
0100
0000
0100
0010
0000
0010
1000
0000
1000
0001
0100
,
0000
0010
1000
0000
0010
1000
0000
1000
0100
0000
0100
0010
0000
0010
0100
1000
,
0000
1000
0100
0000
1000
0100
0000
1000
0100
0000
1000
0100
0000
1000
0100
0010
,
0000
0000
0001
0000
0000
1000
0000
0000
0100
0000
0000
0010
0000
0010
0001
1000
,
0000
1000
0100
0000
0001
0100
0000
1000
0100
0000
0001
0100
0000
1000
0010
0001
,
0000
0001
0010
0000
0001
0010
0000
1000
0010
0000
0001
0010
0000
1000
0010
0001
,
0020
0000
0000
0000
2000
0000
0000
3000
0002
0000
0000
0003
2000
0000
0000
0030
,
3200
0000
0000
0000
0020
0000
0000
0030
2000
0000
0000
3000
2000
0000
0000
0300
,
0002
0000
3000
0000
0020
0000
0000
0030
0020
0000
0000
0030
2000
0000
0000
0003
,
0200
0000
3000
0000
2000
0000
0000
0300
,
0002
0000
0000
3000
0020
0000
0000
0003
,
0200
0000
0000
0030
0002
0000
0000
0303
,
0400
0000
0000
0000
0040
0000
0000
0300
,
4000
0000
0000
0030
0004
0000
0000
3003
,
1001
0000
1001
0000
,
1001
0000
1001
0000
1000
0001
1000
0001
,
1000
0100
1000
0100
1000
0001
1000
0001
1000
0000
0010
1000
0000
1000
0010
0000
,
0100
0001
0100
0001
1000
0001
1000
0001
1000
0000
0001
0010
0000
0001
1000
0000
,
0010
1000
0010
1000
0001
0100
0001
0100
0001
0000
1000
0100
0000
1000
0001
0000
,
1000
0100
1000
0100
0010
0001
0010
0001
0010
0000
0100
1000
0000
1000
0100
0000
,
0010
0001
0010
0001
1000
0001
1000
0001
1000
0000
0010
0100
0000
0010
1000
0000
,
0010
1000
0010
1000
0100
1000
0100
1000
0100
0000
0010
0001
0000
1000
0001
0000
,
0100
0010
0100
0010
1000
0010
1000
0010
1000
0000
0001
0100
0000
0100
0010
0000
,
1000
0001
1000
0001
0100
0010
0100
0010
0100
0000
0000
0000
1000
0000
1001
0000
,
0100
1000
0100
1000
0001
0010
0001
1000
0001
1000
0001
0100
0001
0100
0010
1000
,
0010
1000
0100
0010
0100
0010
0001
0010
0001
0010
0100
0010
0100
0010
0100
0010
,
0001
0010
0001
0010
0001
0010
0001
0010
0001
0010
0001
0010
0001
0010
0001
0010
,
0001
1000
0001
1000
0001
1000
0001
1000
0001
1000
0001
1000
0001
1000
0001
1000
,
0100
0010
0100
0010
0001
1000
0001
0100
0001
0100
0010
1000
0010
1000
0010
1000
,
0100
0010
0100
0010
0001
1000
0001
0100
0001
0100
0001
0010
0001
0010
0001
0010
,
0001
0100
0001
0100
0001
0100
0001
0100
0001
0100
0001
0100
0001
0100
0001
0100
,
0040
0000
0000
4000
0000
0000
3030
0000
,
0001
1000
0001
0000
1000
0100
0000
0100
0010
0000
0010
0001
0000
0001
0100
0000
,
0010
1000
0010
0000
0100
0001
0000
0001
0100
0000
0100
0010
0000
0010
1000
0000
,
0001
0100
0001
0000
0010
0001
0000
0001
1000
0000
1000
0100
0000
0100
1000
0000
,
0001
0010
0001
0000
0100
0010
0000
0010
1000
0000
1000
0100
0000
0100
0010
0000
,
0100
1000
0100
0000
0010
0001
0000
0001
1000
0000
1000
0001
0000
0001
0100
0000
,
0010
0100
0010
0000
1000
0010
0000
0010
1000
0000
1000
0001
0000
0001
0010
0000
,
0100
0010
0100
0000
1000
0010
0000
0010
0001
0000
0001
0010
0000
0010
1000
0000
,
0001
1000
0001
0000
1000
0000
0000
0000
0001
0000
0000
0000
1000
0000
1001
0000
,
0100
0001
0100
0001
0100
0010
0100
0010
1000
0010
1000
0001
1000
0001
0100
0001
,
0100
0001
0100
0010
0100
0010
1000
0010
1000
0010
1000
0100
1000
0100
1000
0100
,
1000
0001
1000
0001
1000
0001
1000
0001
1000
0001
1000
0001
1000
0001
1000
0001
,
0010
0001
0010
0001
0010
0001
0010
0001
0010
0001
0010
0001
0010
0001
0010
0001
,
1000
0001
1000
0001
0100
0001
0100
0010
0100
0010
1000
0001
1000
0001
1000
0100
,
1000
0100
1000
0100
0010
0001
0010
0100
1000
0100
0010
0001
0100
0010
1000
0100
,
0010
0001
0010
0001
0010
0001
0010
0001
0010
0001
0010
0001
0010
0001
0010
0001
,
1000
0100
1000
0100
1000
0100
1000
0100
1000
0100
1000
0100
1000
0100
1000
0100
,
1000
0000
0000
0000
0000
0000
1020
0000
0000
0000
0000
0000
1000
0000
0000
0030
00M0
0000
2010
0000
0000
0000
0000
0000
0010
0000
0000
3000
M000
0000
1020
0000
0000
0000
0000
0000
1000
0000
0000
0030
00M0
0000
2010
0000
0000
0000
0000
0000
,
0200
3000
M0MM
0000
M0MM
0000
M32M
0000
,
0031
0000
0000
0000
0000
0000
0012
0000
0000
0000
0000
0000
0010
0000
0000
0003
000M
0000
0021
0000
0000
0000
0000
0000
0001
0000
0000
0030
00M0
0000
0012
0000
0000
0000
0000
0000
0010
0000
0000
0003
000M
0000
0012
0000
0000
0000
0000
0000
,
2000
0003
0MMM
0000
0MMM
0000
3M2M
0000
,
0130
0000
0000
0000
0000
0000
0210
0000
0000
0000
0000
0000
0010
0000
0000
0300
0M00
0000
0120
0000
0000
0000
0000
0000
0100
0000
0000
0030
00M0
0000
0210
0000
0000
0000
0000
0000
0010
0000
0000
0300
0M00
0000
0120
0000
0000
0000
0000
0000
,
0002
0030
MMM0
0000
MMM0
0000
MM23
0000
,
1030
0000
0000
0000
0000
0000
2001
0000
0000
0000
0000
0000
0001
0000
0000
3000
M000
0000
1002
0000
0000
0000
0000
0000
1000
0000
0000
0003
000M
0000
2001
0000
0000
0000
0000
0000
0001
0000
0000
3000
M000
0000
2001
0000
0000
0000
0000
0000
,
0020
3000
MM0M
0000
MM0M
0000
M23M
0000
,
0310
0100
0010
0000
1000
0000
1000
0000
0010
0100
0010
0000
1000
0000
1000
0000
,
0001
0100
0001
0100
0001
0000
0100
0010
0100
0000
0010
0000
1000
0000
0001
0000
,
1000
0100
1000
0000
0001
0000
0001
0000
1000
0100
1000
0000
0001
0000
0001
0000
,
1000
0010
1000
0010
1000
0000
0001
0100
0001
0000
1000
0000
0100
0000
0010
0000
,
0001
0010
0001
0000
0100
0000
0100
0000
0001
0010
0001
0000
0100
0000
0100
0000
,
0010
1000
0010
1000
0010
0000
1000
0010
1000
0000
0001
0000
0100
0000
0010
0000
,
1000
0100
1000
0100
0010
0001
0010
0001
1000
0100
1000
0100
0010
0001
0010
0001
,
0100
0010
1000
0001
0100
0010
1000
0100
0010
0001
0100
0010
1000
0000
0001
0000
,
1001
0000
0000
0000
;
