#TITLE:Theme of Gaia;
#SUBTITLE:;
#ARTIST:Yasuhiro Nakano/Toshinden 2;
#TITLETRANSLIT:;
#SUBTITLETRANSLIT:;
#ARTISTTRANSLIT:;
#GENRE:;
#CREDIT:;
#BANNER:themeofgaiabn.png;
#BACKGROUND:themeofgaiabg.png;
#LYRICSPATH:;
#CDTITLE:;
#MUSIC:themeofgaia.ogg;
#OFFSET:-0.918859;
#SAMPLESTART:26.900423;
#SAMPLELENGTH:21.680019;
#SELECTABLE:YES;
#BPMS:0.000000=120.059998
;
#STOPS:
;
#BGCHANGES:16.000=mountains.mp4=1.000=1=0=1=SongBgWithMovieViz==CrossFade==,
20.000=mountains.mp4=1.000=1=0=1===CrossFade==,
243.000=themeofgaiabg.png=1.000=0=0=1===CrossFade_Fastest==,
99999=-nosongbg-=1.000=0=0=0 // don't automatically add -songbackground-
;
#KEYSOUNDS:;
#ATTACKS:;

//---------------dance-single - C. Picardy----------------
#NOTES:
     dance-single:
     :
     Beginner:
     1:
     0.065135,0.122128,0.056993,0.000000,0.000000,56.000000,49.000000,7.000000,0.000000,0.000000,0.000000,0.065135,0.122128,0.056993,0.000000,0.000000,56.000000,49.000000,7.000000,0.000000,0.000000,0.000000:
0000
0000
0000
0000
,
0000
0000
0000
0000
,
0000
0000
0000
0000
,
0000
0000
0000
0000
,
0000
0000
0000
0000
,
1000
0000
0000
0000
,
1000
0000
0000
0000
,
1000
0000
0000
0000
,
0000
0000
0000
0000
,
0001
0000
0000
0000
,
0001
0000
0000
0000
,
0001
0000
0000
0000
,
0000
0000
0000
0000
,
0010
0000
0000
0000
,
0010
0000
0000
0000
,
0010
0000
0000
0000
,
0000
0000
0000
0000
,
0100
0000
0000
0000
,
0100
0000
0000
0000
,
0100
0000
0000
0000
,
0000
0000
0000
0000
,
1000
0000
0000
0000
,
1000
0000
0000
0000
,
0001
0000
0000
0000
,
0001
0000
0000
0000
,
0010
0000
0000
0000
,
0010
0000
0000
0000
,
0100
0000
0000
0000
,
0100
0000
0000
0000
,
0010
0000
0000
0000
,
0001
0000
0000
0000
,
1000
0000
0000
0000
,
0100
0000
0000
0000
,
1000
0000
0000
0000
,
0010
0000
0000
0000
,
0100
0000
0000
0000
,
0001
0000
0000
0000
,
1001
0000
0000
0000
,
0010
0000
0000
0000
,
1000
0000
0000
0000
,
0001
0000
0000
0000
,
1001
0000
0000
0000
,
0100
0000
0000
0000
,
0010
0000
0000
0000
,
1000
0000
0000
0000
,
1001
0000
0000
0000
,
0000
0000
0000
0000
,
1001
0000
0000
0000
,
0000
0000
0000
0000
,
0110
0000
0000
0000
,
0000
0000
0000
0000
,
0110
0000
0000
0000
,
1001
0000
0000
0000
,
1000
0000
0000
0000
,
0001
0000
0000
0000
,
0010
0000
0000
0000
,
0100
0000
0000
0000
,
1000
0000
0000
0000
,
0010
0000
0000
0000
,
1000
0000
0000
0000
,
0001
0000
0000
0000
;

//---------------dance-single - C. Picardy----------------
#NOTES:
     dance-single:
     :
     Easy:
     3:
     0.215178,0.296771,0.113986,0.301249,0.000000,185.000000,171.000000,14.000000,37.000000,0.000000,0.000000,0.215178,0.296771,0.113986,0.301249,0.000000,185.000000,171.000000,14.000000,37.000000,0.000000,0.000000:
0000
0000
0000
0000
,
0000
0000
0000
0000
,
0000
0000
0000
0000
,
0000
0000
0000
0000
,
0000
0000
0000
0000
,
0020
0000
0030
1000
,
0020
0000
0000
0030
,
0100
0001
1000
0001
,
2000
0000
0000
3000
,
0200
0000
0300
0001
,
0020
0000
0000
0030
,
0001
1000
0001
1000
,
0020
0000
0000
0030
,
0002
0003
0100
0001
,
0020
0030
0000
0001
,
0100
0001
0100
0010
,
2000
0000
3010
1000
,
0200
0000
0300
0010
,
0002
0000
0000
0003
,
0100
0001
1000
0001
,
0020
0000
0000
0030
,
2002
3003
1000
0100
,
2002
3003
0010
0001
,
2002
3003
0010
0100
,
2002
3003
0100
0001
,
2000
3000
0010
0100
,
0002
0003
0010
0100
,
0020
0030
0001
1000
,
0200
0000
1000
1300
,
1100
0000
0100
0010
,
0002
0103
0100
0001
,
1000
0001
1000
0010
,
2000
0000
0100
3100
,
0002
0003
1000
0010
,
0200
0300
0001
0001
,
0010
0100
1000
0001
,
2000
0010
0001
3100
,
1000
0001
1000
0001
,
0100
0001
0100
0001
,
0010
0001
0010
0001
,
1000
0001
1000
0001
,
1000
0100
1000
0100
,
0010
0100
0010
0100
,
0010
0001
0010
0001
,
0100
0010
0100
0010
,
1000
0010
0100
1001
,
0001
0010
0100
0110
,
1000
0100
0010
0110
,
0001
0001
0100
0110
,
1000
0010
1000
0110
,
0001
0010
0001
1001
,
1000
0100
0100
0110
,
0001
0100
0010
1000
,
2002
3003
0100
0001
,
2000
3000
0001
0000
,
0100
0001
0100
0001
,
2000
0000
3000
0010
,
0200
0300
0000
0001
,
0020
0000
0030
0000
,
0100
1000
0001
0010
,
2002
0000
0000
3003
;

//---------------dance-single - C. Picardy----------------
#NOTES:
     dance-single:
     :
     Medium:
     5:
     0.325675,0.346233,0.162837,0.447803,0.000000,280.000000,260.000000,20.000000,55.000000,0.000000,0.000000,0.325675,0.346233,0.162837,0.447803,0.000000,280.000000,260.000000,20.000000,55.000000,0.000000,0.000000:
0000
0000
0000
0000
,
0000
0000
0000
0000
,
0000
0000
0000
0000
,
0000
0000
0000
0000
,
0000
0000
0000
0000
,
0002
0000
1000
0000
0003
0000
0001
1000
,
0200
0000
1000
0000
0000
1000
1300
0000
,
2000
3200
0320
0032
,
0203
0000
0000
0000
0000
0301
0001
0100
,
0020
0000
1000
0000
0030
0000
0010
0100
,
0002
0000
0100
0000
0000
0100
0103
0000
,
0020
0230
2300
3002
,
0203
0000
0000
0000
0010
0010
0010
0310
,
2000
0000
3001
0000
0100
0000
0001
0100
,
0020
0000
1030
0000
0010
0000
0100
0001
,
0020
0032
0023
0032
,
2003
0000
3100
0000
0000
0001
0010
0100
,
2000
0000
3010
0000
1000
0000
0100
1000
,
0020
0031
0100
0001
,
0001
0100
0020
0000
0230
0000
0301
0100
,
2000
0000
3100
0001
0100
0001
0100
0001
,
2000
0000
0001
0000
0010
3000
0001
0100
,
0020
0000
1000
0000
1000
0000
0100
0130
,
0002
0000
0013
0100
2000
0000
3100
0010
,
0002
0000
0000
0000
0200
0000
0000
0303
,
0200
0000
0300
0010
0100
0010
0100
0010
,
2000
0000
0000
3010
0100
0001
0010
0000
,
0022
0000
0033
0001
1000
1000
0100
0100
,
0020
0000
0030
0002
0020
0000
0033
0000
,
1001
0000
0100
0000
0010
0000
1000
0100
,
0001
0000
0100
0000
1000
0000
0010
0010
,
0200
0000
0302
0000
0103
0100
0010
0000
,
0200
0000
0310
0000
1000
0000
0001
1000
,
0100
0000
1100
0000
0010
0000
0001
0010
,
1000
0000
0001
0000
0100
0000
1000
0100
,
0001
0100
1000
0000
0010
0000
0001
0010
,
2000
0000
0000
3000
,
0010
0000
1010
0000
0100
0000
0001
0100
,
1000
0000
0100
0000
1010
0000
1000
0100
,
0001
0000
0100
0000
0011
0000
0001
0010
,
1000
0010
0011
1000
,
1010
0000
0001
0010
1000
0000
0010
0000
,
1001
0000
1000
0100
0001
0000
0100
0000
,
1100
0000
0001
0100
1000
0000
0010
0000
,
0101
0000
0001
0100
1000
0000
0100
0000
,
0001
0000
0101
0000
0000
0001
0010
0001
,
0100
0000
1100
0000
0000
0100
1000
0010
,
0100
0000
0110
0000
0000
0001
1000
0100
,
0010
0000
1001
0000
0000
0001
0010
0001
,
1000
0000
0011
0000
0000
0100
0001
0010
,
0100
0000
1001
0000
0000
1000
0010
1000
,
0010
0000
0101
0000
0000
1000
0100
1000
,
0100
0000
1001
0000
0000
0001
1000
0100
,
0020
0000
0031
0000
0000
0001
0010
0001
,
2000
0000
0010
0000
0000
0001
3001
0000
,
2000
3002
0203
0320
,
2030
0000
0000
0000
0000
3010
1000
1000
,
0020
0000
0130
0000
0000
0000
0010
0100
,
0002
0000
0010
0000
0000
1000
1003
0000
,
0001
0010
0100
0000
2000
0000
3010
0100
,
2002
0000
0000
3003
;

//---------------dance-single - C. Picardy----------------
#NOTES:
     dance-single:
     :
     Hard:
     8:
     0.382668,0.420426,0.122128,0.358242,0.093631,329.000000,314.000000,15.000000,44.000000,0.000000,0.000000,0.382668,0.420426,0.122128,0.358242,0.093631,329.000000,314.000000,15.000000,44.000000,0.000000,0.000000:
0000
0000
0000
0000
,
0000
0000
0000
0000
,
0000
0000
0000
0000
,
0000
0000
0000
0000
,
0000
0000
0000
0000
,
0001
2000
0000
0000
3100
0000
0000
0000
0000
0000
0100
0000
1000
0000
0010
0000
,
0020
0000
1030
0000
0000
0001
0001
0001
,
0200
0000
0320
0000
0130
0001
0020
0000
,
0002
0000
0033
0000
0000
0001
0100
0001
,
1000
0002
0000
0000
1003
0000
0000
0000
0000
0000
0100
0000
0010
0000
0100
0000
,
1000
0000
1100
0000
0000
0100
0100
0100
,
0010
0100
2000
0000
3002
0000
0103
0010
,
1000
0001
0100
0001
1000
1000
0001
0001
,
0100
0000
0110
0000
0000
0001
0010
0001
,
1000
0000
0011
0000
0000
0001
1000
0100
,
0002
0000
0203
0000
1300
0010
0002
0000
,
0023
0000
0000
0000
1030
0000
0000
0000
0000
0000
0010
1000
0010
0000
0100
0000
,
0020
0000
1030
0000
0000
0001
0100
1000
,
0100
0000
1010
0000
0000
0001
0100
1000
,
0100
0001
2000
0000
3200
0000
1300
0001
,
0010
0001
1000
0010
0100
0001
0010
0001
,
1000
0000
1010
0000
0001
0100
1000
0100
,
0010
0010
1000
1000
,
2100
0000
3000
0100
0010
0001
0010
0100
,
2000
3010
0200
0301
,
0220
0000
0330
1000
0001
0100
0001
1000
,
0020
0000
0030
0100
0001
0100
2000
0000
,
3200
0000
0000
0000
0300
0000
0001
0000
0010
0001
0010
0001
0010
0000
0100
0000
,
0020
0000
0030
0001
0020
0000
0030
0000
,
1001
0000
0100
0000
0010
0000
1000
0100
,
0002
0100
1000
0103
,
2000
0000
3020
0000
1030
0100
0010
0000
,
0002
0000
1003
0000
0000
0010
0010
0010
,
0100
0000
0101
0000
0000
0001
0100
1000
,
0200
0001
0001
0310
,
0010
0100
1000
0000
0100
0000
0001
0010
,
0200
4000
0000
0000
0000
0000
3300
0000
,
1000
0000
0000
1000
0100
0000
0000
0000
0010
0000
0000
0010
0100
0000
1000
0000
,
0010
0000
0000
0010
1000
0000
0000
0000
0001
0000
0000
0001
0100
0000
0100
0000
,
0010
0000
0000
0000
0010
0000
0000
0000
1000
0000
0000
1000
0010
0000
1000
0000
,
0001
0000
0000
0000
0101
0000
0000
0000
1000
0000
0000
0001
1000
0000
0001
0000
,
0010
0000
0000
0000
0011
0000
0000
0000
1000
0000
0000
0100
0010
0000
0010
0000
,
0100
0000
0000
0000
1100
0000
0000
0000
0100
0000
0000
0100
1000
0000
0001
0000
,
0010
0000
0000
0000
0011
0000
0000
0000
1000
0000
0000
0010
0100
0000
0001
0000
,
1000
0000
0000
0000
1000
0000
0000
0010
1000
0000
0001
0000
1000
0000
0001
0000
,
0100
0000
0001
0100
0001
0000
0100
0000
0100
0000
0000
0000
0010
0000
0000
0000
,
1000
0000
0100
1000
0100
0000
1000
0000
1000
0000
0000
0000
0100
0000
0000
0000
,
0010
0000
0001
0010
0001
0000
0010
0000
0010
0000
0000
0000
0001
0000
0000
0000
,
0100
0000
0010
0100
0010
0000
0100
0000
0100
0000
0000
0000
0110
0000
0000
0000
,
1000
0000
0000
0001
0100
0000
0001
0000
1000
0000
0010
0000
0100
0000
0010
0000
,
1000
0000
0000
0001
0010
0000
0001
0000
1000
0000
0001
0000
0010
0000
0001
0000
,
1000
0000
0000
0010
1000
0000
0100
0000
0010
0000
0100
0000
1000
0000
0001
0000
,
0010
0000
0000
0010
0001
0000
1000
0000
0001
0000
1000
0000
0100
0000
0000
0000
,
2000
0000
3100
0000
0010
0000
0001
0010
,
0002
0000
1003
0000
0010
0000
0100
0100
,
0002
0000
2003
0000
3100
1000
0020
0000
,
1030
0000
0001
0000
0100
0000
0001
0100
,
0020
0000
0130
0000
0001
0000
1000
0100
,
0002
0000
0103
0000
1000
0000
0010
1000
,
0200
0000
0320
0000
0032
0000
1003
0001
,
0202
0000
0000
0303
;

//---------------dance-single - C. Picardy----------------
#NOTES:
     dance-single:
     :
     Challenge:
     9:
     0.555973,0.741927,0.040709,0.578072,0.500725,478.000000,473.000000,5.000000,71.000000,14.000000,0.000000,0.555973,0.741927,0.040709,0.578072,0.500725,478.000000,473.000000,5.000000,71.000000,14.000000,0.000000:
// measure 0
0000
0000
0000
0000
,  // measure 1
0000
0000
0000
0000
,  // measure 2
0000
0000
0000
0000
,  // measure 3
1000
0000
0100
1000
0100
0000
1000
0100
1000
0000
0100
0000
0000
0010
0000
0010
,  // measure 4
0001
0000
0001
1000
0001
0000
1000
0001
1000
0000
0001
0000
0000
0100
0000
0100
,  // measure 5
0020
0000
1000
0000
0030
0100
0010
1000
,  // measure 6
0020
0000
0001
0000
1030
0001
0001
0001
,  // measure 7
0200
0000
0320
0000
1030
0010
0010
0010
,  // measure 8
2000
0000
0100
0000
3000
0100
0100
1000
,  // measure 9
2000
0000
0100
0000
3000
0100
1000
0001
,  // measure 10
2000
0000
0010
0000
3000
1000
1000
0100
,  // measure 11
0001
0100
0020
0000
0230
0000
1300
0001
,  // measure 12
1000
0000
0000
0001
0000
0000
1000
0000
0000
0001
0000
0000
1000
0000
0000
0001
1000
0001
1000
0000
0000
1001
0000
0000
,  // measure 13
0001
1000
0000
0000
0200
0000
0000
0000
0320
0000
0001
0000
0031
0000
0100
0000
,  // measure 14
2000
0000
3100
0000
0001
1000
0100
1000
,  // measure 15
0020
0000
2030
0000
3010
0100
0010
1000
,  // measure 16
0002
0000
0000
0000
0000
0000
0010
0000
0000
0000
0000
0000
0003
0000
0000
0100
0001
0100
0001
0000
0000
0100
0000
0000
,  // measure 17
0002
0100
0000
0000
0013
0000
0000
0000
0001
0000
0100
0000
0001
0000
0100
0000
,  // measure 18
0020
0100
0000
0000
1000
0000
0000
0000
1030
0000
0001
0000
0100
0000
0001
0000
,  // measure 19
2000
3100
0020
0000
0032
0000
1003
0001
,  // measure 20
0100
0001
0100
0001
1000
0001
1000
0001
,  // measure 21
0200
0000
0001
0000
1300
0100
0001
0020
,  // measure 22
0200
0000
0000
0330
,  // measure 23
0220
0000
0000
0000
0000
0330
0200
0000
0020
0300
0002
0030
0200
0003
0020
0300
,  // measure 24
2000
0030
0000
0000
3000
0000
0000
0000
2200
0000
0000
0000
0000
0000
3300
0000
,  // measure 25
0220
0000
0000
0000
0330
0000
0200
0000
0020
0300
0002
0030
0020
0003
0002
0030
,  // measure 26
0200
0003
0000
0300
0000
0000
0200
0000
0002
0300
0200
0003
2000
0300
0000
3000
,  // measure 27
0220
0000
0000
0000
0330
0000
0100
0000
0001
0010
0001
0010
0001
0010
0001
0010
,  // measure 28
0002
0000
0003
1000
0020
1000
1000
1000
,  // measure 29
2030
0000
0010
0000
3100
0010
0100
1000
,  // measure 30
0020
0000
0001
0000
0000
1000
1030
0001
,  // measure 31
0002
0000
2003
0000
3100
1000
0020
0100
,  // measure 32
0230
0000
0000
0000
0000
0000
0001
0000
0000
0000
0000
0000
0300
0000
0000
0100
0001
0100
0010
0000
0000
1000
0000
0000
,  // measure 33
2000
0000
0010
0000
3000
0010
1000
1000
,  // measure 34
0002
0000
0010
0000
0000
1000
1003
1000
,  // measure 35
0001
0010
0002
0000
0203
0000
0301
0100
,  // measure 36
0020
4000
0000
0000
0000
0000
0000
3030
,  // measure 37
1000
0000
0100
1000
0100
0000
1000
0100
1000
0001
1000
0100
1000
0001
1000
0100
,  // measure 38
1000
0000
0001
0100
0001
0100
0001
0100
0000
0100
0001
0100
0010
0100
0001
0100
,  // measure 39
0010
0000
1000
0010
1000
0010
1000
0001
1000
0001
1000
0001
1000
0001
0010
0001
,  // measure 40
0010
0000
0001
0010
0001
0010
0001
0010
0000
0010
0100
0010
0001
0010
0100
0010
,  // measure 41
0001
0000
0100
0001
01M0
0000
0001
0100
00M1
0100
0100
0001
00M1
0100
0001
0100
,  // measure 42
01M0
0000
0010
1000
1M00
0000
0010
1000
0M10
0010
1000
0010
0M10
1000
1000
0010
,  // measure 43
1M00
0000
1000
0100
10M0
0000
100M
0100
10M0
0000
100M
0100
01M0
1000
010M
0100
,  // measure 44
1000
0000
0100
1000
0100
1000
0100
1000
0100
0000
1000
0100
1000
0100
0010
0001
,  // measure 45
0010
0000
0001
1000
0010
0000
1000
0010
1000
0001
0010
0001
1000
0100
1000
0001
,  // measure 46
0010
0000
0001
0010
0001
0100
0001
1000
0000
0001
1000
0100
1000
0001
0010
0100
,  // measure 47
1000
0000
0001
1000
0100
1000
0001
1000
0010
1000
0001
1000
0100
1000
0010
1000
,  // measure 48
0001
0000
1000
0001
0100
0010
1000
0001
0000
1000
0001
0100
0010
1000
0100
0010
,  // measure 49
0001
0000
0100
0010
1000
0000
0001
0100
0010
1000
0001
1000
0100
0010
0001
1000
,  // measure 50
0100
0000
0010
0001
0010
0000
0001
0100
0010
1000
0100
0010
0001
0100
0010
1000
,  // measure 51
0100
0000
0010
0001
0010
0000
0100
1000
0100
0000
0010
0001
0010
0100
1000
0100
,  // measure 52
0010
0000
0001
0010
0100
1000
0100
0010
0001
0000
1000
0100
0010
0001
0010
0100
,  // measure 53
2000
0000
0010
0000
3001
0001
1000
0100
,  // measure 54
0020
0000
0001
0000
0130
0001
0001
0010
,  // measure 55
0200
0000
2300
0000
3010
0100
0001
1000
,  // measure 56
0200
0000
0000
0000
0000
0000
1000
0000
0000
0000
0000
0000
0300
0000
0000
1000
0001
1000
0001
0000
0000
0100
0000
0000
,  // measure 57
0002
0000
0000
0000
0010
0000
0000
0003
0001
0000
0010
0000
1000
0000
0010
0000
,  // measure 58
0002
0000
1000
0000
0003
0010
0010
1000
,  // measure 59
2000
0000
0000
0000
0020
3000
0000
0000
0002
0030
0000
0000
1000
0003
0200
0000
,  // measure 60
0004
0000
0300
1003
;
