#TITLE:The Unreleased;
#SUBTITLE:;
#ARTIST:Sanxion7;
#TITLETRANSLIT:;
#SUBTITLETRANSLIT:;
#ARTISTTRANSLIT:;
#GENRE:;
#CREDIT:;
#BANNER:theunreleasedbn.png;
#BACKGROUND:theunreleasedbg.png;
#LYRICSPATH:;
#CDTITLE:;
#MUSIC:theunreleased.ogg;
#OFFSET:-1.058589;
#SAMPLESTART:83.849640;
#SAMPLELENGTH:12.000000;
#SELECTABLE:YES;
#BPMS:0.000000=144.960007
;
#STOPS:132.000000=0.020000
;
#BGCHANGES:16.000=4Ktunnel.mp4=1.000=0=0=1=SongBgWithMovieViz====,
36.000=flash=1.000=0=0=1=====,
36.250=4Ktunnel.mp4=1.000=0=0=1=====,
68.000=flash=1.000=0=0=1=====,
68.250=4Ktunnel.mp4=1.000=0=0=0=StretchNoLoop====,
100.000=flash=1.000=0=0=1=====,
100.250=4Ktunnel.mp4=1.000=1=0=1=SongBgWithMovieViz==CrossFade==,
132.000=4Ktunnel.mp4=1.000=0=0=1=SongBgWithMovieViz===#00FFFF=,
140.000=4Ktunnel.mp4=1.000=0=0=1=SongBgWithMovieViz===#FFFF00=,
148.000=4Ktunnel.mp4=1.000=0=0=1=SongBgWithMovieViz===#0000FF=,
156.000=4Ktunnel.mp4=1.000=0=0=1=SongBgWithMovieViz===#00FF00=,
164.000=theunreleasedbg.png=1.000=1=0=1===CrossFade==,
168.000=flash=1.000=0=0=1=====,
168.250=Shinytunnel.mp4=1.000=0=0=0=StretchNoLoop====,
200.000=flash=1.000=0=0=1=====,
200.250=Shinytunnel.mp4=1.000=0=0=1=====,
232.000=flash=1.000=0=0=1=====,
232.250=Shinytunnel.mp4=1.000=0=0=1=====,
296.000=flash=1.000=0=0=1=====,
296.250=theunreleasedbg.png=1.000=0=0=1=====,
99999=-nosongbg-=1.000=0=0=0 // don't automatically add -songbackground-
;
#KEYSOUNDS:;
#ATTACKS:;

//---------------dance-single - ----------------
#NOTES:
     dance-single:
     :
     Beginner:
     1:
     0.084518,0.145934,0.063106,0.031553,0.000000,75.000000,67.000000,8.000000,4.000000,0.000000,0.000000,0.084518,0.145934,0.063106,0.031553,0.000000,75.000000,67.000000,8.000000,4.000000,0.000000,0.000000:
0000
0000
0000
0000
,
0000
0000
0000
0000
,
0000
0000
0000
0000
,
0000
0000
0000
0000
,
1001
0000
0000
0000
,
0000
0000
0000
0000
,
0000
0000
0000
0000
,
0020
0000
0000
0000
,
0030
0000
0000
0000
,
0100
0000
0000
0000
,
0100
0000
0000
0000
,
0010
0000
0000
0000
,
0010
0000
0000
0000
,
0001
0000
0000
0000
,
0001
0000
0000
0000
,
1000
0000
0000
0000
,
1000
0000
0000
0000
,
0100
0000
0100
0000
,
0000
0000
0000
0000
,
0010
0000
0010
0000
,
0000
0000
0000
0000
,
0001
0000
0001
0000
,
0000
0000
0000
0000
,
1000
0000
1000
0000
,
0000
0000
0000
0000
,
0110
0000
0000
0000
,
1000
0000
0000
0000
,
0001
0000
0000
0000
,
1000
0000
0000
0000
,
0001
0000
0000
0000
,
0100
0000
0000
0000
,
0010
0000
0000
0000
,
0100
0000
0000
0000
,
0010
0000
0000
0000
,
0000
0000
0000
0000
,
2000
0000
0000
0000
,
3000
0000
0000
0000
,
0002
0000
0000
0000
,
0003
0000
0000
0000
,
0200
0000
0000
0000
,
0000
0000
0000
0000
,
0300
0000
0000
0000
,
0001
0000
0001
0000
,
0001
0000
0000
0000
,
1000
0000
1000
0000
,
1000
0000
0000
0000
,
0100
0000
0100
0000
,
0100
0000
0000
0000
,
0010
0000
0010
0000
,
0010
0000
0000
0000
,
0100
0000
0000
0000
,
0110
0000
0000
0000
,
0001
0000
0000
0000
,
1001
0000
0000
0000
,
1000
0000
0000
0000
,
0110
0000
0000
0000
,
0001
0000
0000
0000
,
0110
0000
0000
0000
,
0100
0000
0000
0000
,
1000
0000
0000
0000
,
0001
0000
0000
0000
,
0010
0000
0000
0000
,
0001
0000
0000
0000
,
1000
0000
0000
0000
,
0010
0000
0000
0000
,
0100
0000
0000
0000
,
1001
0000
0000
0000
,
0100
0000
0000
0000
,
0010
0000
0000
0000
,
1000
0000
0000
0000
,
0001
0000
0000
0000
,
0100
0000
0000
0000
,
0010
0000
0000
0000
,
1000
0000
0000
0000
,
1001
0000
0000
0000
;

//---------------dance-single - C. Picardy----------------
#NOTES:
     dance-single:
     :
     Easy:
     4:
     0.264822,0.383273,0.118325,0.031553,0.000000,235.000000,220.000000,15.000000,4.000000,0.000000,0.000000,0.264822,0.383273,0.118325,0.031553,0.000000,235.000000,220.000000,15.000000,4.000000,0.000000,0.000000:
// measure 0
0000
0000
0000
0000
,  // measure 1
0000
0000
0000
0000
,  // measure 2
0000
0000
0000
0000
,  // measure 3
0000
0000
0000
0000
,  // measure 4
1001
0000
0000
0000
,  // measure 5
0000
0000
0000
0000
,  // measure 6
0010
0000
1000
0000
,  // measure 7
0100
0010
0001
1000
,  // measure 8
0020
0000
0030
0000
,  // measure 9
0110
0000
0100
0001
,  // measure 10
1000
0000
0100
0000
,  // measure 11
0010
0001
1000
0000
,  // measure 12
0100
0000
0010
0000
,  // measure 13
0001
0100
0010
0000
,  // measure 14
1000
0000
0001
0000
,  // measure 15
0010
0100
1000
0000
,  // measure 16
0001
0000
0100
0010
,  // measure 17
1001
0000
0100
0010
,  // measure 18
1000
0000
0001
1000
,  // measure 19
0100
1000
0001
0000
,  // measure 20
0100
0000
0010
1000
,  // measure 21
0001
0100
0010
0000
,  // measure 22
1000
0000
0100
1000
,  // measure 23
0100
0010
0001
0000
,  // measure 24
1000
0001
0100
0010
,  // measure 25
1001
1000
1000
1000
,  // measure 26
0100
0100
0100
0100
,  // measure 27
0010
0010
0010
0010
,  // measure 28
0001
0001
0001
0001
,  // measure 29
1000
1000
0001
0001
,  // measure 30
1000
1000
0001
0001
,  // measure 31
0100
0100
0010
0010
,  // measure 32
0100
0100
0010
0010
,  // measure 33
1001
0000
0100
0000
,  // measure 34
0010
0000
0000
0000
,  // measure 35
1000
0000
0100
0000
,  // measure 36
0001
0000
0000
0000
,  // measure 37
0100
0000
1000
0000
,  // measure 38
0010
0000
0000
0000
,  // measure 39
1000
0000
0001
0000
,  // measure 40
0010
0000
0100
1000
,  // measure 41
0002
0000
1000
1003
,  // measure 42
0001
1000
0001
1000
,  // measure 43
0001
0100
0001
0100
,  // measure 44
0010
0100
0010
0100
,  // measure 45
0010
1000
0010
1000
,  // measure 46
0001
0100
0010
1000
,  // measure 47
0001
0100
0010
1000
,  // measure 48
0001
0010
0100
1000
,  // measure 49
0001
0010
0100
1000
,  // measure 50
0110
1000
0001
0100
,  // measure 51
0010
1000
0100
0010
,  // measure 52
0110
0001
0100
0010
,  // measure 53
1000
0100
0010
0100
,  // measure 54
1001
0100
0010
1000
,  // measure 55
1001
0010
0100
0010
,  // measure 56
1001
0001
1000
0100
,  // measure 57
0110
0001
0100
0110
,  // measure 58
1001
0000
1000
0100
,  // measure 59
1000
0000
0001
0001
,  // measure 60
0010
0100
1000
1000
,  // measure 61
1000
0000
0001
0100
,  // measure 62
0001
0000
1000
0010
,  // measure 63
1000
0000
0001
0100
,  // measure 64
0010
1000
0001
0001
,  // measure 65
0001
0000
0100
0010
,  // measure 66
1001
0000
0100
0010
,  // measure 67
1000
0000
0001
1000
,  // measure 68
0100
0010
0100
0100
,  // measure 69
0100
0000
1000
0001
,  // measure 70
0100
0000
0010
1000
,  // measure 71
0100
0000
0010
0001
,  // measure 72
0100
0001
0010
0010
,  // measure 73
0010
0001
0100
0000
,  // measure 74
2002
0000
0000
3003
;

//---------------dance-single - C. Picardy----------------
#NOTES:
     dance-single:
     :
     Medium:
     6:
     0.376385,0.473298,0.205096,0.102548,0.000000,334.000000,308.000000,26.000000,13.000000,6.000000,0.000000,0.376385,0.473298,0.205096,0.102548,0.000000,334.000000,308.000000,26.000000,13.000000,6.000000,0.000000:
0000
0000
0000
0000
,
0000
0000
0000
0000
,
0000
0000
0000
0000
,
0000
0000
0000
0000
,
1001
0000
0000
0020
0000
0000
0000
0000
,
0030
0000
0100
0000
,
1000
0000
0000
0002
0000
0000
0000
0000
,
0003
0000
0000
0000
0100
0000
0100
0010
,
0100
0000
0010
0010
,
1001
0000
0100
0000
0010
0000
1000
0010
,
1000
0100
0010
0001
,
0100
0000
0010
0000
1000
0000
0001
0010
,
0001
1000
0100
0010
,
0001
0000
1000
0000
0010
0000
0100
0010
,
0100
0001
1000
0100
,
0010
0000
0100
0000
1000
0000
0010
1000
,
0010
0000
0100
0000
0001
1000
0100
0000
,
1001
0000
0100
0000
0010
0000
1000
0001
,
0100
0000
0010
0000
1000
0000
0001
1000
,
0100
0000
0010
0000
0001
0000
0100
0001
,
0010
0000
0100
0000
1000
0000
0010
1000
,
0001
0000
0010
0000
0100
0000
0010
0001
,
0100
0000
1000
0000
0100
0000
0010
1000
,
0100
0000
0010
0000
0001
0000
1000
0100
,
0001
0000
1000
0100
0001
0100
1000
0000
,
0102
1000
1000
0013
,
2000
0001
0010
3010
,
0200
0010
0010
1300
,
0020
0100
0001
0031
,
1010
0100
1010
0100
,
0011
0100
0011
0100
,
1010
0001
0011
1000
,
0110
0001
1100
0001
,
2001
0000
0000
0010
0010
0000
0001
3001
,
0000
0000
0MM0
0000
,
0000
0200
0000
0010
0010
0000
0001
0301
,
0000
0000
0MM0
0000
,
0000
0020
0000
1000
1000
0000
0100
0130
,
0000
0000
0MM0
0000
,
0000
0002
0000
1000
1000
0000
0010
0013
,
0000
0000
1000
0001
,
1000
0000
0000
0000
0001
0000
0001
1000
,
0001
0000
0100
0000
0010
0000
1000
0100
,
1000
0000
0001
0000
0010
0000
0001
0010
,
0001
0000
1000
0000
0010
0000
1000
0010
,
1000
0000
0001
0000
0100
0000
0001
0010
,
0001
0000
1000
0000
0100
0000
0010
0100
,
1000
0000
0001
0000
0100
0000
0010
0100
,
0001
0000
1000
0000
0100
0000
0010
0100
,
0001
0000
0100
0000
1000
0000
0001
0100
,
0101
0000
0010
0000
1000
0010
1000
0000
,
0101
0000
0010
0000
1000
0100
1000
0000
,
0110
0000
0001
0000
0100
0001
0100
0000
,
1001
0000
0010
0000
0100
0010
0100
0000
,
1001
0000
1100
0000
0010
0001
0100
0000
,
0110
0000
1010
0000
0001
0100
1000
0000
,
0110
0000
0101
0000
1000
0100
0001
0000
,
1100
0000
1001
0000
1000
0001
0100
0010
,
1000
0000
0001
0000
1000
0000
0001
1000
,
0001
0000
0100
0000
0010
0000
0100
0010
,
0100
0000
0010
0000
0100
0000
0010
0100
,
0010
0000
1000
0000
0001
0000
1000
0001
,
1000
0000
0100
0000
0010
0000
0001
0010
,
0100
0000
0010
0000
0001
0000
0100
0010
,
0001
0000
1000
0000
0010
0000
1000
0010
,
0100
0000
0010
0000
1000
0000
1000
0010
,
0100
0000
0001
0000
1000
0000
0010
0100
,
0001
0000
0010
0000
0100
0000
1000
0100
,
0010
0000
0001
0000
1000
0000
0010
0100
,
0001
0000
0010
0000
0100
0000
1000
0001
,
0100
0000
0010
0000
1000
0000
0100
0010
,
0001
0000
1000
0000
0100
0000
0010
0100
,
1000
0000
0001
0000
0100
0000
0010
0001
,
0100
0000
0010
1000
0200
0000
0300
0000
,
2002
0000
0000
0000
,
3003
0000
0000
0000
;

//---------------dance-single - C. Picardy----------------
#NOTES:
     dance-single:
     :
     Challenge:
     12:
     0.935327,1.035340,0.070995,0.134101,1.179301,830.000000,821.000000,9.000000,17.000000,14.000000,0.000000,0.935327,1.035340,0.070995,0.134101,1.179301,830.000000,821.000000,9.000000,17.000000,14.000000,0.000000:
0000
0000
0000
0000
,
0000
0000
0000
0000
,
0000
0000
0000
0000
,
0000
0000
0000
0000
,
2010
0000
0000
0004
0000
0000
0000
0000
,
0000
0000
0000
0000
0000
0000
0000
3003
,
1000
0100
0010
0001
0100
0010
0100
0001
1000
0100
0010
0100
1000
0001
0100
0010
,
1000
0000
0001
0000
0100
0000
0010
0000
0100
0000
0001
0000
0010
0000
0100
0000
1000
0000
0100
0000
0010
0000
0001
1000
0001
0000
0010
0000
0100
0000
1000
0001
,
1000
0000
0000
0000
0000
0000
0000
0000
0000
0000
0000
0000
0000
0000
0000
0000
0000
0000
0100
0000
0010
0000
0100
0000
0010
0000
0000
0000
0000
0000
0100
0000
0000
0010
0000
0000
0000
0000
0000
0010
0000
0000
0100
0000
0000
0000
0000
0000
,
1001
0000
0100
0000
0010
0000
1000
0010
1000
0010
1000
0010
1000
0000
0001
0100
,
0001
0000
1000
0100
1000
0000
0001
0010
0001
0010
0001
0010
0001
0000
1000
0000
,
0100
0010
0100
0010
0100
0000
1000
0100
1000
0100
1000
0100
1000
0000
0001
0100
,
0010
0000
0010
0100
0001
0000
1000
0001
1000
0001
1000
0001
1000
0000
0100
0000
,
0010
0001
0010
0001
0010
0000
0100
1000
0100
1000
0100
1000
0100
0000
0010
0100
,
1000
0000
0001
0100
0010
0000
0100
0001
0100
0001
0100
0001
0100
0000
0010
0000
,
1000
0010
1000
0010
1000
0000
0001
0010
0001
0010
0001
0010
0001
0000
1000
0000
,
0010
0100
0010
0100
0010
0000
1000
0100
1000
0100
1000
0100
1000
0000
0001
0000
,
1001
0000
1000
0000
0100
0000
0010
0001
0010
0100
1000
0100
0010
0000
0001
0000
,
1000
0100
0010
0100
1000
0000
0001
0010
0100
1000
0100
0010
0001
0000
1000
0000
,
0010
0100
0001
0100
0010
0000
1000
0010
0100
0001
0100
0010
1000
0000
0001
0000
,
0100
0010
1000
0010
0100
0000
0001
0010
0100
0010
0001
0010
0100
0000
1000
0000
,
0001
0010
0100
1000
0001
0000
0010
0100
1000
0001
0010
0100
1000
0000
0001
0000
,
0100
0010
0100
0001
1000
0000
0001
1000
0010
0100
0010
1000
0001
0000
0010
0000
,
0001
0010
0100
0010
0001
0100
0010
0100
0001
1000
0100
0010
0100
1000
0001
1000
,
0010
0000
0100
0000
0010
0000
1000
0000
0100
0000
0010
0000
0001
0000
0100
0000
0010
0000
0100
0000
0001
0000
1000
0001
1000
0000
0100
0000
0010
0000
0001
1000
,
0001
0000
1000
0100
1000
0100
2000
0000
0001
0000
300M
0000
0010
0000
0100
0000
,
0001
0000
0100
0001
0100
0001
0200
0000
0010
0000
03M0
0000
0001
0000
0100
0000
,
0010
0000
1000
0010
1000
0010
2000
0000
0010
0000
30M0
0000
0100
0000
0010
0000
,
0001
0000
0010
0001
0010
0001
0020
0000
0100
0000
0M30
0000
0001
0000
0010
0000
,
0100
0000
1000
0100
0010
0100
2000
0000
0010
0000
30M0
0000
0100
0000
1000
0000
,
0010
0000
1000
0001
0100
0010
2000
0000
0001
0000
300M
0000
0010
0000
0100
0000
,
0001
0000
0010
0100
1000
0001
0020
0000
0001
0000
003M
0000
0100
0000
1000
0000
,
0001
0000
0010
0100
1000
0001
0200
0000
0010
0000
03M0
0000
1000
0000
0001
0000
,
1002
1000
0000
0100
0100
0100
1000
1003
,
M00M
0000
0100
0000
0100
0000
0000
0000
0010
0100
0010
0100
0010
0100
0010
0000
,
0000
2000
0000
0001
0001
0001
0010
3010
,
M0M0
0000
0001
0000
0001
0000
0000
0000
1000
0100
1000
0100
1000
0100
1000
0000
,
0000
0200
0000
0001
0001
0001
1000
1300
,
MM00
0000
0010
0000
0010
0000
0000
0000
0100
0001
0100
0001
0100
0000
0001
0000
,
1000
0100
0010
0100
1000
0001
0100
0010
0100
0001
1000
0100
0010
0100
1000
0001
,
0100
0000
0010
0000
0100
0000
0001
0000
0010
0000
0100
0000
1000
0000
0100
0000
0010
0000
0100
0000
1000
0000
0001
0100
0001
0000
0010
0000
0100
0000
1000
0010
,
1000
0000
0000
0000
0000
0000
0000
0000
0000
0000
0000
0000
0000
0000
0000
0000
0000
0000
0010
0000
0100
0000
0010
0000
0100
0000
0000
0000
0000
0000
0100
0000
0000
0010
0000
0000
0000
0000
0000
0010
0000
0000
0100
0000
0000
0000
0000
0000
,
1001
0000
0100
0001
0100
0000
0010
1000
0010
1000
0010
1000
0010
0000
1000
0100
,
1000
0000
0001
0100
0001
0000
1000
0010
1000
0010
1000
0010
1000
0000
0010
0100
,
0010
0000
0100
0001
0100
0000
0001
0010
0001
0010
0001
0010
0001
0000
0100
0010
,
0100
0000
0001
1000
0001
0000
0010
0100
0010
0100
0010
0100
0010
0000
0100
1000
,
0001
0000
0100
0001
1000
0000
0010
1000
0010
1000
0001
0100
0001
0000
1000
0100
,
0010
0000
0100
1000
0001
0000
0010
0001
0010
0001
1000
0001
0100
0000
0010
1000
,
0001
0000
0010
0001
1000
0000
0010
1000
0001
0100
0010
1000
0001
0000
0010
0100
,
1000
0000
0001
0100
0010
0000
1000
0100
0010
0001
0010
0100
1000
0000
0001
0000
,
1001
0000
1000
0100
0010
0000
0001
0010
0100
1000
0100
0010
0001
0000
1000
0100
,
0010
0001
0010
0100
1000
0000
0001
0010
0100
0010
0100
1000
0001
0000
0010
0100
,
0010
0100
1000
0100
0010
0000
0001
0010
0100
0010
0001
0010
0100
0000
1000
0100
,
0010
0100
1000
0100
0010
0000
0100
1000
0100
0010
0001
0010
0100
0000
1000
0100
,
0010
0001
0100
0010
1000
0000
0001
0100
0010
0100
0010
1000
0001
0000
0100
0010
,
1000
0010
0100
0001
1000
0000
0001
0100
0010
1000
0010
0100
0001
0000
0100
0010
,
1000
0001
0100
0010
0100
0001
0010
0100
1000
0100
0010
0100
1000
0001
0010
0100
,
0010
0000
0001
0000
0100
0000
0010
0000
0100
0000
0001
0000
0010
0000
0100
0000
1000
0000
0100
0000
0010
0000
0001
0010
0001
0000
1000
0000
0100
0000
1000
0100
,
1000
0000
0100
0000
0010
0000
0001
0010
0001
0010
0001
0010
0001
0000
1000
0000
,
0100
0000
0010
0000
0001
0000
0100
0001
0100
0001
0100
0001
0100
0000
0010
0000
,
1000
0020
1000
1030
0001
0100
0010
1000
,
0001
0100
0001
0100
0001
0000
1000
0000
0010
1000
0010
1000
0010
0000
1000
0000
,
1001
0000
0001
0000
0100
0000
0010
0100
0010
0100
0010
0100
0010
0000
0100
0000
,
0001
0000
0010
0000
0100
0000
1000
0100
1000
0100
1000
0100
1000
0000
0100
0000
,
0010
0002
0010
0013
0100
1000
0001
0010
,
0100
0010
0100
0010
0100
0000
1000
0000
0001
1000
0001
1000
0001
0000
1000
0000
,
1001
0000
1000
0000
0010
0000
0100
0001
0010
0001
0100
0010
0100
0000
0001
0000
,
1000
0000
0100
0000
0010
0000
0100
1000
0100
0010
0100
1000
0001
0000
0100
0000
,
0010
2000
0001
3001
0010
0100
0010
0001
,
0010
0100
1000
0100
0010
0000
0001
0010
0100
1000
0100
0010
0001
0000
0100
0000
,
0101
0000
0010
0000
1000
0000
0001
0100
0010
0100
0001
0100
0010
0000
1000
0000
,
0001
0000
0010
0000
0100
0000
1000
0100
0010
0001
0010
0100
1000
0000
1000
0000
,
0001
1000
0100
0010
0100
1000
0001
0100
0010
1000
0100
0010
0001
0100
0010
0100
,
0001
0000
0010
0000
0100
0000
0010
0000
0001
0000
0100
0000
0010
0000
0100
0000
0001
0000
1000
0000
0010
0000
0100
0001
0100
0000
0010
0000
1000
0000
0010
2000
,
0020
0000
0000
0000
,
3030
0000
0000
0000
;

//---------------dance-single - C. Picardy----------------
#NOTES:
     dance-single:
     :
     Hard:
     8:
     0.531897,0.532460,0.094660,0.197208,0.181431,472.000000,460.000000,12.000000,25.000000,0.000000,0.000000,0.531897,0.532460,0.094660,0.197208,0.181431,472.000000,460.000000,12.000000,25.000000,0.000000,0.000000:
0000
0000
0000
0000
,
0000
0000
0000
0000
,
0000
0000
0000
0000
,
0000
0000
0000
0000
,
1001
0000
0000
0200
0000
0000
0000
0000
,
0310
0000
1000
0000
,
0001
0010
0100
0010
,
0001
0010
0001
0010
0100
1000
0100
1000
,
0001
0000
0000
0000
0000
0000
1000
0000
0001
0000
0100
0010
0000
0010
1000
0000
,
1010
0000
0000
0000
0001
0000
0000
0000
0100
0001
0100
0000
0010
0000
0010
0000
,
1000
0000
0000
0000
0100
0000
0000
0000
1000
0010
1000
0000
0001
0000
0001
0000
,
0010
0000
0000
0000
0100
0000
0000
0000
1000
0100
1000
0000
0100
0000
0010
0000
,
0001
0000
0000
0000
0001
0000
0000
0000
0010
0100
0010
0000
0001
0000
0001
0000
,
0100
0000
0000
0000
0010
0000
0000
0000
1000
0001
0100
0000
0001
0000
0001
0000
,
1000
0000
0000
0000
0100
0000
0000
0000
0010
0100
1000
0000
0010
0000
0010
0000
,
0100
0000
0000
0000
0001
0000
0000
0000
0010
0001
1000
0000
0001
0000
0001
0000
,
0100
0000
0000
0000
0010
0000
0000
0000
1000
0001
0100
0000
0001
0000
1000
0000
,
1001
0000
0000
0000
0100
0000
0000
1000
0100
0000
0010
0000
0001
0000
0010
0000
,
0100
0000
0000
0000
0100
0000
0000
0010
0001
0000
0100
0000
0010
0000
0100
0000
,
0001
0000
0000
0000
0001
0000
0000
1000
0010
0000
1000
0000
0100
0000
1000
0000
,
0010
0000
0000
0000
0010
0000
0000
0100
0010
0000
1000
0000
0001
0000
0100
0000
,
0010
0000
0000
0010
1000
0000
0000
1000
0001
0000
1000
0000
0100
0000
0010
0000
,
0001
0000
0000
0001
1000
0000
0000
1000
0100
0000
0010
0000
0100
0000
1000
0000
,
0001
0000
0000
0001
0100
0000
0000
0100
0010
0000
1000
0000
0001
0000
0100
0000
,
0010
1000
0001
0100
0010
1000
0100
0010
,
1001
0000
0000
0000
1000
0100
1000
0000
0010
0000
0000
0000
0100
0000
0000
0000
,
0001
0000
0000
0000
0010
0001
0010
0000
0001
0000
0000
0000
1000
0000
0000
0000
,
0010
0000
0000
0000
0100
0010
0100
0000
0010
0000
0000
0000
1000
0000
0000
0000
,
0001
0000
0000
0000
1000
0010
1000
0000
0010
0000
0000
0000
0100
0000
0000
0000
,
0001
0000
0000
0000
1000
0100
1000
0000
0010
0000
0000
0000
0100
0000
0000
0000
,
0001
0000
0000
0000
0010
0001
0010
0000
0100
0000
0000
0000
1000
0000
0000
0000
,
0001
0000
0000
0000
0100
0001
0100
0000
0010
0000
0000
0000
1000
0000
0000
0000
,
0010
0000
0000
0000
1000
0001
1000
0000
0010
0000
0000
0000
0110
0000
0000
0000
,
2010
0000
0000
3001
0001
1000
0100
0020
,
0000
0001
0001
0000
0000
0100
0130
0000
,
0000
0002
0000
0013
0100
1000
0010
0200
,
0000
0001
0001
0000
0000
1000
1300
0000
,
0000
0020
0000
1030
0100
0001
0100
2000
,
0000
0010
0010
0000
0000
0001
3001
0000
,
1000
0001
1000
0001
0100
0010
0100
0010
,
1000
0100
0010
0001
1000
0100
0010
0001
,
1000
0000
0000
0000
0000
0000
0001
0000
1000
0000
0100
1000
0000
1000
0001
0000
,
1001
0000
0100
0010
1000
0100
0010
0001
,
0000
2000
0000
3001
0100
1000
0100
0001
,
0000
0200
0000
0310
1000
0001
0100
0010
,
0000
2000
0000
3100
0010
0001
0010
0100
,
0000
0020
0000
0031
0100
1000
0100
0001
,
0000
2000
0000
3001
0010
1000
0010
0001
,
0000
0200
0000
0301
0100
1000
0100
0001
,
0000
0020
0000
0031
0010
1000
0010
0001
,
1000
0001
0100
0001
1000
0001
0100
0001
,
1000
0100
0010
0100
1000
0100
0010
0100
,
1000
0001
0010
0001
1000
0001
0010
0100
,
0010
0001
0010
0100
0010
0001
0010
0100
,
1000
0100
0001
0100
1000
0100
0001
0100
,
1000
0010
0001
0010
1000
0010
0001
0010
,
1000
0001
0100
0010
0001
0010
0100
0010
,
0001
0010
0100
0001
0010
0100
1000
0001
,
1001
0000
0000
0000
0100
0000
0000
0000
1000
0010
1000
0000
0010
0000
0000
0000
,
0100
0000
0000
0000
0001
0000
0000
0000
0010
0001
0010
0000
0001
0000
0000
0000
,
1000
0200
0000
1300
0100
0010
0001
0200
,
0000
0000
0010
0000
0310
0000
0000
0000
1000
0010
1000
0010
1000
0000
0000
0000
,
0101
0000
0000
0000
0010
0000
0000
0000
1000
0000
0000
0000
0001
0010
0001
0000
,
0100
0000
0000
0000
0010
0000
0000
0000
1000
0010
1000
0000
0100
0000
0000
0000
,
0010
0002
0000
0103
0001
0010
0100
2000
,
0000
0000
0010
0000
3010
0000
0000
0000
0100
0010
0100
0010
0100
0000
0000
0000
,
1001
0000
0000
0000
0010
0000
0000
0000
0100
0010
0100
0000
0001
0000
0010
0000
,
0100
0000
0000
0000
0100
0000
0000
0000
1000
0100
1000
0000
0100
0000
0010
0000
,
0001
2000
0000
3010
0100
0001
0010
0200
,
0000
0000
1000
0000
1300
0000
0000
0000
0001
0010
0001
0010
0001
0000
0000
0000
,
0110
0000
0000
0000
0001
0000
0000
0000
1000
0100
1000
0000
0010
0000
0010
0000
,
0100
0000
0000
0000
0001
0000
0000
0000
1000
0001
1000
0000
0010
0000
0010
0000
,
0100
0002
0000
1003
0100
0010
0001
1000
,
0000
0000
0000
0000
0010
0100
0010
0200
0020
0000
0000
0000
0330
0000
0000
0000
,
2002
0000
0000
0000
,
3003
0000
0000
0000
;
