#TITLE:The Other Side of Me;
#SUBTITLE:;
#ARTIST:Culture Beat;
#TITLETRANSLIT:;
#SUBTITLETRANSLIT:;
#ARTISTTRANSLIT:;
#GENRE:;
#CREDIT:;
#BANNER:theothersideofmebn.png;
#BACKGROUND:theothersideofmebg.png;
#LYRICSPATH:;
#CDTITLE:;
#MUSIC:theothersideofme.ogg;
#OFFSET:0.002065;
#SAMPLESTART:66.518059;
#SAMPLELENGTH:12.000000;
#SELECTABLE:YES;
#BPMS:0.000000=129.860001
;
#STOPS:
;
#BGCHANGES:16.000=purplebluerotation.mp4=1.000=1=0=1=SongBgWithMovieViz==CrossFade==,
48.000=purplebluerotation.mp4=1.000=1=0=1===CrossFade==,
80.000=bluereflection.mp4=1.000=1=1=1=StretchRewind==CrossFade==,
112.000=redvelvetrug.mp4=1.000=1=1=1=StretchRewind==CrossFade==,
144.000=flash=1.800=0=0=1====#0000FF=,
144.250=purplebluerotation.mp4=1.000=0=1=1=StretchRewind====,
176.000=bluereflection.mp4=1.000=1=0=1===CrossFade==,
208.000=flash=1.800=0=0=1====#FF0000=,
208.250=redvelvetrug.mp4=1.000=0=0=1=====,
240.000=purplebluerotation.mp4=1.000=1=0=1=SongBgWithMovieViz==CrossFade==,
256.000=theothersideofmebg.png=1.000=1=0=1===CrossFade==,
99999=-nosongbg-=1.000=0=0=0 // don't automatically add -songbackground-
;
#KEYSOUNDS:;
#ATTACKS:;

//---------------dance-single - C. Picardy----------------
#NOTES:
     dance-single:
     :
     Beginner:
     1:
     0.086473,0.129562,0.049752,0.000000,0.000000,73.000000,67.000000,6.000000,0.000000,0.000000,0.000000,0.086473,0.129562,0.049752,0.000000,0.000000,73.000000,67.000000,6.000000,0.000000,0.000000,0.000000:
0000
0000
0000
0000
,
0000
0000
0000
0000
,
0000
0000
0000
0000
,
0000
0000
0000
0000
,
1000
0000
0000
0000
,
0001
0000
0000
0000
,
1000
0000
0000
0000
,
0001
0000
0000
0000
,
0100
0000
0000
0000
,
0010
0000
0000
0000
,
0100
0000
0000
0000
,
0010
0000
0000
0000
,
1001
0000
1000
0000
,
1000
0000
0000
0000
,
0001
0000
0001
0000
,
0001
0000
0000
0000
,
0100
0000
0000
0000
,
0100
0000
0000
0000
,
0010
0000
0000
0000
,
0010
0000
0000
0000
,
1001
0000
0000
0000
,
0001
0000
0000
0000
,
0100
0000
0100
0000
,
0000
0000
0000
0000
,
0010
0000
0000
0000
,
0100
0000
0000
0000
,
1000
0000
1000
0000
,
0000
0000
0000
0000
,
1001
0000
0000
0000
,
0100
0000
0000
0000
,
0010
0000
0000
0000
,
1000
0000
0000
0000
,
0001
0000
0000
0000
,
0100
0000
0000
0000
,
0010
0000
0000
0000
,
1000
0000
0000
0000
,
1001
0000
0000
0000
,
0001
0000
0000
0000
,
1000
0000
1000
0000
,
1000
0000
0000
0000
,
0100
0000
0000
0000
,
0010
0000
0000
0000
,
0001
0000
0001
0000
,
0001
0000
0000
0000
,
1001
0000
0000
0000
,
0100
0000
0000
0000
,
0010
0000
0000
0000
,
1000
0000
0000
0000
,
0001
0000
0000
0000
,
0010
0000
0000
0000
,
0100
0000
0000
0000
,
1000
0000
0000
0000
,
0001
0000
0001
0000
,
0001
0000
0000
0000
,
1000
0000
1000
0000
,
1000
0000
0000
0000
,
0100
0000
0100
0000
,
0100
0000
0000
0000
,
0010
0000
0010
0000
,
0010
0000
0000
0000
,
1001
0000
0000
0000
,
0000
0000
0000
0000
,
0010
0000
0010
0000
;

//---------------dance-single - C. Picardy----------------
#NOTES:
     dance-single:
     :
     Easy:
     3:
     0.223882,0.265342,0.132671,0.074627,0.000000,189.000000,173.000000,16.000000,9.000000,0.000000,0.000000,0.223882,0.265342,0.132671,0.074627,0.000000,189.000000,173.000000,16.000000,9.000000,0.000000,0.000000:
0000
0000
0000
0000
,
0000
0000
0000
0000
,
0000
0000
0000
0000
,
0000
0000
0000
0000
,
1000
0000
1000
0000
,
1000
0000
1000
0000
,
0001
0000
0001
0000
,
0001
0000
0001
0000
,
0100
0000
0010
0000
,
0100
0000
0010
0000
,
1000
0000
0100
0000
,
0010
0000
0001
0000
,
0100
0110
0000
1000
,
0100
1001
0000
0010
,
0100
1001
0000
1000
,
0001
0100
0100
0100
,
0010
0110
0000
1001
,
0000
1100
0000
0101
,
0000
1001
0000
0011
,
0000
1010
0000
0100
,
1001
0001
0001
0000
,
1000
1000
1000
0000
,
0001
0010
0100
0000
,
1000
0000
0001
0000
,
0010
0010
0010
0000
,
0100
0100
0100
0000
,
1000
0100
0010
0000
,
0001
0000
0100
0010
,
0120
0000
0100
0100
,
0130
0000
0001
0000
,
1000
0001
1000
1000
,
1000
0000
0010
0000
,
0100
0010
0100
0100
,
0010
0000
1000
0000
,
0002
0000
2003
0000
,
3001
0010
0010
0010
,
1001
0001
0001
0000
,
1000
1000
1000
0000
,
0100
0010
0001
0000
,
1000
0000
0001
0000
,
0100
0010
1000
0000
,
0100
0010
0001
0000
,
1000
0001
0100
0000
,
0110
0000
1001
0000
,
0001
0001
0100
0000
,
0010
0010
1000
0000
,
0100
0100
0010
0000
,
0001
0001
1000
0000
,
0100
0010
0100
0000
,
1000
0001
1000
0000
,
0010
0100
0001
0000
,
0010
0100
1000
0001
,
0110
0100
0010
0100
,
0001
0010
0001
0010
,
0100
1000
0100
1000
,
0001
0100
0001
0100
,
0010
1000
0100
0010
,
0001
0100
0010
1000
,
0001
0010
0100
1000
,
0010
0100
0001
0010
,
0200
0000
2300
0000
,
3200
0000
0320
0000
,
0032
0000
0203
0000
,
0310
0000
0100
0001
,
1000
0000
0000
0000
;

//---------------dance-single - C. Picardy----------------
#NOTES:
     dance-single:
     :
     Medium:
     6:
     0.371953,0.371479,0.232174,0.091211,0.029022,314.000000,286.000000,28.000000,11.000000,0.000000,0.000000,0.371953,0.371479,0.232174,0.091211,0.029022,314.000000,286.000000,28.000000,11.000000,0.000000,0.000000:
0000
0000
0000
0000
,
0000
0000
0000
0000
,
0000
0000
0000
0000
,
0000
0000
0000
0000
,
0001
0100
0001
1000
,
0100
1000
0001
1000
,
0100
0010
0100
1000
,
0001
0000
0100
0000
0010
0000
0100
0001
,
2000
0010
0100
0100
,
3002
1000
0010
0013
,
0200
0010
0001
0001
,
0310
0000
1000
0000
0000
1000
0000
0000
1000
0000
0000
0000
0001
0000
0010
0000
,
0100
1100
0001
0101
,
1000
1010
0001
0011
,
0100
0110
1000
1001
,
0100
0000
0000
0000
1100
0000
0000
0100
0000
0000
0100
0000
0000
0000
0010
0000
,
0100
0011
1000
0101
,
0010
1100
0010
0101
,
1000
0110
0010
1001
,
0100
0000
0010
0000
0000
0010
0000
0000
0010
0000
0000
0000
0100
0000
0010
0000
,
0100
0000
0010
0100
0010
0000
1000
0000
,
0001
0000
1000
0100
1000
0000
0010
0000
,
0100
0000
0001
0010
0100
0000
1100
0000
,
0001
0101
1000
1010
,
0001
1000
0100
0000
0010
0000
0100
0000
,
1000
0000
0001
0100
0010
0000
1000
0000
,
0001
0100
0010
0000
1001
0000
0100
0000
,
0001
0000
0010
0000
0000
0010
0000
0000
0010
0000
0000
0000
0100
0000
1000
0000
,
0020
0000
0100
0000
1030
0000
0001
0001
,
0200
0000
0010
0000
0001
0000
0310
1000
,
0002
0000
0010
0000
1000
1000
1003
0000
,
0100
0000
0010
0000
0100
0000
0010
0100
,
2000
0010
0100
0010
,
0001
3001
0000
0000
0100
0000
0010
0100
,
0020
0000
1000
0000
0100
0100
0130
0000
,
0001
0000
1000
0000
0000
1000
0000
0000
0001
0000
0000
0001
0000
0000
1000
0000
,
0100
0000
1000
0100
1000
0000
0010
0000
,
0100
0000
0001
0010
0001
0000
0100
0000
,
0010
0010
0010
0000
1010
0000
0100
0000
,
0011
0000
1000
0000
0110
0000
1000
0100
,
0010
0000
0010
0100
1000
0000
0001
0000
,
0100
0000
0010
0100
0001
0000
1000
0000
,
0100
0100
0100
0000
0011
0000
0100
0000
,
0010
0000
0100
0000
0000
0100
0000
0000
0100
0000
0000
0000
0001
0000
0000
0000
,
0010
0100
0000
1000
0000
0001
0000
1000
,
0000
0001
0000
0100
0000
0001
0000
0100
,
0000
0010
0000
1000
0000
0100
0000
0010
,
0000
0001
0000
0010
0000
0100
0000
1000
,
0001
0100
0000
0110
0000
0001
0000
0101
,
0000
1000
0000
1100
0000
0100
0000
0110
,
0000
0001
0000
1100
0000
0010
0000
0101
,
0000
0010
0000
1000
0000
0001
0000
0100
,
0010
1000
0100
0000
0100
1000
0010
0000
,
0010
0100
0001
0000
0001
0100
0010
0000
,
0010
1000
0100
0000
0100
0010
0001
0000
,
0001
0010
0100
0000
0100
1000
0010
0000
,
1000
0100
0010
0000
0001
0100
0010
0000
,
1000
0010
0100
0000
0001
0010
0100
0000
,
0010
0001
1000
0000
0010
1000
0001
0000
,
1000
0001
0100
0000
0001
1000
0100
0000
,
0020
0100
0130
0000
,
2000
0010
3010
0000
,
0200
0001
0310
0000
,
1000
0001
0100
0010
,
1001
0000
0000
0000
;

//---------------dance-single - C. Picardy----------------
#NOTES:
     dance-single:
     :
     Hard:
     8:
     0.452503,0.477616,0.124379,0.157547,0.174131,382.000000,367.000000,15.000000,19.000000,0.000000,0.000000,0.452503,0.477616,0.124379,0.157547,0.174131,382.000000,367.000000,15.000000,19.000000,0.000000,0.000000:
// measure 0
0000
0000
0000
0000
,  // measure 1
0000
0000
0000
0000
,  // measure 2
0000
0000
0000
0000
,  // measure 3
0000
0000
0000
0000
,  // measure 4
1000
0100
1000
0010
,  // measure 5
0100
0010
0100
0001
,  // measure 6
0010
0100
0010
0001
,  // measure 7
1000
0000
0000
0000
0010
0000
0000
0000
0100
0000
0000
0000
0001
0000
0100
0010
,  // measure 8
0100
0000
0000
0000
0001
0000
0000
0000
1000
0100
0000
0000
0010
0000
0000
0000
,  // measure 9
0001
0000
0000
0000
0100
0000
0000
0000
0010
1000
0000
0000
0001
0000
0000
0000
,  // measure 10
0100
0000
0000
0000
0001
0000
0000
0000
0010
0001
0000
0000
0100
0000
0000
0000
,  // measure 11
0010
0000
1000
0000
0000
0001
0000
0000
1000
0000
0000
0100
0000
0000
1000
0001
,  // measure 12
0100
0000
0000
0000
0101
0000
0000
0000
0010
1000
0000
0000
1010
0000
0000
0000
,  // measure 13
0100
0000
0000
0000
0011
0000
0000
0000
1000
0100
0000
0000
1100
0000
0000
0000
,  // measure 14
0001
0000
0000
0000
0101
0000
0000
0000
1000
0010
0000
0000
1001
0000
0000
0000
,  // measure 15
0100
0000
0000
0000
1001
0000
0000
0100
0000
0000
0010
0000
0100
0000
0010
0100
,  // measure 16
0010
0000
0000
0000
1001
0000
0000
0000
1000
0100
0000
0000
0011
0000
0000
0000
,  // measure 17
0100
0000
0000
0000
1010
0000
0000
0000
0001
0010
0000
0000
0110
0000
0000
0000
,  // measure 18
1000
0000
0000
0000
0101
0000
0000
0000
0010
0100
0000
0000
1010
0000
0000
0000
,  // measure 19
0001
0000
1000
0000
0000
0001
0000
0000
1000
0000
0000
0001
0000
0000
1000
0100
,  // measure 20
1000
0100
0010
0100
2000
0000
3001
0200
,  // measure 21
0000
0000
0010
0000
0310
0000
1000
0000
0001
0000
0000
0000
0010
0000
0000
0100
,  // measure 22
0010
0001
0010
0100
1000
0000
1000
0100
,  // measure 23
0010
0000
0000
0000
0100
0000
0000
1000
0000
0000
0001
0000
0100
0000
0001
0100
,  // measure 24
0001
0010
0100
0010
0002
0000
1003
2000
,  // measure 25
0000
0000
0100
0000
3100
0000
0010
0000
0001
0000
0000
0000
0100
0000
0000
0010
,  // measure 26
0100
0001
0100
0010
1000
0000
0100
0010
,  // measure 27
0100
0000
1000
0000
0000
0001
0000
0000
0100
0000
0000
0001
0000
0000
0010
0100
,  // measure 28
2000
0000
3001
0000
0200
0000
0010
0320
,  // measure 29
0000
1000
1030
0000
0100
0000
0010
0001
,  // measure 30
0200
0000
0010
0000
0001
0301
0000
1000
,  // measure 31
0100
0000
0000
0000
1000
0000
0000
0001
0000
0000
1000
0000
0100
0000
0010
0100
,  // measure 32
0010
0011
0100
1010
,  // measure 33
0100
0100
0010
0000
0001
0000
1000
0100
,  // measure 34
0020
0000
0100
0000
0031
0001
0100
0000
,  // measure 35
0010
0000
0100
0000
0000
0001
0000
0000
1000
0000
0000
0001
0000
0000
1000
0001
,  // measure 36
1000
0010
0100
0010
1000
0000
0100
0020
,  // measure 37
0000
0000
0001
0000
0031
0000
0100
0000
0010
0000
0000
0000
0100
0000
0000
0001
,  // measure 38
0010
0100
1000
0100
0010
0000
0001
0100
,  // measure 39
0010
0000
0000
0000
0100
0000
0000
0001
0000
0000
0010
0000
0100
0000
0010
0100
,  // measure 40
0010
0001
0100
0001
0010
0000
0100
2000
,  // measure 41
0000
0000
0010
0000
3010
0000
1000
0000
0100
0000
0000
0000
0010
0000
0000
0100
,  // measure 42
1000
0001
1000
0100
0001
0000
0001
0100
,  // measure 43
1000
0000
0001
0000
0000
0100
0000
0000
1000
0000
0000
0100
0000
0000
0001
0100
,  // measure 44
0010
0200
0000
0010
0000
0001
0000
0310
,  // measure 45
0000
2000
0000
0001
0000
0010
0000
3100
,  // measure 46
0000
0020
0000
1000
0000
0001
0000
0130
,  // measure 47
0000
0000
0002
0000
0000
0000
0010
0000
0000
0000
0100
0000
0103
0000
0001
0010
,  // measure 48
0001
0010
1000
0000
1000
0010
0001
0000
,  // measure 49
0001
0100
1000
0000
1000
0100
0001
0000
,  // measure 50
1000
0100
0001
0000
0001
0100
1000
0000
,  // measure 51
1000
0000
0010
0000
0000
0001
0000
0000
0010
0000
0000
1000
0000
0000
0001
0010
,  // measure 52
0100
0010
0001
0010
0100
0010
0001
0010
,  // measure 53
0100
1000
0100
0010
0100
1000
0100
0010
,  // measure 54
0001
0100
0010
0100
0001
0100
0010
0100
,  // measure 55
0010
1000
0010
0100
0010
1000
0010
0100
,  // measure 56
0001
0100
1000
0100
0001
0100
1000
0100
,  // measure 57
0001
0010
1000
0010
0001
0010
1000
0010
,  // measure 58
0100
0010
0001
0010
0100
1000
0100
0010
,  // measure 59
0001
0000
0100
0000
0010
0000
1000
0000
0010
0000
0100
0000
0001
0000
0100
0010
,  // measure 60
1000
0100
0010
0100
2000
0000
0000
3002
,  // measure 61
0000
0100
0103
0010
0100
0000
0000
0000
,  // measure 62
0001
0100
0010
0100
0002
0000
1003
0100
,  // measure 63
0020
0031
0100
0010
,  // measure 64
1000
0000
0000
0000
;

//---------------dance-single - C. Picardy----------------
#NOTES:
     dance-single:
     :
     Challenge:
     10:
     0.706000,0.882470,0.149255,0.315094,0.767005,596.000000,578.000000,18.000000,38.000000,4.000000,14.000000,0.706000,0.882470,0.149255,0.315094,0.767005,596.000000,578.000000,18.000000,38.000000,4.000000,14.000000:
0000
0000
0000
0000
,
0000
0000
0000
0000
,
0000
0000
0000
0000
,
0000
0000
0000
0000
,
0001
0100
0000
0100
0010
0000
1000
0000
0001
0010
0000
0010
0100
0000
1000
0000
,
0010
0100
0000
0100
0001
0000
1000
0000
0100
0010
0000
0010
0001
0000
1000
0000
,
0001
0100
0000
0100
1000
0000
0100
0000
0001
0010
0000
0010
1000
0000
0010
0000
,
0001
1000
0000
1000
0100
0000
0001
0000
0100
0010
0000
0010
0001
0000
0010
0100
,
1000
0010
0000
0100
0010
0000
1000
0000
0001
0100
0000
0010
1000
0000
0100
0000
,
0010
0100
0000
1000
0010
0000
0100
0000
0001
0010
0000
0100
0010
0000
0001
0000
,
0100
1000
0000
0100
0010
0000
1000
0000
0100
0001
0000
0100
1000
0000
0010
0000
,
0100
0010
0100
0000
0001
1000
0000
0010
0100
0000
0001
1000
0000
0001
0010
0100
,
1000
0000
0001
0000
0101
0000
1000
0010
1000
0000
0100
0000
0110
0000
0010
0001
,
0010
0000
0100
0000
1100
0000
1000
0001
1000
0000
0001
0000
0011
0000
0100
0010
,
0100
0000
0010
0000
1010
0000
0001
0100
0001
0000
0010
0000
0110
0000
0100
1000
,
0100
0000
1000
0000
1001
0000
0001
0100
0000
0000
1MM1
0000
1MM1
0000
0100
0001
,
1000
0000
0100
0000
1001
0000
0010
0001
1000
0000
0010
0000
1001
0000
0100
0001
,
1000
0000
0100
0000
0011
0000
1000
0010
0100
0000
0001
0000
0011
0000
1000
0010
,
0100
0000
0001
0000
1010
0000
0001
1000
0100
0000
1000
0000
1010
0000
0100
0001
,
1000
0000
0100
0000
0010
0001
0000
0100
0010
0000
1000
0001
0000
1000
0010
0100
,
0001
0000
1000
0000
0100
0000
0010
0001
0010
0000
0100
0000
1000
0000
0010
1000
,
0010
0000
0100
0000
0001
0000
1000
0010
1000
0000
0100
0000
0010
0000
0001
0010
,
0001
0000
1000
0000
0100
0000
0010
0001
0010
0000
0100
0000
1000
0000
0001
0100
,
0001
0000
1000
0000
0100
0000
0100
1000
0000
0001
0100
0000
0001
0000
1000
0100
,
0010
0000
0100
0000
1000
0000
0001
0100
0010
0000
1000
0000
0100
0000
0010
0001
,
0100
0000
0010
0000
1000
0000
0001
0100
0010
0000
1000
0000
0100
0000
0010
0100
,
1000
0000
0001
0000
0100
0000
0010
0100
0001
0000
0010
0000
0100
0000
1000
0001
,
0100
0000
0010
0000
0100
0010
0000
1000
0001
0000
0010
0100
0000
1000
0010
0100
,
0002
0000
0000
0000
0200
0000
0000
0003
2000
0000
0300
0000
0002
3000
0020
0000
,
0000
0003
2000
0000
0000
0000
0030
0000
0200
0000
3000
0000
0001
0300
0200
0000
,
0020
0000
0000
0300
2000
0000
0030
0000
0002
3000
0200
0000
0000
0003
2000
0000
,
0000
0000
0000
3300
0001
0000
0100
0010
0000
0000
1000
0000
0001
0000
0010
0100
,
2000
0000
0000
0000
0020
0000
0000
3000
0002
0000
0000
0030
2000
0000
0003
0000
,
3200
0000
0020
0000
0000
0000
0000
0300
0002
0000
0000
0030
0013
0000
1000
0000
,
0200
0000
0000
0000
0002
0000
0000
0300
1003
0000
0020
0000
0000
0000
0001
0000
,
0000
0000
0100
0000
0000
1000
0000
0000
0031
0000
0100
0010
0000
1000
0001
0100
,
0001
0000
1000
0000
0100
0000
0001
0100
0001
0000
0100
0000
1000
0000
0010
0001
,
0010
0000
1000
0000
0001
0000
0100
1000
0100
0000
0001
0000
0010
0000
1000
0010
,
1000
0000
0010
0000
0100
0000
0001
0100
0001
0000
0100
0000
1000
0000
0001
0100
,
0001
0000
0100
0000
1000
0000
0100
0010
0100
0000
1000
0000
0100
0000
0001
0010
,
0100
0000
0010
0000
0001
0000
1000
0100
0001
0000
0100
0000
1000
0000
0001
0100
,
1000
0000
0100
0000
0001
0000
1000
0010
0001
0000
0010
0000
1000
0000
0100
0001
,
1000
0000
0010
0000
0001
0000
0100
1000
0001
0000
0010
0000
1000
0000
0001
0100
,
1000
0000
0001
0000
0010
1000
0000
0100
0001
0000
0100
1000
0000
0001
0100
0010
,
1000
0200
0000
2000
0000
0001
0000
0010
,
0000
3300
0200
0000
0000
0000
0020
0000
0000
0000
0001
0000
0000
0000
0001
0000
,
0000
0330
0002
0000
0000
0000
0200
0000
0000
0000
1000
0000
0000
0000
0010
0000
,
0000
0303
0200
0000
0000
0000
0020
0000
0000
0000
1000
0000
0000
0330
0010
1000
,
0100
2000
0000
0002
0000
0010
0000
0010
,
0000
3003
0002
0000
0000
0000
0200
0000
0000
0000
0010
0000
0000
0000
1010
0000
,
0000
0303
2000
0000
0000
0000
0210
0000
0000
0000
0001
0000
0000
0000
0011
0000
,
0000
3300
0100
0000
0010
0100
0000
1000
0010
0000
0100
0001
0000
0010
0100
0010
,
0001
0010
0001
0010
0100
1000
0100
1000
0001
0100
0001
0100
0010
1000
0010
1000
,
0001
0010
0100
1000
0001
0010
0100
1000
0001
0010
0100
1000
0001
0010
0100
1000
,
0010
1000
0010
1000
0100
1000
0100
1000
0100
0010
0100
0010
0001
1000
0001
1000
,
0001
0100
0010
1000
0001
0100
0010
1000
0001
0100
0010
1000
0001
0100
0010
1000
,
0100
0010
0100
0010
0001
0100
0001
0100
0010
1000
0010
1000
0100
0010
0100
0010
,
0001
1000
0100
0010
0001
1000
0100
0010
0001
1000
0100
0010
0001
1000
0100
0010
,
0001
0100
0001
0100
1000
0100
1000
0100
0001
0010
0001
0010
0100
1000
0100
1000
,
0010
0100
0001
1000
0010
0100
0001
1000
0010
0100
0001
1000
0010
0100
0001
1000
,
0100
0010
0000
0100
0010
0000
0001
0000
1000
0010
0000
1000
0010
0000
0100
0000
,
0001
0010
0000
0001
0100
0000
0010
0000
1000
0100
0000
0010
0100
0000
1000
0000
,
0001
0100
0000
0100
0010
0000
1000
0000
0100
0010
0000
0010
0100
0000
1000
0000
,
0010
0100
0000
0100
0001
0000
0010
0000
0100
1000
0000
1000
0001
0000
0100
0000
,
0020
0000
0030
0000
;
