#TITLE:The Last Sin;
#SUBTITLE:;
#ARTIST:Sanxion7;
#TITLETRANSLIT:;
#SUBTITLETRANSLIT:;
#ARTISTTRANSLIT:;
#GENRE:;
#CREDIT:;
#BANNER:thelastsinbn.png;
#BACKGROUND:thelastsinbg.png;
#LYRICSPATH:;
#CDTITLE:;
#MUSIC:thelastsin.ogg;
#OFFSET:-0.205439;
#SAMPLESTART:66.410103;
#SAMPLELENGTH:13.999998;
#SELECTABLE:YES;
#BPMS:0.000000=145.000000
;
#STOPS:
;
#BGCHANGES:32.000=redsmoke.mp4=1.000=1=0=0=StretchNoLoop==CrossFade==,
64.000=flash=1.600=0=0=1=====,
64.250=redsmoke.mp4=1.000=0=0=1=====,
96.000=flash=1.600=0=0=1=====,
96.250=redsmoke.mp4=1.000=0=0=1=====,
128.000=redsmoke.mp4=1.000=1=0=1=SongBgWithMovieViz==CrossFade==,
160.000=redsmoke.mp4=1.000=0=0=1===CrossFade_Fastest==,
192.000=flash=1.600=0=0=1=====,
192.250=redsmoke.mp4=1.000=0=0=1=====,
256.000=flash=1.600=0=0=1=====,
256.250=redsmoke.mp4=1.000=0=0=1=SongBgWithMovieViz====,
288.000=flash=1.000=0=0=1=====,
288.250=thelastsinbg.png=1.000=0=0=1=====,
99999=-nosongbg-=1.000=0=0=0 // don't automatically add -songbackground-
;
#KEYSOUNDS:;
#ATTACKS:;

//---------------dance-single - C. Picardy----------------
#NOTES:
     dance-single:
     :
     Beginner:
     1:
     0.083528,0.177879,0.065881,0.000000,0.000000,71.000000,63.000000,8.000000,0.000000,0.000000,0.000000,0.083528,0.177879,0.065881,0.000000,0.000000,71.000000,63.000000,8.000000,0.000000,0.000000,0.000000:
0000
0000
0000
0000
,
0000
0000
0000
0000
,
0000
0000
0000
0000
,
0000
0000
0000
0000
,
0000
0000
0000
0000
,
0000
0000
0000
0000
,
0000
0000
0000
0000
,
0000
0000
0000
0000
,
1001
0000
0000
0000
,
0000
0000
0000
0000
,
0010
0000
0000
0000
,
0000
0000
0000
0000
,
0100
0000
0000
0000
,
0000
0000
0000
0000
,
0001
0000
0000
0000
,
0000
0000
0000
0000
,
1000
0000
0000
0000
,
1000
0000
0000
0000
,
0001
0000
0000
0000
,
0001
0000
0000
0000
,
0100
0000
0000
0000
,
0100
0000
0000
0000
,
0010
0000
0000
0000
,
0010
0000
0000
0000
,
1000
0000
1000
0000
,
0000
0000
0000
0000
,
0001
0000
0001
0000
,
0000
0000
0000
0000
,
0100
0000
0100
0000
,
0000
0000
0000
0000
,
0010
0000
0010
0000
,
0000
0000
0000
0000
,
1001
0000
0000
0000
,
0001
0000
0000
0000
,
1000
0000
0000
0000
,
0100
0000
0000
0000
,
0010
0000
0000
0000
,
0001
0000
0000
0000
,
1000
0000
0000
0000
,
0100
0000
0000
0000
,
1001
0000
0001
0000
,
0001
0000
0000
0000
,
1001
0000
1000
0000
,
1000
0000
0000
0000
,
0001
0000
0001
0000
,
0000
0000
0000
0000
,
1000
0000
1000
0000
,
0000
0000
0000
0000
,
0100
0000
0100
0000
,
0000
0000
0000
0000
,
0010
0000
0010
0000
,
0000
0000
0000
0000
,
1001
0000
0000
0000
,
1000
0000
0000
0000
,
0110
0000
0000
0000
,
0001
0000
0000
0000
,
1000
0000
0000
0000
,
0001
0000
0000
0000
,
0100
0000
0000
0000
,
0010
0000
0000
0000
,
0001
0000
0000
0000
,
1000
0000
0000
0000
,
0010
0000
0000
0000
,
0100
0000
0000
0000
,
0110
0000
0000
0000
,
0001
0000
0000
0000
,
0110
0000
0000
0000
,
1000
0000
0000
0000
,
0100
0000
0000
0000
,
0010
0000
0000
0000
,
0001
0000
0000
0000
,
1000
0000
0000
0000
,
0100
0000
0000
0000
;

//---------------dance-single - C. Picardy----------------
#NOTES:
     dance-single:
     :
     Easy:
     3:
     0.248230,0.299553,0.074116,0.074116,0.000000,211.000000,202.000000,9.000000,9.000000,0.000000,0.000000,0.248230,0.299553,0.074116,0.074116,0.000000,211.000000,202.000000,9.000000,9.000000,0.000000,0.000000:
0000
0000
0000
0000
,
0000
0000
0000
0000
,
0000
0000
0000
0000
,
0000
0000
0000
0000
,
2000
0000
0000
0000
,
3000
0000
0000
0000
,
0001
0000
0000
0000
,
0000
0000
1000
0000
,
0002
0000
0000
0000
,
1003
0000
0100
0000
,
0010
0000
0001
0000
,
1000
0000
0010
0010
,
0100
0000
0001
0000
,
1000
0000
0100
0100
,
0010
0000
0001
0000
,
1000
0000
0010
0100
,
2002
3003
0100
0010
,
0000
0001
0010
0100
,
2000
0000
3001
0100
,
0000
0010
1000
0001
,
0200
0000
0310
1000
,
0001
0000
0010
0100
,
0020
0000
0031
1000
,
0100
0000
1000
0001
,
0110
0100
0001
0001
,
0000
1000
0010
0100
,
0001
1000
1000
0100
,
0000
0010
0100
1000
,
0001
0100
0010
0100
,
0000
0001
1000
0100
,
0010
0001
1000
0010
,
0000
0100
0001
0010
,
1001
0000
0100
0000
,
0010
0000
1000
0001
,
0100
0000
0010
0000
,
1000
0000
0100
0010
,
0001
0000
1000
0000
,
0100
0000
0010
0001
,
0100
0000
0010
0000
,
1000
0000
0100
1000
,
1001
0100
0010
0100
,
0001
0010
0100
1000
,
0001
1000
0001
1000
,
0100
0010
0001
0100
,
0010
1000
0010
1000
,
0100
0010
0001
1000
,
0001
0100
0001
0100
,
0010
1000
0100
0010
,
1001
0100
0010
0001
,
1000
0010
0100
0100
,
0001
0100
0010
1000
,
0100
0010
0001
0001
,
1001
0010
0100
1000
,
0001
0100
0010
0010
,
1000
0100
0010
0001
,
1000
0001
0100
0100
,
1001
0000
1000
0000
,
0001
0000
0010
0100
,
0010
0000
0001
0000
,
1000
0000
0010
0100
,
0010
0000
1000
0000
,
0100
0000
0010
0001
,
0010
0000
0100
0000
,
1000
0000
0001
1000
,
1001
0000
0001
1000
,
0100
0000
0010
0001
,
1000
0000
0010
0100
,
0001
0000
1000
0001
,
0100
0000
0010
1000
,
0100
0000
0010
0001
,
0100
0000
0010
1000
,
0100
0000
0010
0100
,
2002
0000
0000
3003
;

//---------------dance-single - C. Picardy----------------
#NOTES:
     dance-single:
     :
     Medium:
     5:
     0.345875,0.389419,0.304700,0.148232,0.000000,294.000000,257.000000,37.000000,18.000000,8.000000,0.000000,0.345875,0.389419,0.304700,0.148232,0.000000,294.000000,257.000000,37.000000,18.000000,8.000000,0.000000:
0000
0000
0000
0000
,
0000
0000
0000
0000
,
0000
0000
0000
0000
,
0000
0000
0000
0000
,
1000
0000
0000
0001
0000
0000
1000
0000
,
0000
0000
0000
0100
0100
0000
0100
0000
,
0010
0000
0000
0001
0000
0000
0010
0000
,
0000
0000
0000
1000
1000
0000
1000
0000
,
0001
0000
0000
1000
0000
0000
0001
0000
,
0100
0000
0000
0010
0010
0000
1000
0000
,
0100
0000
0000
0010
0000
0000
0001
0000
,
1000
0000
0000
0001
0001
0000
0001
0000
,
0100
0000
0000
0010
0000
0000
1000
0000
,
0100
0000
0000
1000
1000
0000
0100
0000
,
0010
0000
0000
0001
0000
0000
1000
0000
,
0010
0000
0000
0100
0100
0000
0010
0000
,
2001
0000
0000
3200
0000
0000
0310
0000
,
0001
0000
0000
1000
1000
0000
0001
0000
,
0200
0000
0000
0320
0000
0000
1030
0000
,
0100
0000
0000
0010
0001
0000
0001
0000
,
2000
0000
0000
3020
0000
0000
0130
0000
,
0001
0000
0000
1000
0010
0000
0010
0000
,
2000
0000
0000
3002
0000
0000
0103
0000
,
0010
0000
0000
0100
0010
0000
0100
0000
,
1001
0100
0010
1000
,
0100
0001
0100
0010
,
0001
0100
1000
0100
,
0001
0100
0010
1000
,
0100
0010
0001
0010
,
1000
0010
0001
0100
,
1000
0100
0010
1000
,
0100
0010
0001
1000
,
1001
0000
0000
1100
0000
0000
0110
0000
,
0000
0000
0001
1000
0001
0000
1000
0000
,
1001
0000
0000
0101
0000
0000
0110
0000
,
0000
0000
1000
0001
1000
0000
1000
0000
,
0110
0000
0000
1010
0000
0000
0101
0000
,
0000
0000
1000
0100
0010
0000
0001
0000
,
0101
0000
0000
1100
0000
0000
0110
0000
,
0000
0000
0001
0010
0100
0000
1000
0000
,
1001
0100
0010
1000
,
0100
0000
0010
0001
0100
0000
0010
0000
,
1000
0001
0100
0001
,
1000
0000
0100
1000
0010
0000
0100
0000
,
1001
0010
0100
0010
,
0001
0000
0100
0010
0100
0000
0010
0000
,
1000
0100
0010
0100
,
1000
0000
0010
0100
0010
0000
1000
0000
,
0110
1000
0001
0100
,
1001
0000
0100
0010
0100
0000
0010
0000
,
1001
0100
0010
0001
,
0110
0000
1000
0001
1000
0000
0100
0000
,
1100
0001
0010
0100
,
0011
0000
1000
0100
0001
0000
0100
0000
,
1100
0001
1000
0100
,
0011
0000
0001
0100
1000
0000
0100
0000
,
0002
0100
0010
0013
,
2000
0010
0001
3001
,
0200
0010
0001
0301
,
0020
0001
0100
0130
,
2000
0010
0100
0010
,
3002
0100
0010
0100
,
0203
0010
1000
0001
,
0320
0001
1000
0130
,
0101
0000
0000
1100
0000
0000
0101
0000
,
0MM0
0000
0000
0001
1000
0000
0100
0000
,
0011
0000
0000
1010
0000
0000
0011
0000
,
0MM0
0000
0000
1000
0001
0000
0010
0000
,
0110
0000
0000
1100
0000
0000
0110
0000
,
MM00
0000
0000
0001
0010
0000
0001
0000
,
0101
0000
0000
0011
0000
0000
1100
0000
,
0MM0
0000
0000
0010
0100
0000
1000
0000
,
2002
0000
0000
3003
;

//---------------dance-single - C. Picardy----------------
#NOTES:
     dance-single:
     :
     Hard:
     7:
     0.470579,0.509240,0.238819,0.230584,0.078234,400.000000,371.000000,29.000000,28.000000,36.000000,0.000000,0.470579,0.509240,0.238819,0.230584,0.078234,400.000000,371.000000,29.000000,28.000000,36.000000,0.000000:
0000
0000
0000
0000
,
0000
0000
0000
0000
,
0000
0000
0000
0000
,
0000
0000
0000
0000
,
2000
0000
0000
0010
0000
0000
0001
0000
,
0000
0000
3000
1000
1000
0000
0010
0000
,
0002
0000
0000
1000
0000
0000
0100
0000
,
0000
0000
0003
0010
0010
0000
0100
0000
,
2000
0000
0001
3001
0000
1000
1000
0000
,
0100
0000
0000
0010
0100
0000
0010
0000
,
0002
0000
1000
1003
0000
0100
0100
0000
,
0010
0000
0000
0001
1000
0000
0010
0000
,
0100
0000
0001
1000
0000
1000
0001
0000
,
0100
0000
0000
0010
1000
0000
0100
0000
,
0010
0000
0100
0010
0000
0010
0100
0000
,
0010
0000
0000
0010
0001
0100
0010
0000
,
1001
0000
1000
0000
0100
0010
0001
0000
,
0100
0000
0010
1000
0100
0000
0010
0000
,
0011
0000
1000
0000
0001
0100
1000
0000
,
0100
0000
0010
1000
0100
0000
0100
0000
,
0110
0000
0001
0000
1000
0100
0001
0000
,
0100
0000
1000
0010
0001
0000
0010
0000
,
1010
0000
0100
0000
0001
0100
1000
0000
,
0100
0000
0001
0010
0100
0000
0010
0000
,
1001
0000
0100
0000
0010
1000
0100
0010
,
0002
0000
1003
0000
0010
0010
0100
0001
,
0020
0000
0130
0000
1000
0100
0001
0100
,
2000
0000
3010
0000
0001
0010
1000
0100
,
0020
0000
0031
0000
1000
0001
0100
0001
,
2000
0000
3010
0000
0100
0001
0010
0001
,
2000
0000
3010
0000
0100
0001
0010
0100
,
2000
0000
3010
0000
0100
0001
0010
0100
,
2100
0000
3MM1
0002
0000
0103
M2M0
0000
,
0300
000M
1000
0001
M1M0
0000
0010
0000
,
M12M
0000
1030
2000
00MM
3100
0200
0000
,
0310
0000
0M01
1000
0100
0000
MM10
0000
,
0011
0000
1000
0100
M000
0100
2000
0000
,
3M1M
0000
0100
0001
MM10
0000
0100
0000
,
11MM
0000
0001
0010
MM0M
0010
0002
0000
,
1MM3
0000
0001
0100
10MM
0000
M1M0
0000
,
1010
0000
0000
0001
0100
0000
0010
0000
2000
0000
0000
0000
3010
0000
0000
0000
,
0100
0000
0000
0100
0001
0000
0010
0000
0100
0000
0000
0000
0100
0000
0000
0000
,
0011
0000
0000
1000
0100
0000
0010
0000
0002
0000
0000
0000
1003
0000
0000
0000
,
0010
0000
0000
0010
1000
0000
0001
0000
0100
0000
0000
0000
0100
0000
0000
0000
,
0110
0000
0000
1000
0001
0000
0100
0000
0010
0000
0000
0000
0010
0000
0000
0000
,
1000
0000
0000
1000
0100
0000
0010
0000
0001
0000
0000
0000
0001
0000
0000
0000
,
1100
0000
0000
0010
1000
0000
0001
0000
0200
0000
0000
0000
0310
0000
0000
0000
,
0001
0000
0000
1000
0001
0000
0100
0000
0010
0000
0000
0000
1000
0000
0000
0000
,
0102
0000
0013
0100
1000
1000
0010
0000
,
0100
0001
0001
1000
1100
0000
0110
0000
,
0002
0000
0013
0010
0100
1000
0001
0000
,
0100
0010
0010
1000
1100
0000
0011
0000
,
2000
0000
3010
0100
0001
0010
0100
0000
,
1000
1000
0100
0100
0110
0000
0011
0000
,
0001
0001
1000
1000
0100
0010
0001
0000
,
1000
1000
0001
0100
0110
0000
1010
0000
,
0001
0000
0000
1000
0001
0000
0100
0000
0010
0000
0010
0000
1000
0000
0000
0000
,
0100
0000
0000
1000
0100
0000
0010
0000
0001
0000
0001
0000
1000
0000
0000
0000
,
0010
0000
0000
0010
0100
0000
0001
0000
0010
0000
0010
0000
0100
0000
0000
0000
,
0010
0000
0000
0001
0010
0000
0100
0000
0010
0000
0001
0000
0100
0000
0000
0000
,
0010
0000
0000
1000
0010
0000
1000
0000
0010
0000
0100
0000
0001
0000
0000
0000
,
1000
0000
0000
0001
0010
0000
0100
0000
1000
0000
0100
0000
0001
0000
0000
0000
,
0100
0000
0000
1000
0001
0000
0100
0000
1000
0000
0100
0000
0001
0000
0000
0000
,
0010
0000
0000
0001
1000
0000
0010
0000
0001
0000
0010
0000
1000
0000
0000
0000
,
0101
0000
0010
0100
0000
0010
1000
0000
,
1100
0000
0001
0001
0100
0000
0101
0000
,
1000
0000
0010
0100
0000
0001
1000
0000
,
0011
0000
1000
1000
0100
0000
1100
0000
,
0001
0000
0000
0100
0001
0000
0100
0000
0000
0000
0000
0000
MM1M
0000
0000
0000
,
1000
0000
0100
0100
0020
0000
0130
0000
,
1000
0000
0000
0100
1000
0000
0100
0000
0000
0000
0000
0000
MM1M
0000
0000
0000
,
0001
0000
0000
1000
0001
0000
1000
0000
0100
0000
0000
0000
1001
0000
0000
0000
,
0202
0000
0000
0303
;

//---------------dance-single - C. Picardy----------------
#NOTES:
     dance-single:
     :
     Challenge:
     10:
     0.715280,0.808793,0.230584,0.535283,0.634105,608.000000,580.000000,28.000000,65.000000,250.000000,0.000000,0.715280,0.808793,0.230584,0.535283,0.634105,608.000000,580.000000,28.000000,65.000000,250.000000,0.000000:
// measure 0
M000
0000
0000
0M00
0000
0000
00M0
0000
,  // measure 1
0000
0000
0000
000M
M000
0000
0M00
0000
,  // measure 2
00M0
0000
0000
000M
0000
0000
M000
0000
,  // measure 3
0000
0000
0000
0M00
00M0
0000
000M
0000
,  // measure 4
MM2M
0000
0000
1M0M
0000
0000
MM01
0000
,  // measure 5
0000
0000
0000
1M0M
1M3M
0000
M1MM
0000
,  // measure 6
MM1M
0000
0000
MMM1
0000
0000
1MMM
0000
,  // measure 7
MMMM
0000
0000
M10M
M01M
0000
MMM1
0000
,  // measure 8
1MM0
0001
0000
1000
0MM1
0000
1000
0001
0MM0
1000
0001
0000
1MM0
0001
0000
0000
,  // measure 9
1000
0001
0000
0001
1000
0000
0100
0010
0200
0000
0000
0000
0320
0000
0000
0000
,  // measure 10
MM31
0010
0000
0001
MM10
0000
0001
0010
MM00
0001
0010
0000
MM01
0010
0000
0000
,  // measure 11
0100
1000
0000
1000
0100
0000
0010
0001
0020
0000
0000
0000
0230
0000
0000
0000
,  // measure 12
1300
0001
0000
0001
0100
0000
0100
0001
0000
0001
0010
0000
0100
1000
0000
1000
,  // measure 13
0001
1000
0000
0001
1000
0000
1000
0000
0020
0000
0000
0000
0230
0000
0000
0000
,  // measure 14
0301
0100
0000
0010
0100
0000
0001
0000
0000
0001
1000
0000
0100
1000
0000
0000
,  // measure 15
0001
0100
0000
0100
0001
0000
1000
0000
0020
0000
0000
0000
0230
0000
0000
0000
,  // measure 16
0301
0000
0000
0001
1000
0000
0100
0000
0010
0000
0010
0000
0002
0000
0000
0000
,  // measure 17
1003
0000
0000
0010
0100
0000
0001
0000
2020
0000
0000
3030
0202
0000
0000
0303
,  // measure 18
2000
0000
0000
3100
0010
0000
0001
0000
1000
0000
1000
0000
0100
0000
0000
0000
,  // measure 19
0010
0000
0001
0010
0001
0000
0100
0000
0022
0000
0000
0033
2200
0000
0000
3300
,  // measure 20
1000
0000
0010
0100
0001
0000
1000
0000
0100
0000
0010
0000
0001
0000
1000
0000
,  // measure 21
0100
0000
1000
0100
1000
0000
0100
0000
0220
0000
0000
0330
0022
0000
0000
0033
,  // measure 22
0100
0000
0001
0010
0001
0000
0100
0000
0010
0000
1000
0000
0001
0000
0010
0000
,  // measure 23
0100
0000
0010
0100
0010
0000
0100
0000
2200
0000
0000
3300
2002
0000
0000
3003
,  // measure 24
1000
0000
0001
0010
0001
0000
1000
0000
0001
0000
1000
0100
1000
0000
0001
0000
,  // measure 25
0100
0000
0010
0100
0010
0000
1000
0000
0100
1000
0100
1000
0100
0000
0010
0000
,  // measure 26
0001
0000
1000
0100
1000
0000
0001
0000
0100
0000
0001
0100
0001
0000
1000
0000
,  // measure 27
0001
0000
0010
0100
0010
0000
0001
0000
0100
0001
0100
0001
0100
0000
0010
0000
,  // measure 28
1000
0000
0010
0100
0001
0000
1000
0000
0001
0100
0010
0000
1000
0000
0100
0010
,  // measure 29
0100
0000
1000
0001
1000
0000
0100
0000
1000
0100
0010
0001
0010
0000
0100
0000
,  // measure 30
1000
0000
0001
0010
0001
0000
1000
0100
1000
0000
0001
0000
0100
0010
0100
0000
,  // measure 31
0001
0000
1000
0100
0010
0000
0001
0010
0100
1000
0100
0010
0001
0000
0010
0100
,  // measure 32
1000
0000
0MM0
0001
1000
0000
0100
0000
M000
0010
0001
0000
1MM0
0000
0000
0000
,  // measure 33
M010
0000
0010
0100
0001
0000
1MM0
0000
0M1M
0000
0000
0000
M1MM
0000
0000
0000
,  // measure 34
M0M1
0000
0001
1000
0010
0000
M10M
0000
0000
0001
0100
0000
M01M
0000
0000
0000
,  // measure 35
1MM0
0000
0000
0010
0100
0000
0001
0000
1MMM
0000
0000
0000
M1MM
0000
0000
0000
,  // measure 36
MM10
0000
0010
0001
1MM0
0000
0010
0000
00MM
0100
0010
0000
1M0M
0000
0000
0000
,  // measure 37
MMM1
0000
0000
1000
0100
0000
0010
0000
MMM1
0000
0000
0000
1MMM
0000
0000
0000
,  // measure 38
MM1M
0000
0000
0100
0010
0000
1M00
0000
M000
0001
1000
0000
M010
0000
0000
0000
,  // measure 39
M1MM
0000
0000
0001
0100
0000
0010
0000
1010
0000
M0M0
0000
0101
0000
0M0M
0000
,  // measure 40
1000
0000
0010
0100
0001
0000
1000
0000
0010
0100
0001
0000
1000
0000
0100
0000
,  // measure 41
1000
0000
0001
0100
0001
0000
1000
0000
2020
0000
0000
3030
0202
0000
0000
0303
,  // measure 42
1000
0000
0001
0100
0010
0000
1000
0000
0010
1000
0010
0000
1000
0000
0100
0010
,  // measure 43
0001
0000
1000
0100
1000
0000
0001
0000
0022
0000
0000
0033
2200
0000
0000
3300
,  // measure 44
0001
0000
0010
0100
1000
0000
0001
0000
0010
0100
1000
0000
0001
0000
0100
0001
,  // measure 45
0100
0000
0010
1000
0010
0000
1000
0000
2002
0000
0000
3003
2020
0000
0000
3030
,  // measure 46
0100
0000
0001
0010
0100
0000
0010
0000
0001
0010
0100
0000
0010
0000
0100
1000
,  // measure 47
0100
0000
0010
0001
0010
0000
0100
0000
0220
0000
0000
0330
2002
0000
0000
3003
,  // measure 48
1000
0100
0010
0001
0010
0000
0001
0010
0100
1000
0100
0010
0001
0000
1000
0100
,  // measure 49
0010
0001
0010
0100
1000
0000
0001
0000
0202
0000
0000
0303
2200
0000
0000
3300
,  // measure 50
0001
0010
0100
1000
0001
0000
0010
0100
1000
0100
0010
0001
0010
0000
0100
1000
,  // measure 51
0001
0010
0100
0010
0001
0000
1000
0000
0022
0000
0000
0033
2020
0000
0000
3030
,  // measure 52
0001
0100
0010
1000
0010
0000
1000
0010
0100
0001
0100
0010
1000
0000
0001
0100
,  // measure 53
0010
1000
0010
0100
0001
0000
1000
0000
2020
0000
0000
3030
0220
0000
0000
0330
,  // measure 54
1000
0010
0100
0010
1000
0000
0001
0100
0010
0100
0001
1000
0010
0000
0001
0100
,  // measure 55
0010
1000
0010
0100
0001
1000
0100
0000
2200
0000
0000
3300
2002
0000
0000
3003
,  // measure 56
1M1M
0000
1M0M
0010
1M0M
0000
0M01
0000
1M0M
0010
1M0M
0000
010M
0000
1M0M
0000
,  // measure 57
1M0M
0010
1M0M
0000
010M
0000
1M0M
0010
1M00
0001
1M0M
0000
1M0M
0000
0010
0000
,  // measure 58
M10M
0000
M01M
0100
M01M
0000
100M
0000
M01M
0100
M01M
0000
M001
0000
M01M
0100
,  // measure 59
M01M
0000
100M
0000
M01M
0100
M01M
0000
M10M
0010
M10M
0000
M001
0000
0000
0000
,  // measure 60
MM01
0000
MM10
0001
MM10
0000
1M00
0000
MM10
0001
MM10
0000
M100
0000
0M10
1000
,  // measure 61
MM10
0000
MM01
0010
MM01
0000
M100
0000
MM01
0010
MM01
0000
1M00
0000
0010
0000
,  // measure 62
M1M0
0000
M0M1
0100
M0M1
0000
M1M0
0000
10M0
0100
M0M1
0000
M1M0
0000
M010
0000
,  // measure 63
M1M0
0000
M0M1
0100
M0M1
0000
M0M1
0100
10M0
0100
M0M1
0000
M010
0000
0100
0000
,  // measure 64
0001
0000
0000
0001
0100
0000
1000
0000
0MM0
0100
0010
0000
1000
0000
0000
0000
,  // measure 65
0010
0000
0000
1000
0010
0000
M0M1
0000
0200
0000
0000
0000
1300
0000
0000
0000
,  // measure 66
MM01
0000
0000
0001
0010
0000
10MM
0000
0000
0001
0100
0000
1000
0000
0MM0
0000
,  // measure 67
0001
0000
0000
0010
1000
0000
0100
0000
0002
0000
MM00
0000
0103
0000
0000
0000
,  // measure 68
10MM
0000
0000
1000
0010
0000
M0M1
0000
0000
1000
0100
0000
0001
0000
MM00
0000
,  // measure 69
0010
0000
0000
1000
0010
0000
0001
0000
MM20
0000
0000
0000
1030
0000
0000
0000
,  // measure 70
0001
0000
0000
0001
0100
0000
1M0M
0000
0000
0001
0010
0000
01MM
0000
0000
0000
,  // measure 71
0010
0000
0000
0001
0100
0000
10MM
0000
0200
0000
0000
0000
M3M1
0000
0000
0000
,  // measure 72
2020
0000
0000
3030
;
