#VERSION:0.83;
#TITLE:The Flame of Love;
#SUBTITLE:;
#ARTIST:Mister Tom;
#TITLETRANSLIT:;
#SUBTITLETRANSLIT:;
#ARTISTTRANSLIT:;
#GENRE:;
#ORIGIN:;
#CREDIT:;
#BANNER:theflameoflovebn.png;
#BACKGROUND:theflameoflovebg.png;
#PREVIEWVID:;
#JACKET:;
#CDIMAGE:;
#DISCIMAGE:;
#LYRICSPATH:;
#CDTITLE:;
#MUSIC:theflameoflove.ogg;
#OFFSET:-0.044000;
#SAMPLESTART:74.022591;
#SAMPLELENGTH:12.440010;
#SELECTABLE:YES;
#BPMS:0.000=154.000;
#STOPS:;
#DELAYS:;
#WARPS:;
#TIMESIGNATURES:0.000=4=4;
#TICKCOUNTS:0.000=4;
#COMBOS:0.000=1;
#SPEEDS:0.000=1.000=0.000=0;
#SCROLLS:0.000=1.000;
#FAKES:;
#LABELS:0.000=Song Start;
#BGCHANGES:32.000=lovehearttunnel.mp4=1.000=1=0=1=SongBgWithMovieViz==CrossFade==,
64.000=lovehearttunnel.mp4=1.000=0=0=1===CrossFade_Fastest==,
94.000=yellow flash=3.000=0=0=1=====,
94.250=theflameoflovebg.png=1.000=0=0=1=====,
95.000=yellow flash=3.000=0=0=1=====,
95.250=theflameoflovebg.png=1.000=0=0=1=====,
96.000=flash=2.000=0=0=1=====,
96.250=warpspeedhyper.mp4=1.000=0=1=1=StretchRewind====,
128.000=neontunnel.mp4=1.000=0=0=1===CrossFade_Fastest==,
160.000=warpspeedhyper.mp4=1.000=0=1=1=StretchRewind==SlideUp==,
190.000=flash=3.000=0=0=1=====,
190.250=theflameoflovebg.png=1.000=0=0=1=====,
191.000=flash=3.000=0=0=1=====,
191.250=theflameoflovebg.png=1.000=0=0=1=====,
192.000=lovehearttunnel.mp4=1.000=0=1=1=StretchRewind==SlideUp==,
254.000=yellow flash=3.000=0=0=1=====,
254.250=theflameoflovebg.png=1.000=0=0=1=====,
255.000=yellow flash=3.000=0=0=1=====,
255.250=theflameoflovebg.png=1.000=0=0=1=====,
256.000=flash=2.000=0=0=1=====,
256.250=neontunnel.mp4=1.000=0=1=1=StretchRewind====,
272.000=warpspeedhyper.mp4=1.000=0=1=1=StretchRewind==SlideUp==,
288.000=theflameoflovebg.png=1.000=1=0=1===CrossFade==,
99999=-nosongbg-=1.000=0=0=0 // don't automatically add -songbackground-
;
#KEYSOUNDS:;
#ATTACKS:
;

//---------------dance-single - C. Picardy----------------
#NOTEDATA:;
#CHARTNAME:;
#STEPSTYPE:dance-single;
#DESCRIPTION:C. Picardy;
#CHARTSTYLE:;
#DIFFICULTY:Beginner;
#METER:1;
#RADARVALUES:0.098979,0.158244,0.042769,0.017107,0.000000,81.000000,76.000000,5.000000,2.000000,0.000000,0.000000,0.000000,0.000000,0.000000,0.098979,0.158244,0.042769,0.017107,0.000000,81.000000,76.000000,5.000000,2.000000,0.000000,0.000000,0.000000,0.000000,0.000000;
#CREDIT:C. Picardy;
#NOTES:
0000
0000
0000
0000
,
0000
0000
0000
0000
,
0000
0000
0000
0000
,
0000
0000
0000
0000
,
0000
0000
0000
0000
,
0000
0000
0000
0000
,
0000
0000
0000
0000
,
0000
0000
0000
0000
,
0010
0000
0000
0000
,
0010
0000
0000
0000
,
0100
0000
0000
0000
,
0100
0000
0000
0000
,
0001
0000
0000
0000
,
0001
0000
0000
0000
,
1000
0000
0000
0000
,
1000
0000
0000
0000
,
0100
0000
0100
0000
,
0100
0000
0000
0000
,
0010
0000
0000
0000
,
0010
0000
0000
0000
,
1000
0000
1000
0000
,
1000
0000
0000
0000
,
0001
0000
0001
0000
,
0001
0000
0000
0000
,
1001
0000
0000
0000
,
0100
0000
0000
0000
,
0010
0000
0000
0000
,
1000
0000
0000
0000
,
1001
0000
0000
0000
,
0001
0000
0000
0000
,
0010
0000
0000
0000
,
0100
0000
0000
0000
,
1000
0000
0000
0000
,
1000
0000
0000
0000
,
0001
0000
0000
0000
,
0001
0000
0000
0000
,
0100
0000
0000
0000
,
0100
0000
0000
0000
,
0010
0000
0000
0000
,
0010
0000
0000
0000
,
1000
0000
0001
0000
,
1000
0000
0000
0000
,
0001
0000
1000
0000
,
0001
0000
0000
0000
,
0100
0000
0010
0000
,
0100
0000
0000
0000
,
0010
0000
0100
0000
,
0010
0000
0000
0000
,
1001
0000
0000
0000
,
0010
0000
0000
0000
,
0100
0000
0000
0000
,
0010
0000
0000
0000
,
1000
0000
0000
0000
,
0001
0000
0000
0000
,
1000
0000
0000
0000
,
0001
0000
0000
0000
,
1001
0000
0000
0000
,
0100
0000
0000
0000
,
0010
0000
0000
0000
,
1000
0000
0000
0000
,
0001
0000
0000
0000
,
0010
0000
0000
0000
,
0100
0000
0000
0000
,
1000
0000
0000
0000
,
0001
0000
0001
0000
,
0001
0000
0000
0000
,
1000
0000
1000
0000
,
1000
0000
0000
0000
,
0010
0000
0010
0000
,
0010
0000
0000
0000
,
0100
0000
0100
0000
,
0100
0000
0000
0000
,
2002
0000
0000
0000
,
0000
0000
0000
0000
,
3003
0000
0000
0000
;

//---------------dance-single - C. Picardy----------------
#NOTEDATA:;
#CHARTNAME:;
#STEPSTYPE:dance-single;
#DESCRIPTION:C. Picardy;
#CHARTSTYLE:;
#DIFFICULTY:Challenge;
#METER:9;
#RADARVALUES:0.630532,0.727923,0.256612,0.230951,0.128306,516.000000,486.000000,30.000000,27.000000,42.000000,9.000000,0.000000,0.000000,0.000000,0.630532,0.727923,0.256612,0.230951,0.128306,516.000000,486.000000,30.000000,27.000000,42.000000,9.000000,0.000000,0.000000,0.000000;
#CREDIT:C. Picardy;
#NOTES:
0000
0000
0000
0000
,
0000
0000
0000
0000
,
0000
0000
0000
0000
,
0000
0000
0000
0000
,
2000
0000
3010
1000
0100
0010
0001
0002
,
0000
2003
0000
3002
0000
0203
0000
0310
,
0020
0000
1030
0010
0100
0001
0010
0100
,
1000
0100
1000
0100
1000
0000
0001
0010
0001
0010
0001
0000
1000
0001
1000
0001
,
0100
0010
1000
0010
0100
0010
0000
0020
,
0000
0000
1030
0100
0010
0001
0000
0002
,
0000
0000
0013
0100
1000
1000
0000
2000
,
0000
0001
3001
0000
M1M1
0000
11MM
0000
,
1000
0100
0001
0100
1000
0010
0000
0200
,
0000
0000
0301
0100
1000
0100
0000
0020
,
0000
0000
1030
0010
0001
0010
0000
2000
,
0000
0100
3100
0000
MM11
0000
1M1M
0000
,
0001
0100
1000
0100
0001
0010
1000
0010
,
0001
0000
1000
0100
0001
0000
1000
0010
,
0001
0000
0001
0100
1000
0000
0001
0010
,
1000
0100
1M1M
M1M1
,
0001
0100
0010
1000
0100
0010
0000
1001
,
M00M
0000
0001
0010
0100
1000
0000
0110
,
0MM0
0000
1000
0100
0010
0001
0000
0001
,
0100
0100
0010
0010
1000
0100
1001
0000
,
1000
0010
0100
0010
1000
0010
0100
0010
,
1000
0100
0001
0100
1000
0100
0001
0100
,
1000
0010
0001
0010
1000
0010
0001
0010
,
0100
0001
0010
0001
0100
0010
0110
0MM0
,
0001
1000
0100
1000
0001
1000
0100
1000
,
0001
0010
1000
0010
0001
0010
1000
0010
,
0001
0100
1000
0100
0001
0100
1000
0100
,
0001
M1M1
0000
11MM
0000
0001
0100
0010
,
2001
0000
0010
0000
3100
0010
0001
0010
,
0120
0000
0001
0000
1000
0000
0130
0010
,
0001
0100
1000
0100
0010
1000
0100
0010
,
1000
0000
0010
0000
0001
0010
0100
1000
,
1002
0000
0010
0000
0103
0010
1000
0100
,
0210
0000
0001
0000
1000
0000
0310
0001
,
1000
0100
1000
0100
0010
0001
0010
0001
,
0100
0000
0010
0000
0100
0000
0010
0000
0100
0010
0100
0010
0100
0000
0001
0000
,
2001
0000
3200
2000
0000
0001
0000
0010
,
0000
0001
3300
0000
1000
0100
0010
0001
,
0201
0000
0302
0200
0000
1000
0000
0010
,
0000
0010
1303
0000
0001
0100
0010
1000
,
2001
0000
3200
0020
0000
0001
0000
0001
,
0330
0000
1000
0100
0010
0001
1000
0010
,
1000
0010
0100
0001
0100
0001
1000
0100
,
0010
0001
0100
0010
0110
0MM0
1001
M00M
,
1000
0000
0100
0000
0010
0000
0001
0010
0100
0000
0010
0000
0001
0000
0100
0000
,
0010
0000
0100
0000
0001
0000
0010
0100
1000
0000
0100
0000
0010
0000
0100
0000
,
1000
0000
0100
0000
0010
0000
0001
0100
0010
0000
1000
0000
0100
0000
0010
0000
,
0100
0000
1000
0000
0010
0000
1000
0010
1000
0000
0000
0000
0101
0000
0M0M
0000
,
0001
0000
0100
0000
0010
0000
1000
0100
0010
0000
0001
0000
0010
0000
0100
0000
,
1000
0000
0100
0000
0010
0000
0001
0100
0010
0000
1000
0000
0100
0000
1000
0000
,
0010
0000
0100
0000
0001
0000
0010
0100
1000
0000
0100
0000
0010
0000
0001
0000
,
0010
0000
0100
0000
1000
0000
0001
0010
0001
0000
0000
0000
1100
0000
MM00
0000
,
1000
0000
0100
0000
0010
0000
0001
0100
0010
0000
1000
0000
0100
0000
0010
0100
,
1000
0000
0010
0000
0100
0000
0001
0010
0100
0000
0010
0000
0001
0000
0100
0010
,
1000
0000
0100
0000
0010
0000
0100
0010
0001
0000
0100
0000
0010
0000
1000
0010
,
0100
0000
0001
0000
1000
0000
0001
1000
0001
0000
0000
0000
0110
0000
0MM0
0000
,
1000
0000
0100
0000
0010
0000
0001
0100
0010
0000
1000
0000
0010
0000
0100
0010
,
1000
0000
0100
0000
0010
0000
0001
0100
0010
0000
1000
0000
0100
0000
0010
0100
,
1000
0000
0001
0000
0100
0000
0010
1000
0100
0000
0010
0000
0001
0000
1000
0100
,
0010
0000
0001
0000
0100
0000
0010
0100
0010
0000
0000
0000
1001
0000
M00M
0000
,
1000
0100
0001
0100
1000
0100
0001
0100
,
1000
0010
0001
0010
1000
0010
0001
1000
,
0100
0001
0100
1000
0100
0001
0100
1000
,
0100
0001
0010
0100
0110
0MM0
1001
M00M
,
0001
0010
1000
0010
0001
0010
1000
0010
,
0001
0100
1000
0100
0001
0100
1000
0100
,
0001
0010
0001
0010
0100
1000
0100
1000
,
0001
M1M1
0000
11MM
0000
1000
1001
0200
,
0020
0000
0000
0000
,
0000
0000
0000
0000
,
0330
0000
0000
0000
;

//---------------dance-single - C. Picardy----------------
#NOTEDATA:;
#CHARTNAME:;
#STEPSTYPE:dance-single;
#DESCRIPTION:C. Picardy;
#CHARTSTYLE:;
#DIFFICULTY:Hard;
#METER:7;
#RADARVALUES:0.532775,0.569679,0.342149,0.128306,0.000000,436.000000,396.000000,40.000000,15.000000,18.000000,0.000000,0.000000,0.000000,0.000000,0.532775,0.569679,0.342149,0.128306,0.000000,436.000000,396.000000,40.000000,15.000000,18.000000,0.000000,0.000000,0.000000,0.000000;
#CREDIT:C. Picardy;
#NOTES:
0000
0000
0000
0000
,
0000
0000
0000
0000
,
0000
0000
0000
0000
,
0000
0000
0000
0000
,
0002
0000
0000
0000
1003
0001
1000
0001
,
0000
0001
0000
1000
0000
1000
0000
1000
,
2000
0000
0000
0000
3100
0010
0100
0010
,
0000
0010
0000
0100
0100
0000
0100
0000
,
0010
0000
0001
0000
0100
0001
0100
0002
,
0000
0000
1003
0000
0100
1000
0100
2000
,
0000
0000
3001
0000
0100
0010
0100
0020
,
0000
1030
0100
0100
,
0010
0000
0001
0000
1000
0010
1000
0020
,
0000
0000
0130
0000
0001
1000
0001
2000
,
0000
0000
3100
0000
0010
0100
0000
0010
,
0000
0010
0010
0000
0001
0000
0100
0000
,
0001
0100
0010
0100
0001
0100
0010
0100
,
0001
0000
1000
0100
0010
0000
0010
0100
,
1000
0000
1000
0010
0100
0000
0100
0010
,
1000
0100
0011
0110
,
1000
0100
0010
0100
1000
0100
0010
0100
,
1000
0000
0001
0010
0100
0010
0001
0010
,
0100
0000
1000
0100
0010
0001
0000
0001
,
0100
0010
1000
0100
0010
0000
1001
0000
,
0001
0100
0010
1000
0100
0010
0000
1MM1
,
0000
0000
0100
0010
0100
0010
0000
1MM1
,
0000
0000
0001
0100
0010
1000
0000
0001
,
0000
0100
0010
0000
1010
0000
0101
0000
,
1000
0100
0010
0001
0100
0010
0000
1MM1
,
0000
0000
0001
0100
0010
1000
0000
1MM1
,
0000
0000
0001
0010
0100
1000
0000
0101
,
0000
1100
0000
0101
0000
1000
0100
0010
,
0021
0000
0001
0000
0031
0100
0010
1000
,
0200
0000
0010
0000
0310
0000
0010
0001
,
1000
0100
1000
0100
0010
0001
0010
0001
,
0100
0000
0010
0000
1000
0010
0100
0010
,
1000
0000
0001
0000
0001
0010
0100
0010
,
0002
0000
0100
0000
0103
0000
0001
0100
,
0010
1000
0010
1000
0001
0010
0001
0010
,
0100
1000
0100
1000
0001
0010
0100
1000
,
2001
0000
0010
0010
0000
0100
0000
0010
,
0000
3100
0000
0000
0010
0001
0100
0010
,
0120
0000
1000
1000
0000
0100
0000
1000
,
0000
0100
0130
0000
1001
0000
0100
0001
,
0021
0000
0001
0001
0000
0100
0000
0031
,
0000
0000
0001
0010
0100
0010
0001
0100
,
0010
1000
0100
0000
0010
0001
0100
0000
,
0010
1000
0100
0000
0011
0000
1100
0000
,
1000
0100
0010
0100
0001
0100
0010
0100
,
1000
0000
0001
0100
0010
0100
1000
0100
,
0010
0000
0010
1000
0100
0010
0100
1000
,
0010
0010
0100
0000
1010
0000
0101
0000
,
0001
0010
0100
0010
1000
0010
0100
0010
,
0001
0000
1000
1000
0100
0010
0100
1000
,
0010
0000
0100
0100
0010
0001
0010
0100
,
0001
0010
0100
0000
0101
0000
1100
0000
,
0001
0010
0100
0010
0001
0100
0010
1000
,
1100
0000
0010
0100
1000
0100
0010
0001
,
0011
0000
1000
0100
0010
0100
1000
0010
,
0100
0001
0101
0000
1010
0000
0011
0000
,
1000
0100
0010
0001
0010
0100
1000
0010
,
1010
0000
0001
0100
0010
0100
0001
0010
,
0011
0000
1000
0100
0010
0100
1000
0010
,
0100
0100
0010
0000
1001
0000
0110
0000
,
0001
0100
0010
1000
0100
0010
0000
1MM1
,
0000
0000
0001
0010
0100
1000
0000
M11M
,
0000
0000
1000
0100
0010
0001
0000
0100
,
0000
0100
0010
0000
0101
0000
1100
0000
,
1000
0100
0010
0001
0100
0010
0000
M11M
,
0000
0000
1000
0010
0100
0001
0000
M11M
,
0000
0000
0001
0010
0100
1000
0000
0000
,
0010
0110
0000
1MM1
0000
1000
0100
0020
,
0002
0000
0000
0000
,
0000
0000
0000
0000
,
0033
0000
0000
0000
;

//---------------dance-single - C. Picardy----------------
#NOTEDATA:;
#CHARTNAME:;
#STEPSTYPE:dance-single;
#DESCRIPTION:C. Picardy;
#CHARTSTYLE:;
#DIFFICULTY:Medium;
#METER:6;
#RADARVALUES:0.405691,0.443083,0.299381,0.205290,0.000000,332.000000,297.000000,35.000000,24.000000,0.000000,0.000000,0.000000,0.000000,0.000000,0.405691,0.443083,0.299381,0.205290,0.000000,332.000000,297.000000,35.000000,24.000000,0.000000,0.000000,0.000000,0.000000,0.000000;
#CREDIT:C. Picardy;
#NOTES:
0000
0000
0000
0000
,
0000
0000
0000
0000
,
0000
0000
0000
0000
,
0000
0000
0000
0000
,
2000
0000
3001
0000
,
0200
0300
0200
0300
,
0200
0000
0310
0000
,
1000
0000
0001
0001
,
0001
0000
0100
0000
0010
0100
0000
0100
,
0000
0000
0010
0000
1000
1000
0000
2000
,
0000
0000
3001
0000
0001
0001
0000
0002
,
0000
0003
0100
0100
,
0010
0000
1000
0000
0100
0100
0000
0200
,
0000
0000
0310
0000
0010
0010
0000
0020
,
0000
0000
0031
0000
1000
2000
0000
0002
,
0000
3003
0010
0010
,
0001
0100
0001
0100
,
0010
1000
0100
1000
,
0001
1000
0100
0010
,
0100
1000
0010
0110
,
1000
0001
0100
0100
,
0010
0000
1000
0001
,
0100
0000
0001
0010
,
0100
1000
0110
1001
,
0100
0010
0100
0000
0001
1000
0000
1001
,
0000
0000
0010
0100
0010
0000
0000
1001
,
0000
0000
0001
0010
0001
0000
0000
0100
,
0000
0100
0010
0000
1010
0000
0101
0000
,
1000
0100
1000
0000
0001
0100
0000
0110
,
0000
0000
1000
0010
1000
0000
0000
0110
,
0000
0000
0001
0100
0001
0000
0000
1100
,
0000
0011
0000
0110
0000
1001
0000
0100
,
0010
0000
1000
0000
0010
0000
1000
0100
,
1000
0100
1000
0100
,
0010
0001
0010
0000
0100
1000
0100
0000
,
0010
0000
0001
0000
0100
0000
0010
0100
,
0010
0000
1000
0000
0001
0000
1000
0001
,
1000
0100
0010
0001
,
1000
0100
0010
0000
0001
0100
0010
0000
,
1000
0001
0100
0010
,
2001
0000
3100
0200
0000
0320
0000
0230
,
0000
2300
0000
0000
3010
0000
0100
0000
,
0102
0000
0103
0200
0000
0320
0000
0230
,
0000
0010
0310
0000
1000
0000
0100
0000
,
0021
0000
0130
0200
0000
1000
0000
2300
,
0000
0000
3001
1000
0001
0000
0100
0000
,
0010
1000
0100
0000
0010
0001
0100
0000
,
0010
1000
0001
0000
1100
0000
0101
0000
,
1000
0100
1000
0000
0001
0100
0001
0000
,
1000
0010
1000
0100
,
0010
0001
0010
0000
0100
1000
0100
0000
,
1000
0010
0110
1001
,
1000
0010
1000
0000
0001
0010
0001
0000
,
1000
0100
0010
0001
,
0100
0010
0100
0000
0001
1000
0001
0000
,
0100
0010
1100
0011
,
0001
0100
0001
0000
1000
0010
1000
0000
,
0100
0010
0001
0100
,
0001
0100
1000
0000
1000
0100
0001
0000
,
1000
0100
0011
1100
,
1000
0100
0001
0000
0001
0100
1000
0000
,
0010
0100
0010
1000
,
0001
0010
1000
0000
1000
0010
0001
0000
,
0100
0010
1001
0110
,
1000
0000
0001
0000
0100
0010
0000
1001
,
0000
0000
0010
0000
0100
0010
0000
1001
,
0000
0000
1000
0000
0100
0010
0000
0001
,
0000
0001
0001
0000
0101
0000
1100
0000
,
0010
0000
1000
0000
0100
0010
0000
0011
,
0000
0000
0100
0000
0100
0010
0000
1010
,
0000
0000
0100
0000
0100
0010
0000
0011
,
0000
1100
0000
0101
0000
1000
0001
0200
,
0002
0000
0000
0000
,
0000
0000
0000
0000
,
0303
0000
0000
0000
;

//---------------dance-single - C. Picardy----------------
#NOTEDATA:;
#CHARTNAME:;
#STEPSTYPE:dance-single;
#DESCRIPTION:C. Picardy;
#CHARTSTYLE:;
#DIFFICULTY:Easy;
#METER:4;
#RADARVALUES:0.285939,0.379786,0.248058,0.273720,0.000000,234.000000,205.000000,29.000000,32.000000,0.000000,0.000000,0.000000,0.000000,0.000000,0.285939,0.379786,0.248058,0.273720,0.000000,234.000000,205.000000,29.000000,32.000000,0.000000,0.000000,0.000000,0.000000,0.000000;
#CREDIT:C. Picardy;
#NOTES:
// measure 0
0000
0000
0000
0000
,  // measure 1
0000
0000
0000
0000
,  // measure 2
0000
0000
0000
0000
,  // measure 3
0000
0000
0000
0000
,  // measure 4
0000
0000
0000
0000
,  // measure 5
0000
0000
0000
0000
,  // measure 6
0000
0000
0000
0000
,  // measure 7
0000
0000
0100
0100
,  // measure 8
0100
0000
0010
0000
,  // measure 9
1000
0000
0100
0000
,  // measure 10
0010
0000
0001
0000
,  // measure 11
0100
0000
0010
0010
,  // measure 12
0010
0000
1000
0000
,  // measure 13
0001
0000
0010
0000
,  // measure 14
0100
0000
1000
0000
,  // measure 15
0001
0000
1000
1000
,  // measure 16
1000
0001
1000
0001
,  // measure 17
0100
0000
0010
0000
,  // measure 18
1000
0000
0100
0000
,  // measure 19
0010
0000
0001
0001
,  // measure 20
0001
0010
0001
0100
,  // measure 21
0010
0000
1000
0100
,  // measure 22
0010
0000
0001
0010
,  // measure 23
0100
1000
0110
1001
,  // measure 24
0100
0100
0010
1000
,  // measure 25
0001
0010
0010
0100
,  // measure 26
1000
0010
0010
0100
,  // measure 27
0010
0100
0110
1001
,  // measure 28
0010
0010
1000
0100
,  // measure 29
0010
0001
0001
0100
,  // measure 30
0010
1000
1000
0100
,  // measure 31
2002
0000
0000
3003
,  // measure 32
0100
0010
0000
1000
,  // measure 33
0001
0001
0000
0100
,  // measure 34
0010
1000
1000
0100
,  // measure 35
0010
0100
0000
1000
,  // measure 36
1001
0000
0100
0010
,  // measure 37
0110
0000
1000
0001
,  // measure 38
0100
0100
0010
1000
,  // measure 39
0100
0100
1001
0000
,  // measure 40
0200
0000
0320
0000
,  // measure 41
0230
0000
0301
1001
,  // measure 42
0200
0000
2300
0000
,  // measure 43
3002
0000
0103
0110
,  // measure 44
0020
0000
2030
0000
,  // measure 45
3002
0000
0023
0000
,  // measure 46
0230
0000
2300
0000
,  // measure 47
3100
0100
0110
1001
,  // measure 48
0100
0100
0010
1000
,  // measure 49
0200
0000
0310
0001
,  // measure 50
0200
0000
0310
1000
,  // measure 51
0100
0010
0011
1100
,  // measure 52
0001
0100
0010
1000
,  // measure 53
2000
0000
3001
0010
,  // measure 54
0002
0000
1003
0100
,  // measure 55
0010
0001
0101
1100
,  // measure 56
0001
0100
0010
1000
,  // measure 57
2002
3003
0100
0010
,  // measure 58
2002
3003
1000
0100
,  // measure 59
0220
0330
0001
0001
,  // measure 60
0100
0010
1000
0100
,  // measure 61
2200
3300
0010
0001
,  // measure 62
0202
0303
0010
1000
,  // measure 63
2002
3003
0110
1001
,  // measure 64
0001
1000
0100
0100
,  // measure 65
0010
0001
0100
0100
,  // measure 66
0010
1000
0100
0100
,  // measure 67
0010
0001
0101
1100
,  // measure 68
0010
0100
0001
0001
,  // measure 69
1000
0010
1000
1000
,  // measure 70
0100
0010
0001
0001
,  // measure 71
0101
0000
1100
0000
,  // measure 72
2002
0000
0000
0000
,  // measure 73
0000
0000
0000
0000
,  // measure 74
3003
0000
0000
0000
;
