#TITLE:Tetris Trance;
#SUBTITLE:;
#ARTIST:2PM;
#TITLETRANSLIT:;
#SUBTITLETRANSLIT:;
#ARTISTTRANSLIT:;
#GENRE:;
#CREDIT:;
#BANNER:tetristrancebn.png;
#BACKGROUND:tetristrancebg.png;
#LYRICSPATH:;
#CDTITLE:;
#MUSIC:tetristrance.ogg;
#OFFSET:-0.168762;
#SAMPLESTART:61.619968;
#SAMPLELENGTH:13.820004;
#SELECTABLE:YES;
#DISPLAYBPM:140.000000;
#BPMS:0.000000=140.000000
,78.000000=280.000000
,80.000000=560.000000
,84.000000=140.000000
;
#STOPS:
;
#BGCHANGES:16.000=bluehalo.mp4=1.000=1=0=1=SongBgWithMovieViz==CrossFade==,
48.000=bluehalo.mp4=1.000=1=0=1===CrossFade==,
78.000=bluehalo.mp4=1.000=0=0=1=SongBgWithMovieViz====,
79.000=bluehalo.mp4=1.000=0=0=1=====,
80.000=bluehalo.mp4=1.000=0=0=1=SongBgWithMovieViz====,
82.000=bluehalo.mp4=1.000=0=0=1=====,
84.000=flash=1.600=0=0=1=====,
84.250=greengradientlines.mp4=1.000=0=0=0=StretchNoLoop====,
116.000=bluemotion.mp4=1.000=0=0=0=StretchNoLoop==CrossFade_Fastest==,
147.000=greengradientlines.mp4=1.000=0=0=1=SongBgWithMovieViz====,
148.000=flash=1.600=0=0=1=====,
148.250=bluehalo.mp4=1.000=0=0=0=StretchNoLoop====,
208.000=bluehalo.mp4=1.000=0=0=1=SongBgWithMovieViz====,
208.500=bluehalo.mp4=1.000=0=0=1=====,
209.000=bluehalo.mp4=1.000=0=0=1=SongBgWithMovieViz====,
209.500=bluehalo.mp4=1.000=0=0=1=====,
210.000=bluehalo.mp4=1.000=0=0=1=SongBgWithMovieViz====,
211.000=bluehalo.mp4=1.000=0=0=1=====,
212.000=flash=1.600=0=0=1=====,
212.250=bluemotion.mp4=1.000=0=0=0=StretchNoLoop====,
228.000=greengradientlines.mp4=1.000=1=0=0=StretchNoLoop==CrossFade==,
244.000=flash=1.600=0=0=1=====,
244.250=tetristrancebg.png=1.000=0=0=1=====,
99999=-nosongbg-=1.000=0=0=0 // don't automatically add -songbackground-
;
#KEYSOUNDS:;
#ATTACKS:;

//---------------dance-single - C. Picardy----------------
#NOTES:
     dance-single:
     :
     Beginner:
     1:
     0.112448,0.171483,0.074965,0.000000,0.000000,84.000000,76.000000,8.000000,0.000000,0.000000,0.000000,0.112448,0.171483,0.074965,0.000000,0.000000,84.000000,76.000000,8.000000,0.000000,0.000000,0.000000:
0000
0000
0000
0000
,
0000
0000
0000
0000
,
0000
0000
0000
0000
,
0000
0000
0000
0000
,
0010
0000
0000
0000
,
0010
0000
0000
0000
,
0100
0000
0000
0000
,
0100
0000
0000
0000
,
0001
0000
0000
0000
,
0001
0000
0000
0000
,
1000
0000
0000
0000
,
1000
0000
0000
0000
,
0010
0000
0010
0000
,
0100
0000
0100
0000
,
0001
0000
0001
0000
,
1000
0000
1000
0000
,
0010
0000
0000
0000
,
0100
0000
0000
0000
,
0001
0000
0000
0000
,
1000
0000
0000
0000
,
0000
0000
0000
0000
,
1001
0000
0000
0000
,
0100
0000
0000
0000
,
0010
0000
0000
0000
,
0100
0000
0000
0000
,
0010
0000
0000
0000
,
1000
0000
0000
0000
,
0001
0000
0000
0000
,
1000
0000
0110
0000
,
0001
0000
1000
0000
,
0001
0000
1000
0000
,
0010
0000
0100
0000
,
0010
0000
0100
0000
,
0001
0000
0000
0000
,
1000
0000
0000
0000
,
0010
0000
0000
0000
,
0100
0000
0000
0000
,
1001
0000
0000
0010
,
0010
0000
0000
0100
,
0100
0000
0000
0000
,
0001
0001
0001
0000
,
1000
0000
0000
0000
,
0001
0000
0000
0000
,
0100
0000
0000
0000
,
0010
0010
0010
0000
,
1000
0000
0000
0000
,
0001
0000
0000
0000
,
0100
0000
0000
0000
,
0010
0000
0000
0000
,
1000
0000
0000
0001
,
0001
0000
1000
0000
,
0100
0000
0010
0000
,
0001
0000
0100
0000
,
1001
0000
0000
0000
,
1001
0000
0000
0000
,
0110
0000
0000
0000
,
0110
0000
0000
0000
,
1000
0000
0000
0000
,
0001
0000
0000
0000
,
0100
0000
0000
0000
,
0010
0000
0000
0000
,
1001
0000
0000
0000
;

//---------------dance-single - C. Picardy----------------
#NOTES:
     dance-single:
     :
     Easy:
     4:
     0.294507,0.400127,0.299861,0.065595,0.000000,220.000000,188.000000,32.000000,7.000000,0.000000,0.000000,0.294507,0.400127,0.299861,0.065595,0.000000,220.000000,188.000000,32.000000,7.000000,0.000000,0.000000:
// measure 0
0000
0000
0000
0000
,  // measure 1
0000
0000
0000
0000
,  // measure 2
0000
0000
0000
0000
,  // measure 3
0000
0000
0000
0000
,  // measure 4
1000
0000
0001
0000
,  // measure 5
1000
0000
0001
0000
,  // measure 6
1000
0000
0001
0000
,  // measure 7
1000
1000
1000
0000
,  // measure 8
0000
0000
0100
0000
,  // measure 9
0010
0000
0100
0000
,  // measure 10
0010
0000
0100
0000
,  // measure 11
0010
0010
0010
0000
,  // measure 12
1000
0001
1000
0001
,  // measure 13
0100
0010
0100
0010
,  // measure 14
1000
0100
0010
0001
,  // measure 15
0100
0100
0100
0000
,  // measure 16
0010
0000
1000
0001
,  // measure 17
0100
0000
0010
0000
,  // measure 18
1000
0000
0100
0000
,  // measure 19
0010
0000
2002
0000
,  // measure 20
3003
0000
0000
0000
,  // measure 21
0100
1000
0100
1000
,  // measure 22
0100
0000
0010
0001
,  // measure 23
0010
0001
1000
0001
,  // measure 24
0010
0010
0010
0100
,  // measure 25
0000
1000
0001
0100
,  // measure 26
0100
0000
0010
1000
,  // measure 27
0010
1000
0100
0010
,  // measure 28
0001
0100
0110
1001
,  // measure 29
1000
0001
0100
0001
,  // measure 30
1000
0100
1000
0100
,  // measure 31
0010
0001
0010
0001
,  // measure 32
1000
0001
0010
0001
,  // measure 33
1000
0100
0010
0100
,  // measure 34
1000
0000
0100
0010
,  // measure 35
0100
0010
0001
0100
,  // measure 36
1010
1100
0101
1001
,  // measure 37
0010
0100
1000
0100
,  // measure 38
1001
0100
0010
1000
,  // measure 39
0110
0001
0010
0100
,  // measure 40
1001
0110
1001
0100
,  // measure 41
0010
1000
0001
0100
,  // measure 42
0010
0000
1000
0001
,  // measure 43
0100
0010
1000
0100
,  // measure 44
0110
1001
0110
0100
,  // measure 45
0001
1000
0010
0100
,  // measure 46
0011
1000
0100
0001
,  // measure 47
1100
0001
0100
1000
,  // measure 48
0101
1100
0101
1000
,  // measure 49
0100
0001
0100
0010
,  // measure 50
0011
0000
1010
0000
,  // measure 51
0101
0000
1010
0000
,  // measure 52
0220
0000
0000
0330
,  // measure 53
2001
0010
0100
3010
,  // measure 54
1002
0010
0100
0013
,  // measure 55
0120
1000
0100
1030
,  // measure 56
1010
0011
1010
0100
,  // measure 57
0010
0001
1000
0010
,  // measure 58
1000
0000
0001
0100
,  // measure 59
0010
1000
0100
1000
,  // measure 60
0010
0010
0010
0000
,  // measure 61
1001
0000
0000
0000
;

//---------------dance-single - C. Picardy----------------
#NOTES:
     dance-single:
     :
     Hard:
     7:
     0.479243,0.485869,0.224896,0.074965,0.107763,358.000000,334.000000,24.000000,8.000000,0.000000,3.000000,0.479243,0.485869,0.224896,0.074965,0.107763,358.000000,334.000000,24.000000,8.000000,0.000000,3.000000:
0000
0000
0000
0000
,
0000
0000
0000
0000
,
0000
0000
0000
0000
,
0000
0000
0000
0000
,
1001
0000
1000
0100
0001
0000
0001
0100
,
1000
0000
1000
0010
0001
0000
0001
0010
,
1000
0000
1000
0100
0010
0000
0001
0000
,
1000
1000
1000
0000
,
0000
0010
0000
0010
0100
0000
0100
0010
,
0100
0000
0000
0001
1000
0000
0001
0100
,
0010
0000
0010
1000
0100
0000
0010
0000
,
0001
0001
0001
0000
,
0001
0000
0001
0100
0010
0000
0010
0100
,
0001
0000
0001
0100
1000
0000
1000
0100
,
0001
0000
0001
0100
0010
0000
1000
0000
,
0100
0100
0110
0000
,
0000
0010
0000
0010
0100
0000
0100
1000
,
0010
0000
0000
1000
0001
0000
0010
0100
,
1000
0000
0010
0100
0001
0000
0010
0000
,
0100
1000
2200
0000
,
0000
0000
3300
0000
,
1100
0000
1000
0100
0010
0100
0001
0100
,
1000
0000
0000
0100
1000
0100
0010
0100
,
1000
0000
1000
0100
0010
0001
0010
0000
,
0100
0000
0010
0000
0100
0000
0010
0001
,
0000
0000
0001
0000
0000
0000
1000
0000
0100
0000
0000
0100
0010
0000
0001
0000
,
0001
0000
0000
0001
0100
0100
0010
0010
,
1000
0000
0010
0100
0110
0000
0110
0000
,
1001
0000
0001
0100
0010
1000
2002
3003
,
1001
0000
0100
0010
0100
0010
1000
0100
,
0010
0000
0001
0010
0001
0100
0010
1000
,
0100
0000
1000
0100
0001
0100
1000
0000
,
0101
1100
0101
1000
,
0101
0000
0010
0000
1000
0010
0100
0010
,
1000
0000
0010
1000
0010
0010
1000
1000
,
0100
0000
1000
0001
1000
0100
0010
0100
,
0010
0100
0010
0100
0120
0000
0031
0000
,
1000
0000
0000
1000
0010
0000
0000
0010
1000
0000
0000
1000
0100
0000
0000
0100
,
1000
0000
0000
1000
0001
0000
0000
0001
1000
0000
0000
1000
0100
0000
0000
0100
,
0010
0000
0000
0010
0100
0000
0000
0100
0010
0000
0000
0010
0100
0000
0000
0000
,
1001
0000
0110
0000
1001
0000
0001
0100
,
0010
0000
0000
0010
0100
0000
0000
0100
0001
0000
0000
0001
1000
0000
0000
1000
,
0001
0000
0000
0001
1000
0000
0000
1000
0001
0000
0000
0001
0100
0000
0000
0100
,
0010
0000
0000
0010
0100
0000
0000
0100
0010
0000
0000
0010
1000
0000
0000
0000
,
1010
0000
0011
0000
1010
0000
0001
0100
,
0010
0100
0010
0100
0010
1000
0010
1000
,
0001
1000
0001
1000
0100
1000
0100
1000
,
0100
0010
0100
0010
0001
0010
0001
0010
,
0001
0000
0100
0000
0110
0000
0100
0010
,
1000
0000
1000
0010
0100
0010
0001
0010
,
0100
0010
0000
0010
1000
0010
0100
0010
,
1000
0000
0100
0010
0001
0000
0202
0000
,
0010
1000
1010
0303
,
0001
0001
0100
0100
0010
0010
1000
1000
,
0010
0010
1000
1000
0001
0001
1000
1000
,
0100
0100
0010
0010
0100
0100
0010
0010
,
0001
0001
1000
1000
0001
0001
1000
0100
,
0010
0000
0001
0010
0100
1000
0100
0010
,
0001
0000
0000
1000
0100
0001
0100
1000
,
0010
0000
0100
0001
0010
0000
0002
0000
,
0100
0010
1003
0000
,
1001
0000
0000
0000
;

//---------------dance-single - C. Picardy----------------
#NOTES:
     dance-single:
     :
     Medium:
     6:
     0.385536,0.428708,0.206155,0.037483,0.000000,288.000000,266.000000,22.000000,4.000000,0.000000,0.000000,0.385536,0.428708,0.206155,0.037483,0.000000,288.000000,266.000000,22.000000,4.000000,0.000000,0.000000:
0000
0000
0000
0000
,
0000
0000
0000
0000
,
0000
0000
0000
0000
,
0000
0000
0000
0000
,
0010
0100
0010
0001
,
1000
0010
0100
0001
,
1000
0100
0010
0100
,
1000
1000
1000
0000
,
0000
0001
0000
0001
1000
0000
0001
1000
,
0001
0000
0000
1000
0001
0000
1000
0000
,
0100
0010
0001
0100
,
0010
0010
0010
0000
,
1000
0000
0000
0010
1000
0000
0000
0001
,
0100
0000
0000
0001
1000
0000
0000
0100
,
0010
0000
0000
0001
0010
0000
0001
0000
,
0100
0100
0100
0000
,
0000
1000
0000
0100
1000
0000
0100
1000
,
0001
0000
0000
0100
0010
0000
1000
0001
,
0100
0000
0010
1000
0001
0000
0010
0000
,
0100
0100
0010
0000
0022
0000
0000
0000
,
0000
0000
0033
0000
,
1001
0000
0001
0100
0001
0000
0100
0001
,
0100
0000
0000
0010
0100
0000
0010
1000
,
0010
0000
1000
0001
0100
0000
0010
0000
,
1000
1000
1000
0100
,
0000
0010
0000
0010
0001
0000
0010
0001
,
0010
0000
0000
0100
1000
0000
0100
0010
,
0001
0000
1000
0001
0100
0000
0010
0000
,
2000
0010
0100
3010
,
1000
0001
0100
0010
,
1010
0001
1000
0100
,
0011
0000
0001
0100
1000
0000
0100
0000
,
0110
0000
1010
0000
1001
0000
0100
0010
,
0100
0010
1000
1001
,
0101
0000
0000
1000
0100
0000
0010
0100
,
1000
0000
0001
0100
0010
0000
1000
0000
,
0001
1000
0001
0100
0001
0000
0110
0000
,
1001
0000
0001
0100
0001
0000
0001
1000
,
0001
0000
0001
0010
0001
0000
0001
1000
,
0001
0000
1000
0100
1000
0001
1000
0000
,
0110
0000
1100
0000
0110
0000
1000
0100
,
0001
0000
1000
0100
1000
0000
1000
0001
,
1000
0000
1000
0010
1000
0000
1000
0001
,
1000
0000
1000
0100
0010
0000
0001
0000
,
1100
0000
1001
0000
0101
0000
0001
0100
,
1000
0000
1000
0100
0001
0000
0001
0100
,
0010
0000
0010
0100
0001
0000
0001
0010
,
0100
0000
0100
0010
0001
0100
0010
0000
,
1001
0000
0110
0000
1001
0000
0010
0100
,
0010
0100
0010
1000
,
0010
1000
0000
0010
0100
0000
0001
1000
,
0001
0000
1000
0001
1000
0000
0100
0000
,
0120
0001
0100
0030
,
0001
0000
0100
0001
0100
0001
0100
0000
,
0010
0000
1000
0010
1000
0010
1000
0000
,
0100
0000
0010
0100
0010
0100
0010
0000
,
0001
0000
1000
0000
0100
0000
0100
0100
,
0010
0001
0010
0001
,
1000
0000
0010
1000
,
1000
0010
0100
0100
,
0001
0100
0010
0000
,
0101
0000
0000
0000
;

//---------------dance-single - C. Picardy----------------
#NOTES:
     dance-single:
     :
     Challenge:
     9:
     0.591691,0.771674,0.402939,1.124480,0.187413,442.000000,399.000000,43.000000,120.000000,31.000000,5.000000,0.591691,0.771674,0.402939,1.124480,0.187413,442.000000,399.000000,43.000000,120.000000,31.000000,5.000000:
0000
0000
0000
0000
,
0000
0000
0000
0000
,
0000
0000
0000
0000
,
0000
0000
0000
0000
,
0020
0000
0000
0030
10M0
0000
0100
0000
0020
0000
0000
0030
00M1
0000
0100
0000
,
2000
0000
0000
3000
M100
0000
0010
0000
2000
0000
0000
3000
M100
0000
1000
0000
,
0020
0000
0000
0030
01M0
0000
0001
0000
0020
0000
0000
0000
0230
0000
0000
0000
,
2300
0200
0001
3300
,
0000
0020
0030
0002
2003
3000
0002
0203
,
2300
3000
0000
0200
0302
0003
2000
3020
,
0230
0300
0002
0203
0320
0030
2000
3000
,
0200
0020
0001
0330
,
0001
0000
0000
0010
0100
0000
0010
0000
0001
0000
0000
0010
0100
0000
0010
0000
,
1000
0000
0000
0010
1000
0000
0010
0000
0100
0000
0000
0010
0001
0000
0010
0000
,
0100
0000
0000
0010
0100
0000
0010
0000
0001
0000
0002
0000
0100
0000
0203
0000
,
1000
2300
0100
3200
0002
0300
0013
0100
,
1000
0000
0010
0000
0010
0000
0000
1000
0010
0000
0010
0000
1000
0000
0000
0000
,
0010
0000
1000
0000
1000
0000
0000
1000
0001
0000
1000
0000
1000
0000
0000
0000
,
0100
0001
0001
0100
0010
0010
1000
1000
,
1001
0100
0010
0100
0001
0000
010M
0000
,
0110
0000
1MMM
M000
,
1MM1
0000
0000
0000
1000
0000
0100
0000
0010
0000
0001
0000
0020
0000
0200
0030
,
2000
0300
0000
3000
0000
0000
0001
0000
0100
0000
0010
0000
2000
0000
0200
3000
,
0020
0300
0000
0030
0001
0000
0100
0000
2000
0000
0200
3000
0002
0300
0000
0003
,
2002
0000
0000
3003
2200
0000
0000
3300
0220
0000
0000
0330
0001
0000
0202
0000
,
0000
0303
0220
0000
0000
0330
2000
0000
0002
3000
0000
0103
0010
0000
2000
0000
,
0200
0000
0000
0000
3300
0000
2000
0000
0100
3000
0002
0000
0100
0003
2000
0000
,
0001
000M
3010
1000
0001
1100
0001
1100
,
0202
0000
0010
0000
1000
0000
1010
0303
,
0001
0100
0110
1000
0010
1000
1010
0100
,
0010
1000
1010
0001
1000
0100
1100
0010
,
0001
1000
1001
0100
0001
0100
0101
0010
,
1000
0010
1010
1000
0001
0100
0101
0110
,
1000
0001
0100
0001
1000
0001
0010
0001
,
1000
0001
0010
0001
1000
0010
0100
0010
,
1000
0001
0100
0000
0001
1000
0010
0000
1000
0001
0100
0000
0001
1000
0100
0000
,
1000
0001
1000
0001
1000
0001
4000
0004
0000
0000
0000
3003
1001
0000
M00M
0000
,
0110
0000
0000
0000
1000
0000
0001
0000
0100
0010
1000
0000
0100
0000
0010
0000
,
0011
0000
0000
0000
1000
0000
0100
0000
0010
0100
1000
0000
0100
0000
0010
0000
,
0110
0000
0000
0000
0001
0000
1000
0000
0100
0010
0001
0000
1000
0000
0010
0000
,
0220
0000
0000
0330
0202
0000
0000
0303
2002
0000
0000
3003
0100
0000
0001
0000
,
0220
0000
0000
0330
0100
0000
0010
0000
1000
0001
0100
0000
0001
1000
0100
0000
,
2002
0000
0000
0000
3003
0000
1000
0000
0001
1000
0100
0000
1000
0001
0100
0000
,
0220
0000
0000
0330
1000
0000
0010
0000
0100
0010
1000
0000
0001
0100
0010
0000
,
2020
0000
0000
3030
2002
0000
0000
3003
0202
0000
0000
0303
1000
0000
0001
0000
,
0010
0100
1000
0000
0001
0000
0100
0000
0010
0000
1000
0000
0100
0000
0010
0000
,
0100
1000
0010
0000
0100
0000
0001
0000
1000
0000
0100
0000
0010
0001
0100
0000
,
0010
1000
0001
0000
1000
0100
0010
0000
0001
0010
0100
0000
1000
0100
0010
0000
,
0022
0000
0000
0033
2002
0000
0000
3003
2200
0000
0000
3300
1000
0000
0100
0000
,
0220
0000
0000
0330
0002
0000
0100
0003
2M00
0000
0100
3000
0M02
0000
1000
0003
,
M020
0000
2000
0030
0000
3000
2000
0000
0100
0000
3M02
0000
0100
0000
2003
0000
,
0010
0000
30M0
0000
1M00
00M1
1000
0000
0MM1
1000
0001
0000
1MM0
0001
1000
0000
,
00M1
1000
0100
1000
00M1
1000
0100
1000
00M1
1000
0001
0000
1001
0000
1001
0000
,
0002
0000
0200
0003
0002
0300
0200
0003
0020
0300
0200
0030
0020
0300
0200
0030
,
2000
0300
0200
3000
2000
0300
0200
3000
0002
0300
0020
0003
0002
0030
0020
0003
,
2000
0030
0020
3000
2000
0030
0020
3000
0200
0030
0002
0300
0200
0003
0002
0300
,
0200
0003
0000
0000
2300
0000
0000
0000
3020
0000
0000
0000
0130
0000
0001
0000
,
0011
0000
1000
0010
0100
0010
1000
0100
,
0010
0000
0000
0001
0010
0001
0010
0100
,
1000
0000
0001
0100
1000
0000
0100
0000
,
0101
0010
0001
0000
,
11MM
0000
0000
0000
;
