#TITLE:Techno Dream;
#SUBTITLE:(Speedcore Bass Mix);
#ARTIST:Cashius Clay;
#TITLETRANSLIT:;
#SUBTITLETRANSLIT:;
#ARTISTTRANSLIT:;
#GENRE:;
#CREDIT:;
#BANNER:technodreambn.png;
#BACKGROUND:technodreambg.png;
#LYRICSPATH:;
#CDTITLE:;
#MUSIC:technodream.ogg;
#OFFSET:-0.000916;
#SAMPLESTART:34.555458;
#SAMPLELENGTH:14.000003;
#SELECTABLE:YES;
#BPMS:0.000000=166.619995
,28.000000=83.309998
,30.000000=333.239990
,86.000000=83.309998
,88.000000=333.239990
,144.000000=166.619995
,148.000000=333.239990
,276.000000=166.619995
,340.000000=83.309998
,356.000000=333.239990
,548.000000=166.619995
;
#STOPS:
;
#BGCHANGES:16.000=spacetravel.mp4=1.000=0=0=1=SongBgWithMovieViz==CrossFade_Fastest==,
29.000=technodreambg.png=1.000=1=0=1===CrossFade==,
30.000=flash=1.600=0=0=1=====,
30.250=spacetravel.mp4=2.000=0=1=1=StretchRewind====,
86.000=spacetravel.mp4=0.500=1=0=1=SongBgWithMovieViz==CrossFade==,
87.000=technodreambg.png=1.000=0=0=1===CrossFade_Fastest==,
88.000=flash=1.600=0=0=1=====,
88.250=Datastream.mp4=2.000=0=1=1=StretchRewind====,
144.000=Datastream.mp4=0.700=1=0=1=SongBgWithMovieViz==CrossFade==,
146.000=technodreambg.png=1.000=0=0=1===CrossFade_Fastest==,
148.000=flash=1.600=0=0=1=====,
148.250=tunnellights.mp4=2.000=0=1=1=StretchRewind====,
204.000=technodreambg.png=1.000=0=0=1=====,
205.500=technodreambg.png=1.000=0=0=1====#FFFFFF80=,
207.000=technodreambg.png=1.000=0=0=1=====,
208.000=technodreambg.png=1.000=0=0=1====#FF00FF=,
208.500=technodreambg.png=1.000=0=0=1====#00FFFF=,
209.000=technodreambg.png=1.000=0=0=1====#FFFF00=,
210.000=technodreambg.png=1.000=0=0=1====#0000FF=,
211.000=technodreambg.png=1.000=0=0=1====#00FF00=,
212.000=flash=1.600=0=0=1=====,
212.250=flaretunnel.mp4=2.000=0=1=1=StretchRewind====,
268.000=flash=1.000=0=0=1=====,
268.250=technodreambg.png=1.000=0=0=1=====,
272.000=flash=3.000=0=0=1=====,
272.500=flash=3.000=0=0=1=====,
273.000=flash=3.000=0=0=1=====,
273.250=technodreambg.png=1.000=0=0=1=====,
274.000=flash=3.000=0=0=1=====,
274.250=technodreambg.png=1.000=0=0=1=====,
275.000=flash=3.000=0=0=1=====,
275.250=technodreambg.png=1.000=0=0=1=====,
276.000=flash=1.600=0=0=1=====,
276.250=tunnellights.mp4=1.000=0=1=1=StretchRewind====,
304.000=tunnellights.mp4=1.000=0=0=1=Checkerboard1File2x2===#FF00FF=,
305.000=tunnellights.mp4=1.000=0=0=1=Checkerboard1File2x2===#FF0000=,
306.000=tunnellights.mp4=1.000=0=0=1=Checkerboard1File2x2===#0000FF=,
307.000=tunnellights.mp4=1.000=0=0=1=Checkerboard1File2x2===#00FF00=,
308.000=flash=1.600=0=0=1=====,
308.250=tunnellights.mp4=1.000=0=0=1=====,
340.000=flash=1.000=0=0=1=====,
340.250=spacetravel.mp4=0.500=0=1=1=StretchRewind====,
356.000=flash=1.600=0=0=1=====,
356.250=Datastream.mp4=2.000=0=1=1=StretchRewind====,
420.000=flash=1.600=0=0=1=====,
420.250=flaretunnel.mp4=2.000=0=1=1=StretchRewind====,
484.000=flash=1.600=0=0=1=====,
484.250=spacetravel.mp4=2.000=0=1=1=StretchRewind====,
548.000=flash=1.000=0=0=1=====,
548.250=technodreambg.png=1.000=0=0=1=====,
99999=-nosongbg-=1.000=0=0=0 // don't automatically add -songbackground-
;
#KEYSOUNDS:;
#ATTACKS:;

//---------------dance-single - C. Picardy----------------
#NOTES:
     dance-single:
     :
     Beginner:
     2:
     0.113013,0.210445,0.092166,0.015361,0.000000,103.000000,91.000000,12.000000,2.000000,0.000000,0.000000,0.113013,0.210445,0.092166,0.015361,0.000000,103.000000,91.000000,12.000000,2.000000,0.000000,0.000000:
0000
0000
0000
0000
,
0000
0000
0000
0000
,
0000
0000
0000
0000
,
0000
0000
0000
0000
,
1000
0000
0000
0000
,
0001
0000
0000
0000
,
1000
0000
0000
0000
,
0001
0000
0100
0000
,
0000
0000
0000
0000
,
0000
0000
0010
0000
,
0000
0000
0000
0000
,
0000
0000
0100
0000
,
0000
0000
0000
0000
,
0000
0000
0010
0000
,
0000
0000
0000
0000
,
0000
0000
1000
0000
,
0000
0000
0000
0000
,
0000
0000
0001
0000
,
0000
0000
0000
0000
,
0000
0000
1000
0000
,
0000
0000
0000
0000
,
0000
0000
0001
0000
,
1000
0000
0000
0000
,
1000
0000
0000
0000
,
0001
0000
0000
0000
,
0001
0000
0000
0000
,
0100
0000
0000
0000
,
0100
0000
0000
0000
,
0010
0000
0000
0000
,
0010
0000
0000
0000
,
1000
0000
0000
0000
,
0001
0000
0000
0000
,
1000
0000
0000
0000
,
0001
0000
0000
0000
,
0100
0000
0000
0000
,
0010
0000
0000
0000
,
0100
0000
0000
0000
,
0010
0000
0000
0000
,
0000
0000
0000
0000
,
1000
0000
0000
0000
,
0000
0000
0000
0000
,
0001
0000
0000
0000
,
0000
0000
0000
0000
,
0100
0000
0000
0000
,
0000
0000
0000
0000
,
0010
0000
0000
0000
,
0000
0000
0000
0000
,
1000
0000
0000
0000
,
0000
0000
0000
0000
,
0001
0000
0000
0000
,
0000
0000
0000
0000
,
0100
0000
0000
0000
,
0000
0000
0000
0000
,
1001
0000
0000
0000
,
0000
0000
0000
0000
,
1001
0000
0000
0000
,
0000
0000
0000
0000
,
1001
0000
0000
0000
,
0000
0000
0000
0000
,
1001
0000
0000
0000
,
0000
0000
0000
0000
,
0110
0000
0000
0000
,
0000
0000
0000
0000
,
0110
0000
0000
0000
,
0000
0000
0000
0000
,
0110
0000
0000
0000
,
0000
0000
0000
0000
,
0220
0000
0330
0000
,
0000
0000
0000
0000
,
1000
0000
0000
0000
,
1000
0000
0000
0000
,
0001
0000
0000
0000
,
0001
0000
0000
0000
,
0100
0000
0000
0000
,
0100
0000
0000
0000
,
0010
0000
0000
0000
,
0010
0000
0000
0000
,
1001
0000
0000
0000
,
0100
0000
0000
0000
,
0010
0000
0000
0000
,
1000
0000
0000
0000
,
0001
0000
0000
0000
,
0100
0000
0000
0000
,
0010
0000
0000
0000
,
1000
0000
0000
0000
,
0001
0000
0000
0000
,
0100
0000
0000
0000
,
0010
0000
0000
0000
,
1000
0000
0000
0000
,
0001
0000
0000
0000
,
0000
0000
0000
0000
,
1000
0000
0000
0000
,
0000
0000
0000
0000
,
0001
0000
0000
0000
,
0000
0000
0000
0000
,
1000
0000
0000
0000
,
0000
0000
0000
0000
,
0010
0000
0000
0000
,
0000
0000
0000
0000
,
0100
0000
0000
0000
,
0000
0000
0000
0000
,
0010
0000
0000
0000
,
0000
0000
0000
0000
,
0100
0000
0000
0000
,
0000
0000
0000
0000
,
1001
0000
0000
0000
,
0000
0000
0000
0000
,
0100
0000
0000
0000
,
0000
0000
0000
0000
,
1001
0000
0000
0000
,
0000
0000
0000
0000
,
0010
0000
0000
0000
,
0000
0000
0000
0000
,
1000
0000
0000
0000
,
1000
0000
0000
0000
,
0001
0000
0000
0000
,
0001
0000
0000
0000
,
0100
0000
0000
0000
,
0100
0000
0000
0000
,
0010
0000
0000
0000
,
0000
0000
0000
0000
,
1000
0000
0000
0000
,
0000
0000
0000
0000
,
0001
0000
0000
0000
,
0000
0000
0000
0000
,
1000
0000
0000
0000
,
0000
0000
0000
0000
,
0001
0000
0000
0000
,
0000
0000
0000
0000
,
0100
0000
0000
0000
,
0000
0000
0000
0000
,
0010
0000
0000
0000
,
0000
0000
0000
0000
,
0100
0000
0000
0000
,
0000
0000
0000
0000
,
0010
0000
0000
0000
,
0000
0000
0000
0000
,
1001
0000
0000
0000
;

//---------------dance-single - C. Picardy----------------
#NOTES:
     dance-single:
     :
     Challenge:
     13:
     1.257406,2.970430,0.975422,0.069124,0.576037,1146.000000,1019.000000,127.000000,9.000000,70.000000,0.000000,1.257406,2.970430,0.975422,0.069124,0.576037,1146.000000,1019.000000,127.000000,9.000000,70.000000,0.000000:
0000
0000
0000
0000
,
0000
0000
0000
0000
,
0000
0000
0000
0000
,
0000
0000
0000
0000
,
0100
0000
0010
0100
0000
0000
0010
0100
0000
0001
0100
0000
0010
1000
0010
0000
,
1000
0000
0001
1000
0000
0000
0001
1000
0000
0001
1000
0000
0010
0100
0010
0000
,
1000
0000
1000
0100
0000
0000
0100
0010
0000
0010
0001
0000
1001
0000
M00M
0000
,
0001
0100
0000
0010
0000
1000
0001
0000
1000
0001
0100
0000
0010
0000
1010
0000
1MM1
0000
0000
0000
0000
0000
0000
0000
0001
0000
0000
0000
0100
0000
0000
0000
,
0000
0100
0010
1000
0010
0100
0001
0000
,
1100
0000
0101
0000
0001
0010
0100
1000
,
0000
0001
0100
0010
1000
0100
0010
0000
,
0011
0000
1010
0000
0001
0100
0010
1000
,
0000
1000
0100
0010
0001
0010
0100
0000
,
0011
0000
0110
0000
1000
0001
0100
0010
,
0000
1000
0001
0100
0010
1000
0100
0000
,
0110
0000
1001
0000
0001
0010
0100
1000
,
0000
0001
0100
1000
0100
0001
1000
0000
,
1010
0000
0110
0000
0001
0010
1000
0100
,
0000
0001
0100
0010
0001
0100
0010
0000
,
1010
0000
0101
0000
0001
0010
1000
0010
,
0000
0001
0100
1000
0100
0001
0010
0000
,
1100
0000
0000
0000
0000
0000
0000
0000
0101
0000
0000
0000
0000
0000
0000
0000
1000
0100
0000
1000
0000
0100
0010
0000
0001
0010
0100
0000
1100
0000
0110
0000
,
0001
0010
0100
1000
0100
0010
0001
0000
,
1000
0100
0010
0000
0011
0000
0101
0000
,
0001
0100
0010
1000
0010
0100
0001
0000
,
0010
0001
0100
0000
1010
0000
0110
0000
,
0001
1000
0100
0010
0001
0100
0010
0000
,
1000
0100
0010
0000
0011
0000
1100
0000
,
0010
0100
1000
0001
0100
0010
0100
0000
,
0010
1000
0100
0000
0110
0000
1001
0000
,
1000
0100
0001
0100
0010
0001
0100
0000
,
0010
1000
0100
0000
0110
0000
0011
0000
,
0001
0100
1000
0100
0010
1000
0100
0000
,
0001
0100
1000
0000
1010
0000
0110
0000
,
0001
0010
0100
0010
0001
0010
1000
0000
,
0001
0100
1000
0000
0110
0000
0101
0000
,
2000
0000
0000
3002
M000
0000
1003
000M
M001
0100
0010
0000
0110
0000
0101
0000
,
1000
0001
0100
0010
1000
0100
0010
0001
,
0100
0010
0100
0000
0101
0000
1100
0000
,
0001
0010
0100
1000
0010
0100
0001
0010
,
0100
0010
0100
0000
1100
0000
0101
0000
,
0001
0100
0010
1000
0100
0010
0001
0100
,
0010
1000
0100
0000
0011
0000
1100
0000
,
0001
0010
0100
0010
0001
0100
0010
1000
,
0100
0010
0001
0000
0101
0000
1010
0000
,
0010
0100
0001
0100
1000
0001
0010
1000
,
0100
0010
1000
0000
0110
0000
0011
0000
,
1000
0100
0001
0100
0010
0001
0100
1000
,
0001
0010
1000
0000
0101
0000
1100
0000
,
0001
0010
1000
0010
0100
0001
0100
1000
,
0010
0100
0001
0000
1100
0000
0101
0000
,
1000
0100
0010
MM01
0000
0100
M1M1
0000
,
1000
0010
1M1M
0000
M1M1
0000
1MM1
0000
,
1000
0100
1000
0100
0001
0100
0001
0100
,
1000
0010
1000
0010
0001
0010
0001
0010
,
0100
0001
0100
0001
0010
0100
0010
0100
,
0010
1000
0010
1000
0010
0001
0010
0001
,
1000
0100
1000
0100
0001
0100
0001
0100
,
1000
0010
1000
0010
0001
0010
0001
0010
,
0100
0001
0100
0001
0010
1000
0010
1000
,
0010
0001
0010
0001
0100
0010
0100
0010
,
1000
0001
0100
0010
1000
0100
0010
0001
,
0100
0010
0100
0001
0010
0100
1000
0010
,
0100
0010
1000
0001
0100
0010
1000
0100
,
0010
0001
0100
0010
0100
0010
1000
0001
,
0100
0010
1000
0001
0010
0100
1000
0010
,
0100
0010
1000
0001
0100
0010
1000
0100
,
0120
0M00
0M00
0M30
,
0001
0100
0010
0000
1001
0000
0100
0010
,
1000
0010
0000
0100
1000
0000
0100
0001
0100
0010
1000
0000
1100
0000
0101
0000
,
0001
0100
0000
0100
0010
0000
0001
0010
1000
0010
0001
0000
0101
0000
0110
0000
,
0001
0010
0000
0010
1000
0000
0100
0010
1000
0010
0100
0000
0011
0000
0101
0000
,
0100
0000
1000
0000
0000
0000
0100
0000
0001
0000
0000
0000
0100
0000
1000
0000
0100
0000
0010
0000
1000
0000
0000
0000
1001
0000
0000
0000
0100
0001
0100
0001
,
0010
0100
0000
0100
1000
0000
0100
0001
0100
0010
0100
0000
1100
0000
0110
0000
,
0001
0010
0000
0010
0100
0000
1000
0100
0001
0100
1000
0000
1010
0000
0110
0000
,
0001
0100
0000
0100
1000
0000
0100
0001
0010
0100
0010
0000
0011
0000
0110
0000
,
1MM0
0001
0000
0100
M01M
0000
0MM0
1000
0001
0100
M0M0
0001
0101
0000
M11M
0000
,
1000
0001
0100
0010
1000
0100
0010
0100
1000
0001
0100
0000
1010
0000
0101
0000
,
0001
0010
0100
0010
0001
0100
0010
0100
0010
1000
0001
0000
1100
0000
0101
0000
,
1000
0001
0100
0010
0100
0001
1000
0100
0010
0100
1000
0000
0110
0000
1100
0000
,
0001
0000
0010
0000
0100
0000
1000
0000
0100
0000
0010
0000
0001
0000
0100
0000
0010
0000
1000
0000
0001
0000
0000
0000
0011
0000
0000
0000
1000
0100
1000
0100
,
0010
0001
0010
1000
0010
0100
1000
0010
0100
1000
0100
0000
0101
0000
0011
0000
,
0001
0100
1000
0100
0010
1000
0100
0010
1000
0010
0001
0000
1100
0000
1010
0000
,
0100
0010
0001
0010
0100
0001
0010
1000
0010
0001
0100
0000
0011
0000
1100
0000
,
0001
0010
0100
1000
1100
0000
0100
0010
0110
0010
0001
0100
0101
0100
0010
1000
,
0002
M000
00M0
M000
,
02M0
0000
0000
0000
0000
0000
0000
0000
0000
0000
0000
0000
0000
0000
0000
0000
M000
0000
0000
0000
0000
0000
0000
0000
0000
0000
0000
0000
0000
0000
0000
0000
00M0
0000
0000
0000
0000
0000
0000
0000
0000
0000
0000
0000
0000
0000
0000
0000
M000
0000
0000
0000
0000
0000
0000
0000
0000
0000
0000
0000
0303
0001
0010
0100
,
1000
0100
1000
0100
0001
0100
0001
0100
1000
0010
1000
0010
0100
0001
0100
0001
0010
0100
0010
0100
0001
0100
0001
0100
1000
0100
1000
0100
0010
0001
0010
0001
,
1000
0001
0100
0010
1000
0100
0010
0100
1000
0001
0100
0010
1000
0001
0100
0010
2MM2
0000
0000
0000
0MM0
0000
0000
0000
3MM3
0000
0000
0000
1001
0000
0001
0100
,
0010
1000
0000
1000
0001
0100
0010
1000
,
0100
0010
0001
0000
0101
0000
0110
0000
,
1000
0001
0000
0001
1000
0010
0100
0001
,
0010
0100
1000
0000
0110
0000
1100
0000
,
0001
0010
0000
0010
0100
0010
0001
0100
,
0010
1000
0100
0000
0011
0000
0101
0000
,
1000
0001
0000
0001
0100
0010
1000
0001
,
0100
0010
1000
0000
0101
0000
1100
0000
,
0001
0100
0000
0100
0010
0001
0100
1000
,
0100
0010
1000
0000
1010
0000
0110
0000
,
0001
0010
0000
0010
0001
0010
1000
0100
,
0001
0100
1000
0000
0101
0000
1100
0000
,
0001
0010
0000
0010
1000
0010
0001
0100
,
1000
0100
0001
0000
1010
0000
0110
0000
,
0001
0011
0000
0110
0000
1000
1100
0000
,
0001
0100
0101
0000
1000
0010
1010
0000
,
0001
0100
0001
0100
1000
0100
1000
0100
,
0010
0100
0010
0100
0010
1000
0010
1000
,
0100
0001
0100
0001
0100
0010
0100
0010
,
0100
1000
0100
1000
0001
0010
0001
0010
,
0100
0010
0100
0010
0100
1000
0100
1000
,
0001
0100
0001
0100
1000
0100
1000
0100
,
0010
0001
0010
0001
0010
1000
0010
1000
,
0001
0100
0001
0100
0010
1000
0010
1000
,
0001
0010
0100
1000
0001
0100
0010
0100
,
0001
1000
0100
0010
0100
1000
0001
0100
,
0010
1000
0100
0010
0001
0010
0100
0010
,
0001
0100
0010
1000
0001
0100
0010
0100
,
0001
0010
0100
1000
0010
0100
0010
1000
,
0001
0010
0100
0010
0001
0100
0010
1000
,
01MM
1000
01MM
1000
01MM
1000
01MM
1000
,
01MM
1000
01MM
0000
M11M
0000
MMM1
0000
,
M1M1
0000
1000
0100
1100
0000
0001
0010
,
0011
1000
1010
0100
,
1001
0000
0001
0010
0011
0000
1000
0010
,
1010
0001
1010
0001
,
1100
0000
0001
0100
0101
0000
0100
0010
,
0110
1000
0101
0010
,
1001
0000
0001
1000
1001
0000
1000
0001
,
1001
0010
1001
0100
,
0001
0010
0001
0010
0100
1000
0100
1000
,
0001
0100
0001
0100
0010
1000
0010
1000
,
0100
1000
0100
1000
0010
0100
0010
0100
,
0001
0010
0001
0010
0100
1000
0100
1000
,
0001
0010
0100
1000
0001
0100
0010
0100
,
0001
1000
0100
0010
0100
1000
0001
0100
,
0010
0000
0010
1000
0000
0000
1MM1
0000
,
0001
0010
MM11
0000
1MM1
0000
0001
2000
,
0200
0000
0000
0000
,
3300
MM00
0000
0000
0000
0000
0000
0000
;

//---------------dance-single - C. Picardy----------------
#NOTES:
     dance-single:
     :
     Hard:
     11:
     0.940312,2.172811,0.276498,0.138249,0.376344,857.000000,821.000000,36.000000,18.000000,6.000000,0.000000,0.940312,2.172811,0.276498,0.138249,0.376344,857.000000,821.000000,36.000000,18.000000,6.000000,0.000000:
0000
0000
0000
0000
,
0000
0000
0000
0000
,
0000
0000
0000
0000
,
0000
0000
0000
0000
,
0001
0000
0001
0100
0000
0100
0010
0000
0000
0000
1000
0000
0001
1000
0001
0000
,
1000
0000
1000
0100
0000
0100
0010
0000
0000
0000
0001
0000
1000
0001
1000
0000
,
0010
0000
0010
0100
0000
0100
0001
0000
0000
0001
1000
0000
1100
0000
0000
0000
,
1000
0100
0000
1000
0000
0001
1000
0000
0001
0100
0001
0000
1000
0000
0100
0000
1000
0000
0000
0000
0100
0000
0000
0000
0000
0000
0000
0000
0010
0000
0000
0000
,
0000
0100
1000
0000
0001
0100
0010
0000
,
1000
0000
0001
0000
0010
0100
0000
1000
,
0000
0001
0100
0000
0010
1000
0100
0000
,
0010
0000
0001
0000
1000
0010
0000
0100
,
0000
0001
1000
0000
0100
0010
0001
0000
,
0100
0000
0010
0000
1000
0001
0000
0010
,
0000
0100
0010
0000
0100
0010
0001
0000
,
1000
0000
0010
0000
1000
0001
0000
0100
,
0000
0100
0010
0000
1000
0100
0010
0000
,
0001
0000
0011
0000
1000
0100
0000
1000
,
0000
0010
0100
0000
0001
0100
0010
0000
,
1000
0000
1010
0000
0100
0001
0000
1000
,
0000
0100
0010
0000
0100
1000
0001
0000
,
1000
0000
0000
0000
0000
0000
0000
0000
1100
0000
0000
0000
0000
0000
0000
0000
0001
0100
0000
0001
0000
0100
0001
0000
1000
0001
1000
0000
0010
0000
0100
0000
,
0010
1000
0010
1000
0000
0001
0100
0000
,
0010
1000
0001
0000
0010
0000
0100
0000
,
1000
0100
1000
0100
0000
0010
0001
0000
,
1000
0010
0100
0000
0001
0000
1000
0000
,
0100
0010
0100
0010
0000
0001
0010
0000
,
0100
0010
0001
0000
0100
0000
0010
0000
,
0100
0001
0100
0001
0000
0010
0100
0000
,
1000
0010
0100
0000
0001
0000
1000
0000
,
0001
0010
0100
1000
0000
0010
0100
0000
,
0001
0010
0100
0000
1000
0000
0100
0000
,
0010
0100
1000
0010
0000
0100
0001
0000
,
1000
0100
0010
0000
0001
0000
1000
0000
,
0010
0100
0001
1000
0000
0010
0100
0000
,
0001
0010
0100
0000
1000
0000
0001
0000
,
2000
0000
0000
3002
0000
0000
1003
0000
0001
0100
0001
0000
0100
0000
0010
0000
,
2000
0000
0000
3002
0000
0000
0103
0000
,
0010
1000
0001
0000
1001
0000
1000
0000
,
0001
0010
0001
0010
0000
0100
1000
0000
,
0010
0100
0001
0000
0101
0000
1000
0000
,
0020
0000
0000
0230
0000
0000
0301
0000
,
0100
0010
1000
0000
1010
0000
0001
0000
,
1000
0010
1000
0010
0000
0100
0001
0000
,
0010
0100
1000
0000
0001
0000
1001
0000
,
0200
0000
0000
0302
0000
0000
1003
0000
,
0010
0100
0001
0000
0101
0000
0010
0000
,
1000
0100
0010
0001
0000
0010
0100
0000
,
1000
0100
0010
0000
0110
0000
0001
0000
,
2000
0000
0000
3020
0000
0000
0130
0000
,
0001
0010
0100
0000
1100
0000
0010
0000
,
1000
0100
0010
0001
0000
0000
1001
0000
,
1000
0001
0100
0000
1010
0000
1001
0000
,
1000
0100
1000
0000
1000
0010
1000
0000
,
1000
0100
1000
0000
1000
0100
1000
0000
,
1000
0001
1000
0000
1000
0010
1000
0000
,
1000
0001
1000
0000
1000
0001
1000
0000
,
0001
0100
0001
0000
0001
0010
0001
0000
,
0001
1000
0001
0000
0001
1000
0001
0000
,
0001
0100
0001
0000
0001
0010
0001
0000
,
0001
0100
0001
0000
0001
1000
0001
0000
,
1000
0001
0100
0000
0001
1000
0100
0000
,
1000
0001
0010
0000
0100
1000
0001
0000
,
1000
0001
0100
0000
0001
1000
0100
0000
,
1000
0010
0100
0000
0001
0010
0100
0000
,
1000
0100
0010
0000
0001
0100
0010
0000
,
1000
0100
0010
0000
0001
0010
0100
0000
,
2002
0000
3003
MMMM
,
1000
0001
0100
0000
0110
0000
0010
1000
,
0001
0100
0000
0001
0100
0000
0010
0000
1000
0100
0000
0100
0010
0000
0001
0000
,
0010
0100
0000
0010
0100
0000
1000
0000
0001
0100
0000
0100
0010
0000
1000
0000
,
0100
1000
0000
0100
1000
0000
0001
0000
0100
0010
0000
0010
1000
0000
0100
0000
,
0010
0001
0000
0010
0001
0000
0100
0000
0010
1000
0000
1000
0001
0000
1000
0000
,
0001
0100
0000
0100
0010
0000
1000
0000
0001
0010
0000
0010
0100
0000
1000
0000
,
0001
0010
0000
0010
0001
0000
1000
0000
1000
0100
0000
0100
1000
0000
0010
0000
,
0010
0100
0000
0100
0001
0000
0010
0000
0010
0100
0000
0100
1000
0000
0001
0000
,
0100
0001
0000
0100
0010
0000
0000
1000
0001
0100
0000
0100
0010
0000
1000
0000
,
1001
0000
0000
0100
0000
0000
0010
0000
1000
0000
0100
0000
0001
0000
0100
0000
,
1000
0000
0000
0010
0000
0000
0100
0000
0001
0000
0010
0000
1000
0000
0010
0000
,
0001
0000
0000
1000
0000
0000
0010
0000
0100
0000
1000
0000
0100
0000
0001
0000
,
1000
0000
0000
0100
0000
0000
0100
0010
0100
0000
1000
0000
0001
0000
0100
0010
,
1000
0100
0000
1000
0000
0000
0010
0000
0100
0000
0001
0000
0010
0000
0100
0000
,
0010
0001
0000
0100
0000
0000
1000
0000
0100
0000
0010
0000
1000
0000
0100
0000
,
0010
1000
0000
0010
0000
0000
0001
0000
0010
0000
1000
0000
0010
0000
0001
0000
,
0100
0000
0010
0100
0010
0000
1000
0001
1000
0000
0100
0000
0010
0000
0001
0100
,
0020
0000
0000
0000
,
2000
0000
0000
3030
,
0001
0100
0001
0000
0100
0001
0100
0000
0001
1000
0001
0000
1000
0001
1000
0000
0100
1000
0100
0000
1000
0100
1000
0000
0100
0010
0100
0000
0010
0100
0010
0000
,
0001
0010
0100
0000
1000
0100
0010
0000
0001
0100
0010
0000
1000
0100
0010
0000
2002
0000
0000
0000
0000
0000
0000
0000
3003
0000
0000
0000
1000
0000
0001
0000
,
0100
0010
0000
1000
0000
0010
1000
0000
,
0100
0010
0001
0000
1000
0000
0100
0000
,
0010
0100
0000
1000
0000
0100
0010
0000
,
0001
0010
0100
0000
0010
0000
0001
0000
,
0100
0010
0000
1000
0000
0001
1000
0000
,
0010
0100
0001
0000
1000
0000
0100
0000
,
0010
0100
0000
1000
0000
0010
0100
0000
,
0010
1000
0100
0000
0010
0000
0001
0000
,
1000
0010
0000
0100
0000
0001
1000
0000
,
0100
0010
0001
0000
0011
0000
0100
0000
,
0010
1000
0000
0001
0000
1000
0100
0000
,
0010
0100
1000
0000
1100
0000
0010
0000
,
0100
0001
0000
1000
0000
0100
0010
0000
,
0100
1000
0001
0000
1001
0000
0100
0000
,
0010
0100
0000
0001
0000
0001
0010
0000
,
0100
1000
0100
0000
0010
0001
0010
0000
,
0100
1000
0100
1000
0100
1000
0001
0000
,
0001
0100
0001
0100
0001
0100
0010
0000
,
1000
0010
1000
0010
1000
0010
0100
0000
,
0010
0100
0010
0100
0010
0100
0001
0000
,
1000
0100
1000
0100
0010
0001
0010
0000
,
0100
1000
0100
1000
0001
0100
0001
0000
,
1000
0010
1000
0010
0100
0010
0100
0000
,
0001
0100
0001
0100
0010
1000
0010
0000
,
1000
0100
1000
0100
0010
0001
0010
0001
,
0100
0010
0100
0010
1000
0001
0100
0000
,
0001
0010
0001
0010
0100
1000
0100
1000
,
0001
0100
0001
0100
0010
1000
0001
0000
,
1000
0001
1000
0001
0100
0010
0100
0010
,
1000
0100
1000
0100
0010
0001
0010
0001
,
4000
0004
0000
0000
0000
0000
0000
0000
,
0000
0000
0000
3003
1MM1
0000
0100
0000
,
0010
0100
0000
0100
0001
0000
1000
0000
,
1100
0001
0101
1000
,
0100
0010
0000
0010
0001
0000
1000
0000
,
1010
0001
0011
0100
,
0010
1000
0000
1000
0100
0000
0010
0000
,
0110
0100
1100
0001
,
0100
0010
0000
0010
1000
0000
0001
0000
,
0011
0100
0101
0010
,
1000
0010
0000
0100
0010
0000
1000
0000
,
1001
0010
1001
0100
,
0001
0010
0000
0100
1000
0000
0010
0000
,
0110
0100
0110
0010
,
1000
0100
1000
0100
0010
0001
0010
0001
,
1000
0001
1000
0001
0100
0010
1000
0001
,
0100
0000
0100
0010
0000
0000
1001
0000
,
0010
0100
1000
0000
1001
0000
0010
2000
,
0002
0000
0000
0000
,
3003
0000
0000
0000
;

//---------------dance-single - C. Picardy----------------
#NOTES:
     dance-single:
     :
     Easy:
     5:
     0.397191,0.688940,0.291859,0.261137,0.000000,362.000000,324.000000,38.000000,34.000000,0.000000,0.000000,0.397191,0.688940,0.291859,0.261137,0.000000,362.000000,324.000000,38.000000,34.000000,0.000000,0.000000:
0000
0000
0000
0000
,
0000
0000
0000
0000
,
0000
0000
0000
0000
,
0000
0000
0000
0000
,
0001
0010
0001
0100
,
0001
1000
0100
1000
,
0001
0100
0001
0010
,
2002
3003
0001
0000
,
1000
0000
0100
0000
,
1000
0000
0010
0000
,
0100
0000
0001
0000
,
0010
0000
0100
0000
,
0010
0000
0001
0000
,
0100
0000
0010
0000
,
1000
0000
0100
0000
,
1000
0010
0100
0000
,
0001
0000
0010
0000
,
0100
0000
0010
0000
,
0001
0000
0100
0000
,
0010
0000
1000
0000
,
0100
0000
1000
0010
,
0100
0000
0220
0330
,
0001
0000
0010
0000
,
0001
0000
1000
0010
,
1000
0000
0100
0000
,
1000
0000
0010
0100
,
0010
0000
1000
0000
,
0001
0000
0010
0001
,
0010
0000
0100
0000
,
1000
0000
0001
1000
,
0001
0000
0100
0000
,
0010
0000
1000
0100
,
0001
0000
0100
0000
,
1000
0000
0001
0100
,
1000
0000
0100
0000
,
0001
0000
1000
0100
,
2000
0000
0002
3003
,
1100
0000
1100
0000
,
0010
0000
0001
0000
,
0101
0000
0101
0000
,
0010
0000
1000
0000
,
0110
0000
0110
0000
,
0001
0000
1000
0000
,
1010
0000
1010
0000
,
0100
0000
0010
0000
,
0011
0000
0100
0000
,
0010
0000
1000
0000
,
0110
0000
0001
0000
,
1000
0000
0100
0000
,
0011
0000
0100
0000
,
1000
0000
0010
0000
,
2002
0000
3003
0000
,
0010
1000
0001
0000
,
1001
0000
0100
0000
,
0010
0100
0010
0000
,
1001
0000
0010
0000
,
0100
0010
0100
0000
,
0101
0000
1000
0000
,
0100
1000
0100
0000
,
1010
0000
0100
0000
,
0001
0100
0001
0000
,
1100
0000
0010
0000
,
0100
0001
1000
0000
,
0110
0000
0001
0000
,
1000
0100
0010
0000
,
1100
0000
0001
0000
,
0010
0100
1000
0000
,
2002
0000
3003
0000
,
0110
0000
1000
0001
,
0200
0300
0010
1000
,
0002
0003
0010
0100
,
0020
0030
0100
1000
,
0020
0030
0100
0001
,
2000
3010
0100
0001
,
0020
0031
1000
0010
,
2000
3100
1000
0010
,
0110
1001
0110
1001
,
0200
0000
0310
0100
,
0002
0000
1003
0100
,
2000
0000
3001
0100
,
0020
0000
1030
0001
,
0200
0000
0310
1000
,
0200
0000
1300
0001
,
0020
0000
0130
1000
,
0001
0100
0001
1000
,
1001
0000
0000
0000
,
0100
0000
0000
0000
,
0002
0023
0230
2300
,
3200
0000
0320
0000
0031
0000
0000
1000
,
0001
0000
0100
0000
,
0010
0000
0100
0000
,
0001
0000
0010
0000
,
0100
0000
0010
0000
,
0001
0000
1000
0000
,
0100
0000
1000
0000
,
0010
0000
0100
0000
,
0001
0000
0010
0100
,
1000
0000
0100
0000
,
1000
0000
0010
0000
,
0100
0000
0001
0000
,
0010
0000
0001
0000
,
1000
0000
0010
0000
,
0100
0000
0010
1000
,
0001
0000
0010
0000
,
0100
0000
1001
0000
,
1000
0000
0001
0000
,
0100
0000
0010
1000
,
0100
0000
0010
0000
,
0001
0000
0100
0010
,
0100
0000
0001
0000
,
1000
0000
0100
0010
,
0001
0000
0100
0000
,
0010
0000
1000
0100
,
0010
0000
0001
0000
,
0011
0000
0010
0100
,
1000
0000
0010
0000
,
1001
0000
0100
0010
,
1000
0000
0001
0000
,
0110
0000
1000
0002
,
0200
0000
0000
0000
,
0303
0000
1010
0000
,
0010
0000
0100
0000
,
0010
0000
1001
0000
,
0001
0000
1000
0000
,
0100
0000
1001
0000
,
0010
0000
0100
0000
,
1000
0000
0110
0000
,
0001
0000
0100
0000
,
0010
0000
0110
0000
,
1000
0000
0001
0000
,
0010
0010
0100
0000
,
1000
0000
0100
0000
,
1000
1000
0100
0000
,
0010
0000
0001
0000
,
1000
1000
0001
0000
,
1000
1000
1000
0000
,
0001
0001
0001
0000
,
2002
0000
0000
0000
,
3003
0000
0000
0000
;

//---------------dance-single - C. Picardy----------------
#NOTES:
     dance-single:
     :
     Medium:
     9:
     0.667106,1.536866,0.130568,0.138249,0.161290,608.000000,591.000000,17.000000,18.000000,22.000000,0.000000,0.667106,1.536866,0.130568,0.138249,0.161290,608.000000,591.000000,17.000000,18.000000,22.000000,0.000000:
// measure 0
0000
0000
0000
0000
,  // measure 1
0000
0000
0000
0000
,  // measure 2
0000
0000
0000
0000
,  // measure 3
0000
0000
0000
0000
,  // measure 4
0001
0000
1000
0000
0010
0000
0100
0001
,  // measure 5
0100
0000
0010
0000
1000
0000
1000
0010
,  // measure 6
1000
0100
0010
0100
,  // measure 7
2002
0000
0000
3003
1000
0000
0100
0000
,  // measure 8
1000
0100
0010
0001
,  // measure 9
1000
0010
0100
0001
,  // measure 10
0100
0001
0010
0100
,  // measure 11
1000
0001
0100
0010
,  // measure 12
0100
0010
1000
0100
,  // measure 13
0010
0001
1000
0010
,  // measure 14
1000
0010
0100
0001
,  // measure 15
0010
0100
1000
0001
,  // measure 16
0100
0010
1000
0100
,  // measure 17
1000
0100
1000
0000
0100
0000
0010
0000
,  // measure 18
0001
0010
0100
0010
,  // measure 19
0001
0010
0001
0000
1000
0000
0010
0000
,  // measure 20
0100
0010
1000
0100
,  // measure 21
0010
0000
0000
0000
0100
0000
0000
0000
0010
0000
0000
0000
0000
0000
0000
0000
0001
0000
0000
1000
0000
0000
0100
0000
0010
0000
0001
0000
1001
0000
0000
0000
,  // measure 22
0001
0000
0001
0100
0000
0000
0100
0000
,  // measure 23
0010
1000
0001
1000
,  // measure 24
0100
0000
0100
0010
0000
0000
0100
0000
,  // measure 25
1000
0001
0100
0010
,  // measure 26
1000
0000
1000
0010
0000
0000
0100
0000
,  // measure 27
0001
0100
0010
0100
,  // measure 28
0001
0000
0001
0010
0000
0000
0100
0000
,  // measure 29
0010
0001
0010
0100
,  // measure 30
1000
0000
1000
0010
0000
0000
1000
0000
,  // measure 31
0100
0001
0100
1000
,  // measure 32
0001
0000
0001
0100
0000
0000
1000
0000
,  // measure 33
0100
0001
0100
1000
,  // measure 34
0100
0000
0100
0010
0000
0000
1000
0000
,  // measure 35
0001
0010
1000
0010
,  // measure 36
0001
0000
0000
1000
0000
0000
0001
0000
0100
0010
0100
0000
1001
0000
M00M
0000
,  // measure 37
0002
0000
0000
0103
0000
0000
0010
0000
,  // measure 38
1000
0100
0010
0001
,  // measure 39
0100
0001
0100
0001
0000
0000
0010
0000
,  // measure 40
0100
1000
0001
0100
,  // measure 41
0020
0000
0000
1030
0000
0000
0100
0000
,  // measure 42
1000
0010
0100
0001
,  // measure 43
0010
0001
0010
0001
0000
0000
1000
0000
,  // measure 44
0100
0010
0100
1000
,  // measure 45
0002
0000
0000
0013
0000
0000
0100
0000
,  // measure 46
0010
0001
0100
0010
,  // measure 47
1000
0010
1000
0010
0000
0000
0100
0000
,  // measure 48
0001
0100
1000
0100
,  // measure 49
0002
0000
0000
1003
0000
0000
0100
0000
,  // measure 50
0010
0100
1000
0001
,  // measure 51
1000
0001
1000
0001
0000
0000
1000
0000
,  // measure 52
0001
1000
0001
0000
1001
0000
M00M
0000
,  // measure 53
1000
0100
0001
0100
,  // measure 54
1000
0100
0001
0100
,  // measure 55
1000
0010
0001
0010
,  // measure 56
1000
0010
0001
0010
,  // measure 57
1000
0010
0100
0010
,  // measure 58
1000
0010
0100
0010
,  // measure 59
0100
0001
0010
0001
,  // measure 60
0100
0001
0010
0001
,  // measure 61
1000
0100
1000
0100
,  // measure 62
0010
0001
0010
0001
,  // measure 63
1000
0010
1000
0010
,  // measure 64
0100
0001
0100
0001
,  // measure 65
0010
0100
0010
0100
,  // measure 66
1000
0001
0100
0010
,  // measure 67
2002
0000
3003
0000
,  // measure 68
0100
0010
0100
0000
0001
0000
1000
0001
,  // measure 69
1000
0001
0000
0001
1000
0000
0000
0000
0100
0000
0010
0000
0100
0000
0000
0000
,  // measure 70
1000
0010
0000
0010
1000
0000
0000
0000
0001
0000
0100
0000
0001
0000
0000
0000
,  // measure 71
0010
0100
0000
0100
0010
0000
0000
0000
0100
0000
1000
0000
0100
0000
0000
0000
,  // measure 72
0010
0001
0000
0001
0100
0000
0000
0000
0010
0000
1000
0000
0001
0000
0000
0000
,  // measure 73
1000
0001
0000
0100
0001
0000
0000
0000
1000
0000
0100
0000
0001
0000
0000
0000
,  // measure 74
0100
0010
0000
0010
0001
0000
0000
0000
0001
0000
0100
0000
1000
0000
0000
0000
,  // measure 75
0100
0010
0000
0010
0100
0000
0000
0000
0001
0000
0010
0000
0100
0000
0000
0000
,  // measure 76
11MM
0000
M1M1
0000
11MM
0000
1MM1
M00M
,  // measure 77
1000
0000
0000
0001
0000
0000
0100
0000
0010
0000
1000
0000
0001
0000
0100
0000
,  // measure 78
0010
0000
0000
0100
0000
0000
0001
0000
0010
0000
0100
0000
1000
0000
0100
0000
,  // measure 79
0010
0000
0000
0001
0000
0000
0010
0000
0001
0000
0010
0000
0100
0000
1000
0000
,  // measure 80
0001
0000
0000
1000
0000
0000
0100
0000
0010
0000
0001
0000
0010
0000
0100
0000
,  // measure 81
1000
0000
0000
0100
0000
0000
0001
0000
0100
0000
1000
0000
0100
0000
0010
0000
,  // measure 82
0001
0000
0000
0100
0000
0000
0100
0000
1000
0000
0100
0000
0001
0000
0010
0000
,  // measure 83
1000
0000
0000
0010
0000
0000
0001
0000
0001
0000
0100
0000
1000
0000
0100
0000
,  // measure 84
0001
0000
0000
1000
0001
0000
0100
0010
0100
0000
0001
0000
1000
0000
0100
2000
,  // measure 85
0002
0000
0000
0000
0000
0000
0000
3000
,  // measure 86
0020
0000
0000
0000
0000
0000
0000
0033
,  // measure 87
0001
0100
0000
0000
0001
0010
0000
0000
0001
0100
0000
0000
0001
0010
0000
0000
0100
1000
0000
0000
0010
1000
0000
0000
0100
1000
0000
0000
0010
1000
0000
0000
,  // measure 88
0001
0100
0000
0000
1000
0100
0000
0000
0001
0010
0000
0000
1000
0010
0000
0000
0220
0000
0000
0000
0000
0000
0000
0000
0330
0000
0000
0000
0001
0000
1000
0000
,  // measure 89
0200
0000
0000
1300
0000
0000
0001
0000
,  // measure 90
0010
0100
1000
0001
,  // measure 91
0100
0010
0000
0100
0000
0000
0001
0000
,  // measure 92
1000
0100
0010
0001
,  // measure 93
0010
0100
0000
1000
0000
0000
0010
0000
,  // measure 94
0100
0001
0100
0010
,  // measure 95
1000
0100
0000
0010
0000
0000
0100
0000
,  // measure 96
1000
0100
0010
0100
,  // measure 97
1000
0001
0000
0100
0000
0000
0001
0000
,  // measure 98
0100
1000
0100
0001
,  // measure 99
1000
0001
0000
1000
0000
0000
0001
0000
,  // measure 100
1000
0100
0001
0100
,  // measure 101
1000
0100
0000
0010
0000
0000
0001
0000
,  // measure 102
0010
0001
0100
0010
,  // measure 103
1M1M
0000
0000
MM11
0000
0000
1MM1
0000
,  // measure 104
0000
0000
0100
0000
0010
0100
0010
M00M
,  // measure 105
0001
0100
1000
0100
,  // measure 106
0001
0100
1000
0100
,  // measure 107
0001
0010
1000
0010
,  // measure 108
0001
0010
1000
0010
,  // measure 109
0100
1000
0010
1000
,  // measure 110
0100
1000
0010
0100
,  // measure 111
0001
0010
0001
0100
,  // measure 112
0001
0010
0001
0100
,  // measure 113
0010
1000
0100
0010
,  // measure 114
0001
0000
0100
0000
0010
1000
0010
0000
,  // measure 115
1000
0100
0010
0100
,  // measure 116
1000
0000
0010
0000
0100
0001
0100
0000
,  // measure 117
0010
1000
0100
0010
,  // measure 118
0001
0000
0100
0000
0001
1000
0001
0000
,  // measure 119
0220
0000
0000
0000
,  // measure 120
0000
0000
0000
0330
,  // measure 121
0001
0000
0000
1000
0000
0000
0001
0000
,  // measure 122
1000
1000
0001
0001
,  // measure 123
0100
0000
0000
0010
0000
0000
0100
0000
,  // measure 124
0010
0010
0100
0100
,  // measure 125
0001
0000
0000
0010
0000
0000
0100
0000
,  // measure 126
1000
1000
0100
0100
,  // measure 127
0010
0000
0000
0001
0000
0000
0100
0000
,  // measure 128
0010
0010
1000
1000
,  // measure 129
0001
0000
0000
1000
0000
0000
0100
0000
,  // measure 130
0010
0010
0100
0100
,  // measure 131
1000
0000
0000
0001
0000
0000
0100
0000
,  // measure 132
0001
0001
0100
0100
,  // measure 133
0010
0000
0000
1000
0000
0000
0001
0000
,  // measure 134
0100
0100
0010
0010
,  // measure 135
1000
0000
0000
1001
0000
0000
0010
0000
,  // measure 136
0100
0010
0100
0000
0110
0000
0100
0000
,  // measure 137
2002
0000
0000
0000
,  // measure 138
3003
0000
0000
0000
;
