#TITLE:Tearful Eyes;
#SUBTITLE:;
#ARTIST:Les;
#TITLETRANSLIT:;
#SUBTITLETRANSLIT:;
#ARTISTTRANSLIT:;
#GENRE:;
#CREDIT:;
#BANNER:tearfuleyesbn.png;
#BACKGROUND:tearfuleyesbg.png;
#LYRICSPATH:;
#CDTITLE:;
#MUSIC:tearfuleyes.ogg;
#OFFSET:-0.496287;
#SAMPLESTART:48.419987;
#SAMPLELENGTH:12.000000;
#SELECTABLE:YES;
#DISPLAYBPM:160.000000;
#BPMS:0.000000=160.020004
,224.000000=160.559998
;
#STOPS:
;
#BGCHANGES:16.000=rainstorm.mp4=1.000=1=0=1=SongBgWithMovieViz==CrossFade==,
29.000=tearfuleyesbg.png=1.000=1=0=1===CrossFade==,
32.000=flash=1.600=0=0=1=====,
32.250=blueflaretunnel.mp4=1.000=0=0=0=StretchNoLoop====,
64.000=flash=1.600=0=0=1=====,
64.250=plasmawatertunnel.mp4=1.000=0=1=1=StretchRewind====,
96.000=flash=1.600=0=0=1=====,
96.250=plasmawatertunnel.mp4=1.000=0=0=1=====,
123.500=flash=1.600=0=0=1=====,
123.750=plasmawatertunnel.mp4=1.000=0=0=1=====,
124.500=flash=1.600=0=0=1=====,
124.750=plasmawatertunnel.mp4=1.000=0=0=1=====,
125.500=flash=1.600=0=0=1=====,
125.750=tearfuleyesbg.png=1.000=0=0=1=====,
128.000=flash=1.600=0=0=1=====,
128.250=bluerain.mp4=1.000=0=1=1=StretchRewind====,
160.000=flash=1.600=0=0=1=====,
160.250=rainstorm.mp4=1.000=0=1=1=StretchRewind===#00FFFF=,
192.000=flash=1.600=0=0=1=====,
192.250=blueflaretunnel.mp4=1.000=0=0=0=StretchNoLoop====,
224.000=flash=1.600=0=0=1=====,
224.250=bluerain.mp4=1.000=0=1=1=StretchRewind====,
255.500=flash=1.600=0=0=1=====,
255.750=tearfuleyesbg.png=1.000=1=0=1===CrossFade==,
99999=-nosongbg-=1.000=0=0=0 // don't automatically add -songbackground-
;
#KEYSOUNDS:;
#ATTACKS:;

//---------------dance-single - C. Picardy----------------
#NOTES:
     dance-single:
     :
     Beginner:
     1:
     0.097899,0.155415,0.068529,0.000000,0.000000,70.000000,63.000000,7.000000,0.000000,0.000000,0.000000,0.097899,0.155415,0.068529,0.000000,0.000000,70.000000,63.000000,7.000000,0.000000,0.000000,0.000000:
0000
0000
0000
0000
,
0000
0000
0000
0000
,
0000
0000
0000
0000
,
0000
0000
0000
0000
,
1001
0000
0000
0000
,
0000
0000
0000
0000
,
1001
0000
0000
0000
,
0000
0000
0000
0000
,
0010
0000
0000
0000
,
0100
0000
0000
0000
,
0010
0000
0000
0000
,
0100
0000
0100
0000
,
0100
0000
0000
0000
,
0001
0000
0000
0000
,
1000
0000
0000
0000
,
0001
0000
0001
0000
,
0001
0000
0000
0000
,
1000
0000
0000
0000
,
0010
0000
0000
0000
,
0100
0000
0000
0000
,
1001
0000
0000
0000
,
0010
0000
0000
0000
,
0100
0000
0000
0000
,
0010
0000
0010
0000
,
1001
0000
0000
0000
,
0100
0000
0000
0000
,
0010
0000
0000
0000
,
1000
0000
0000
0000
,
0001
0000
0000
0000
,
0100
0000
0000
0000
,
0010
0000
0000
0000
,
0000
0000
0000
0000
,
1001
0000
0000
0000
,
0100
0000
0000
0000
,
0010
0000
0000
0000
,
1000
0000
0000
0000
,
0001
0000
0000
0000
,
0010
0000
0000
0000
,
0100
0000
0000
0000
,
1000
0000
0000
0000
,
1001
0000
0000
0000
,
0100
0000
0000
0000
,
0010
0000
0000
0000
,
1000
0000
0000
0000
,
0001
0000
0000
0000
,
1000
0000
0000
0000
,
0100
0000
0000
0000
,
0010
0000
0000
0000
,
0001
0000
0000
0000
,
1000
0000
0000
0000
,
0100
0000
0000
0000
,
0010
0000
0010
0000
,
0010
0000
0000
0000
,
0001
0000
0000
0000
,
1000
0000
0000
0000
,
0100
0000
0000
0000
,
1001
0000
0000
0000
,
1000
0000
0000
0000
,
0001
0000
0000
0000
,
1000
0000
1000
0000
,
1000
0000
0000
0000
,
0100
0000
0000
0000
,
0010
0000
0000
0000
,
0001
0000
0001
0000
;

//---------------dance-single - C. Picardy----------------
#NOTES:
     dance-single:
     :
     Easy:
     4:
     0.292299,0.374464,0.186008,0.215378,0.000000,209.000000,190.000000,19.000000,22.000000,0.000000,0.000000,0.292299,0.374464,0.186008,0.215378,0.000000,209.000000,190.000000,19.000000,22.000000,0.000000,0.000000:
// measure 0
0000
0000
0000
0000
,  // measure 1
0000
0000
0000
0000
,  // measure 2
0000
0000
0000
0000
,  // measure 3
0000
0000
0000
0000
,  // measure 4
1001
0000
0000
0000
,  // measure 5
0100
0000
0000
0000
,  // measure 6
2002
0000
0000
0000
,  // measure 7
3003
0000
0000
0000
,  // measure 8
0001
1000
0001
1000
,  // measure 9
0010
1000
0010
1000
,  // measure 10
0100
0010
0100
0010
,  // measure 11
0100
0100
1000
1000
,  // measure 12
0001
0100
0001
0100
,  // measure 13
0010
0100
0010
0100
,  // measure 14
0001
1000
0001
0100
,  // measure 15
0110
0000
1001
0000
,  // measure 16
0001
0000
0100
0000
,  // measure 17
0010
0000
1000
0000
,  // measure 18
0001
0000
1000
0000
,  // measure 19
0100
0100
0110
0000
,  // measure 20
0001
1000
0100
0000
,  // measure 21
0010
0001
1000
0000
,  // measure 22
0010
0100
0001
0100
,  // measure 23
0010
1000
1001
0000
,  // measure 24
0100
0001
1000
0100
,  // measure 25
2000
3000
0020
0030
,  // measure 26
0100
0010
0100
0001
,  // measure 27
0020
0030
0200
0300
,  // measure 28
0010
0100
1000
0100
,  // measure 29
0020
0030
0002
0003
,  // measure 30
0100
0010
0100
0001
,  // measure 31
2002
0000
3003
0000
,  // measure 32
0010
0010
2000
3000
,  // measure 33
0002
0003
0100
0010
,  // measure 34
1000
1000
0002
0003
,  // measure 35
2000
3000
0001
1000
,  // measure 36
0100
0100
0020
0030
,  // measure 37
0002
0003
0100
0010
,  // measure 38
1000
0001
0020
0030
,  // measure 39
0200
0000
0000
0300
,  // measure 40
1001
1000
0001
0100
,  // measure 41
0001
0001
1000
0100
,  // measure 42
1000
0010
0100
0001
,  // measure 43
0010
0010
0100
1000
,  // measure 44
1001
0100
0010
1000
,  // measure 45
0100
0100
0010
0001
,  // measure 46
1000
0010
0100
0010
,  // measure 47
0220
0000
0000
0330
,  // measure 48
0001
0100
0001
1000
,  // measure 49
0100
0010
0100
1000
,  // measure 50
0001
0010
0100
0010
,  // measure 51
0001
0001
1000
1000
,  // measure 52
0110
1000
0001
0100
,  // measure 53
0010
1000
0100
1000
,  // measure 54
0010
0100
0001
0010
,  // measure 55
2002
0000
0000
3003
,  // measure 56
0110
0100
1000
0001
,  // measure 57
0101
0100
0010
1000
,  // measure 58
1010
0001
0010
0100
,  // measure 59
1000
1000
0010
0010
,  // measure 60
1001
0100
0010
1000
,  // measure 61
1100
0100
1000
0001
,  // measure 62
0011
0100
0010
1000
,  // measure 63
1001
0100
0010
1000
;

//---------------dance-single - C. Picardy----------------
#NOTES:
     dance-single:
     :
     Medium:
     6:
     0.374814,0.375198,0.274117,0.029370,0.058739,268.000000,240.000000,28.000000,3.000000,0.000000,0.000000,0.374814,0.375198,0.274117,0.029370,0.058739,268.000000,240.000000,28.000000,3.000000,0.000000,0.000000:
0000
0000
0000
0000
,
0000
0000
0000
0000
,
0000
0000
0000
0000
,
0000
0000
0000
0000
,
0110
0000
1000
0000
,
0001
0000
0000
0100
0000
0100
0000
0000
,
1001
0000
0000
0100
0000
0000
0000
0010
,
0000
0100
0000
0010
0000
0000
0000
0000
,
1001
0100
0010
1000
,
0100
0000
0010
0000
0001
0000
0100
0010
,
1000
0100
0010
0001
,
0100
0000
0000
0100
0000
0000
0000
0000
0010
0000
0000
0010
0000
0000
0000
0000
,
1010
0001
1000
0010
,
0100
0000
0001
0000
0010
0000
0100
0010
,
0001
0100
0010
1000
,
1000
0000
0000
0001
0000
0000
1000
0000
0001
0000
0000
1000
0000
0000
0000
0000
,
1001
0000
0000
0100
0000
0100
0000
0000
,
0110
0000
0000
1000
0000
1000
0000
0000
,
0101
0000
0000
0010
0000
0010
0000
1000
,
0000
0001
0000
0100
0000
0000
0000
0000
,
0001
1000
0000
0100
0000
1000
0000
0000
,
0100
0010
0000
0100
0000
0010
0000
0000
,
0001
0100
0000
0010
0000
1000
0000
0001
,
0000
0001
0000
0001
0000
0000
0000
0000
,
1100
0100
0010
0100
,
2000
0000
0001
0001
0000
3001
0000
0000
,
0101
0100
0010
0100
,
0002
0000
1000
1000
0000
1003
0000
0000
,
1010
0100
0010
0001
,
2000
0000
0010
0010
0000
3010
0000
0000
,
0001
1000
0000
0100
0000
0010
0000
0011
,
0000
0110
0000
1001
0000
0000
0000
0000
,
1001
0000
0010
0000
1000
0000
0000
0001
,
0000
0001
0000
0000
1000
0100
1000
0000
,
0011
0000
1000
0000
0100
0000
0000
0010
,
0000
0010
0000
0000
0001
0100
0001
0000
,
1100
0000
0010
0000
0100
0000
0000
0001
,
0000
0001
0000
0000
0010
0100
0010
0000
,
1001
0001
0100
0010
,
1000
1000
0000
0010
0000
0100
0000
0000
,
1001
0100
0001
0010
,
0100
0000
1000
0000
0010
1000
0100
0000
,
1010
0100
0001
1000
,
0010
0000
0100
0000
0001
0100
0001
0000
,
0110
1000
0001
1000
,
0100
0000
0100
0000
0010
0100
1000
0000
,
0101
1000
0010
0100
,
0001
0000
0000
1001
0000
0110
0000
0000
,
1001
0100
0010
1000
,
0100
0000
0010
0000
0100
0000
1000
0100
,
0010
0001
0100
0010
,
1000
0000
0000
1000
0000
0000
0000
0000
0001
0000
0000
0001
0000
0000
0000
0000
,
0110
1000
0001
0100
,
1000
0000
0100
0000
0010
0000
1000
0001
,
0100
0010
1000
0001
,
0010
0000
0000
0100
0000
0000
0000
0000
0010
0000
0000
0100
0000
0000
0000
0000
,
0011
0000
0100
0000
0010
0000
1000
0100
,
0001
0000
0100
0000
1000
0000
0001
0100
,
0010
1000
0001
0010
,
0001
0000
0000
1000
0000
0000
0000
0000
0001
0000
0000
1000
0000
0000
0000
0000
,
0110
0000
1000
0000
0001
0000
0100
0010
,
1000
0000
0100
0000
0010
0000
0001
0010
,
0100
1000
0010
0100
,
0001
0000
0000
0010
0000
0000
0000
0000
0001
0000
0000
0100
0000
0000
1001
0000
;

//---------------dance-single - C. Picardy----------------
#NOTES:
     dance-single:
     :
     Challenge:
     10:
     0.864309,0.936894,0.479706,0.186008,0.788088,618.000000,569.000000,49.000000,19.000000,44.000000,0.000000,0.864309,0.936894,0.479706,0.186008,0.788088,618.000000,569.000000,49.000000,19.000000,44.000000,0.000000:
0000
0000
0000
0000
,
0000
0000
0000
0000
,
0000
0000
0000
0000
,
0000
0000
0000
0000
,
0101
0100
0010
1000
0000
0100
0000
0020
,
0000
0000
0001
0001
0000
0130
0000
1000
,
1100
0100
0010
0001
0000
0200
0000
0320
,
0000
2030
0000
0002
0MM0
0000
3MM3
0000
,
1001
0000
0001
0100
0000
0100
0010
0000
0010
1000
0000
1000
0010
0100
0010
0000
,
0110
0000
0010
1000
0000
1000
0100
0000
0100
0010
0000
0010
0001
0000
0001
0000
,
0011
0000
0010
0100
0000
0100
1000
0000
1000
0001
0000
0001
0100
0001
0100
0000
,
0110
0000
0010
1000
0000
M0M0
0001
0000
0011
0000
0010
0100
0000
0MM0
1000
0000
,
1010
0000
0010
0100
0000
0100
0001
0000
0001
0010
0000
0010
0100
1000
0100
0000
,
0110
0000
0010
0001
0000
0001
0100
0000
0100
0010
0000
0010
1000
0000
1000
0000
,
1010
0000
0010
0100
0000
0100
0001
0000
0001
1000
0000
1000
0001
0100
0001
0000
,
1001
0000
1000
0100
0000
MM00
0001
0000
1001
0000
1000
0100
0000
MM00
0001
0000
,
0101
1000
0001
0100
1000
0100
0010
1000
,
0100
0001
0100
0010
1000
0010
0001
0100
,
0010
1000
0100
0001
0100
1000
0010
0001
,
0010
0000
1000
0000
0001
0000
1000
0000
0100
0000
1000
0000
0010
1000
0100
0000
,
0110
0010
0001
0010
0100
0010
1000
0010
,
0001
0100
1000
0100
0010
0100
1000
0100
,
0001
0010
0100
0010
0001
0100
0010
0200
,
0000
0000
0301
0100
0010
1000
0010
1000
0100
0010
0100
0010
0001
0010
0001
0000
,
1MM1
0100
0010
2000
0100
3100
0001
0200
,
0010
0310
0001
0200
1000
1300
0100
0010
,
0110
1000
0001
0020
0100
0130
1000
0020
,
0001
0031
0010
2000
0001
3001
0100
0010
,
1010
0001
0100
0020
1000
1030
0100
2000
,
0010
3010
0100
0002
0010
0013
0100
1000
,
1001
0010
0100
1000
0001
MM11
0000
11MM
,
0000
0000
M1M1
0000
0000
0000
2M2M
0000
0000
0000
0M0M
3030
0001
0010
0100
1000
,
0001
0000
1000
0000
0100
0000
0010
0100
0010
0000
0100
0000
1000
0000
0001
0100
,
0001
0000
1000
0000
0010
0000
0100
0000
0001
0100
0001
0000
1000
0100
1000
0000
,
0010
0000
0100
0000
0001
0000
0010
0100
0010
0000
0001
0000
1000
0000
0010
0100
,
0010
0000
1000
0000
0001
0100
0001
0000
1000
0100
0010
0000
0001
0000
1001
0000
,
0101
0000
0100
0000
0010
0000
1000
0001
0100
0000
0010
0000
1000
0000
0001
1000
,
0100
0000
0010
0000
0100
0000
1000
0000
0001
0010
0100
0000
1000
0010
0100
0000
,
1001
0000
0100
0000
0010
0000
1000
0001
0100
0000
0010
0000
1000
0000
0001
0000
,
0010
0001
0010
0001
0100
0001
0100
0001
0100
0010
0100
0010
1000
0010
1000
0000
,
1MM1
0000
0100
0000
0010
0000
1000
0001
0100
0000
0010
0000
1000
0000
0001
0010
,
0100
0000
1000
0000
0001
0000
0100
0000
0010
1000
0001
0000
1000
0010
0100
0000
,
0110
0000
1000
0000
0001
0000
0010
0100
1000
0000
0001
0000
0100
0000
0010
1000
,
0100
0000
0010
0000
0001
0000
1000
0000
0001
0100
0010
1000
0100
0010
0001
0000
,
0011
0000
0010
0000
0100
0000
1000
0001
0100
0000
0010
0000
1000
0000
0001
0010
,
0100
0000
0010
0000
0001
0000
0100
0000
0010
1000
0001
0000
0010
0100
1000
0000
,
1100
0000
0100
0000
0010
0000
0001
0010
0100
0000
1000
0001
0100
0000
0010
0000
,
1000
0100
1000
0100
0010
0001
0010
0001
0100
0010
0100
0010
1000
0001
1000
0000
,
M1M1
0000
0100
0010
0000
0010
1000
0000
1000
0100
0000
0100
0010
0100
0010
0000
,
0110
0000
0010
0001
0000
0001
0100
0000
0100
0010
0000
0010
1000
0000
1000
0000
,
1010
0000
1000
0001
0000
0001
0100
0000
0100
0010
0000
0010
1000
0001
1000
0000
,
0101
0000
1000
0100
0000
MM00
0001
0000
0101
0000
1000
0100
0000
MM00
0010
0000
,
0110
0000
0100
1000
0000
1000
0010
0000
0010
0100
0000
0100
0010
0001
0010
0000
,
0110
0000
0010
1000
0000
1000
0100
0000
0100
0001
0000
0001
0100
0000
0100
0000
,
0110
0000
0010
0001
0000
0001
0100
0000
0100
1000
0000
1000
0100
0010
0100
0000
,
1010
0000
0001
0010
0000
00MM
1000
0000
0011
0000
1000
0010
0000
M0M0
0100
0000
,
1001
0000
0100
0010
0000
0010
1000
0000
0001
0010
0100
1000
0100
0010
0001
0000
,
0011
0000
0010
0100
0000
0100
1000
0000
0001
0100
0010
1000
0010
0100
0001
0000
,
1010
0000
1000
0001
0000
0001
0100
0000
0001
0100
0010
1000
0100
0010
0001
0000
,
1001
0000
0100
0010
0MM0
0000
0100
0000
1001
0000
0010
0100
0MM0
1000
0001
0100
,
0010
0000
0010
1000
0000
1000
0001
0000
1000
0001
0100
0001
1000
0010
0100
0000
,
0101
0000
1000
0100
0000
0100
1000
0000
0010
1000
0001
1000
0100
0010
0100
0000
,
1100
0000
0010
0100
0000
0100
0001
0000
1000
0001
0100
0010
1000
0001
0100
0000
,
0110
0000
1000
0001
0000
M00M
0100
0000
0110
0000
0001
1000
0000
M00M
2020
0000
,
0000
0000
0000
0000
,
0000
0000
0000
0000
,
3030
0000
0000
0000
;

//---------------dance-single - C. Picardy----------------
#NOTES:
     dance-single:
     :
     Hard:
     8:
     0.523061,0.531531,0.323067,0.068529,0.234958,374.000000,341.000000,33.000000,7.000000,0.000000,0.000000,0.523061,0.531531,0.323067,0.068529,0.234958,374.000000,341.000000,33.000000,7.000000,0.000000,0.000000:
0000
0000
0000
0000
,
0000
0000
0000
0000
,
0000
0000
0000
0000
,
0000
0000
0000
0000
,
0001
0010
0100
1000
0000
0010
0000
0020
,
0000
0000
0000
0100
0000
0130
0000
0000
,
1000
0100
0010
0001
0000
0100
0000
0010
,
0000
1000
0000
0001
0000
0000
0000
0000
,
0001
0000
0000
1000
0000
0000
0001
0000
0000
0100
0000
0000
0001
0000
0000
0000
,
1000
0000
0000
0100
0000
0000
1000
0000
0000
1000
0000
0000
0010
0000
1000
0000
,
0100
0000
0000
0010
0000
0000
0001
0000
0000
0010
0000
0000
0100
0000
0000
0000
,
1000
0000
0000
0001
0000
0000
0100
0000
0010
0000
0000
1000
0000
0000
0100
0000
,
0010
0000
0000
0100
0000
0000
1000
0000
0000
0100
0000
0000
0010
0000
0000
0000
,
0001
0000
0000
0010
0000
0000
0100
0000
0000
0010
0000
0000
0010
0000
0001
0000
,
0100
0000
0000
0010
0000
0000
1000
0000
0000
0001
0000
0000
1000
0000
0000
0000
,
0001
0000
0000
0101
0000
0000
1000
0000
0100
0000
0000
1100
0000
0000
1000
0000
,
0001
0100
0010
0100
0001
0000
0110
0000
,
1000
0100
0010
0100
1000
0000
0110
0000
,
0001
0100
0010
1000
0000
0100
0000
0110
,
0000
1000
0000
2002
0000
0000
3003
0000
,
0001
0100
0010
1000
0100
0000
1001
0000
,
0010
0100
1000
0001
0100
0000
1001
0000
,
1000
0100
0010
0001
0000
0011
0000
1000
,
0000
1100
0000
0202
0000
0000
0303
0000
,
0001
0100
1000
0100
0001
0000
0010
0000
,
0100
1000
0100
0100
0010
0000
1100
0000
,
1000
0100
0001
0100
1000
0000
0010
0000
,
0100
0001
0001
0010
0001
0000
0101
0000
,
0001
0010
1000
0010
0001
0000
0100
0000
,
0010
1000
0100
0100
0010
0000
1001
0000
,
0001
0010
0100
1000
0000
1100
0000
0001
,
0000
0101
0000
2200
0000
0000
3300
0000
,
0110
0000
0010
0100
1000
0100
0010
0001
,
0100
0100
0010
0000
1000
0010
0100
0010
,
1000
0000
0101
0000
0001
0100
0010
1000
,
0100
0100
0010
0000
0001
0010
0100
0010
,
0001
0000
1100
0000
0001
0100
1000
0100
,
0001
0001
1000
0000
0100
0010
0001
0010
,
0100
0000
0011
0000
1000
0100
0010
0001
,
0010
0100
1000
0010
0000
1001
0000
0000
,
0110
0000
1000
0100
0001
0100
1000
0010
,
0100
0100
0010
0000
1000
0010
1000
0100
,
1100
0000
0010
0100
1000
0100
0010
0001
,
1000
1000
0100
0000
0010
0001
0100
0010
,
0110
0000
1000
0001
0100
0010
1000
0001
,
0010
0010
0100
0000
1000
0100
0010
0001
,
0011
0000
0001
0100
1000
0100
0001
0010
,
0100
1000
0010
0100
0000
1010
0000
0000
,
0101
0000
0000
0100
0000
0000
0010
0000
0000
0100
0000
0000
0001
0000
0010
0000
,
0100
0000
0000
0010
0000
0000
0001
0000
0000
0010
0000
0000
0100
0000
1000
0000
,
0010
0000
0000
1000
0000
0000
0100
0000
0000
0010
0000
0000
0001
0000
0000
0000
,
0100
0000
0000
0010
0000
0000
1000
0000
0001
0000
0000
0010
0000
0000
0100
0000
,
0010
0000
0000
0100
0000
0000
1000
0000
0000
0001
0000
0000
0100
0000
0010
0000
,
1000
0000
0000
0001
0000
0000
0100
0000
0000
0010
0000
0000
1000
0000
0100
0000
,
0010
0000
0000
0001
0000
0000
0100
0000
0000
0010
0000
0000
0100
0000
0000
0000
,
0001
0000
0000
0101
0000
0000
1000
0000
0100
0000
0000
1100
0000
0000
0001
0000
,
0100
0000
0000
1000
0000
0000
0100
0000
0000
0001
0000
0000
0010
0000
1000
0000
,
0010
0000
0000
0100
0000
0000
0001
0000
0000
0100
0000
0000
1000
0000
0010
0000
,
0001
0000
0000
0010
0000
0000
0100
0000
0000
1000
0000
0000
0100
0000
0000
0000
,
0001
0000
0000
0010
0000
0000
0100
0000
1000
0000
0000
0001
0000
0000
0100
0000
,
1000
0000
0000
0100
0000
0000
0001
0000
0000
1000
0000
0000
0100
0000
0001
0000
,
0100
0000
0000
1000
0000
0000
0010
0000
0000
0001
0000
0000
0010
0000
1000
0000
,
0010
0000
0000
0100
0000
0000
0001
0000
0000
0100
0000
0000
1000
0000
0000
0000
,
0001
0000
0000
0110
0000
0000
1000
0000
0001
0000
0000
0110
0000
0000
1001
0000
;
