#TITLE:Take Me Home;
#SUBTITLE:;
#ARTIST:Lagoona;
#TITLETRANSLIT:;
#SUBTITLETRANSLIT:;
#ARTISTTRANSLIT:;
#GENRE:;
#CREDIT:;
#BANNER:takemehomebn.png;
#BACKGROUND:takemehomebg.png;
#LYRICSPATH:;
#CDTITLE:;
#MUSIC:takemehome.ogg;
#OFFSET:-0.201893;
#SAMPLESTART:42.412125;
#SAMPLELENGTH:10.000005;
#SELECTABLE:YES;
#DISPLAYBPM:142.000000;
#BPMS:0.000000=142.080002
,66.500000=213.119995
,68.000000=142.080002
;
#STOPS:64.000000=0.211000
;
#BGCHANGES:16.000=purplespacelines.mp4=1.000=1=0=1=SongBgWithMovieViz==CrossFade==,
32.000=purplespacelines.mp4=1.000=0=0=1===CrossFade_Fastest==,
64.000=flash=1.000=0=0=1=====,
64.750=takemehomebg.png=1.000=0=0=1=StretchNormalRed====,
65.000=takemehomebg.png=1.000=0=0=1=StretchNormalGreen====,
65.250=takemehomebg.png=1.000=0=0=1=StretchNormalBlue====,
66.500=massiveflarelines.mp4=1.000=0=0=1=SongBgWithMovieViz====,
68.000=flash=1.600=0=0=1=====,
68.250=massiveflarelines.mp4=1.000=0=0=1=====,
100.000=flash=1.600=0=0=1=====,
100.250=colorfulhorizonwaves.mp4=1.000=0=0=1=====,
128.000=colorfulhorizonwaves.mp4=1.000=1=0=1=SongBgWithMovieViz==CrossFade==,
132.000=flash=1.600=0=0=1=====,
132.250=purplespacelines.mp4=1.000=0=0=0=StretchNoLoop====,
164.000=massiveflarelines.mp4=1.000=1=0=0=StretchNoLoop==CrossFade==,
193.000=massiveflarelines.mp4=1.000=1=0=1=SongBgWithMovieViz==CrossFade==,
196.000=flash=1.600=0=0=1=====,
196.250=colorfulhorizonwaves.mp4=1.000=0=0=0=StretchNoLoop====,
228.000=purplespacelines.mp4=1.000=0=0=0=StretchNoLoop==CrossFade_Fastest==,
260.000=flash=1.000=0=0=1=====,
260.250=takemehomebg.png=1.000=0=0=1=====,
99999=-nosongbg-=1.000=0=0=0 // don't automatically add -songbackground-
;
#KEYSOUNDS:;
#ATTACKS:;

//---------------dance-single - C. Picardy----------------
#NOTES:
     dance-single:
     :
     Beginner:
     1:
     0.088824,0.144339,0.062177,0.053294,0.000000,70.000000,63.000000,7.000000,6.000000,0.000000,0.000000,0.088824,0.144339,0.062177,0.053294,0.000000,70.000000,63.000000,7.000000,6.000000,0.000000,0.000000:
0000
0000
0000
0000
,
0000
0000
0000
0000
,
0000
0000
0000
0000
,
0000
0000
0000
0000
,
1000
0000
0000
0000
,
0001
0000
0000
0000
,
1000
0000
0000
0000
,
0001
0000
0000
0000
,
0100
0000
0000
0000
,
0010
0000
0000
0000
,
0100
0000
0000
0000
,
0010
0000
0000
0000
,
1000
0000
0000
0000
,
1000
0000
0000
0000
,
0001
0000
0000
0000
,
0001
0000
0000
0000
,
2002
0000
0000
0000
,
3003
0000
0000
0000
,
0100
0000
0000
0000
,
0010
0000
0000
0000
,
0100
0000
0000
0000
,
0001
0000
0000
0000
,
1000
0000
0000
0000
,
0001
0000
0000
0000
,
1000
0000
0000
0000
,
0001
0000
0000
0000
,
1001
0000
0000
0000
,
1000
0000
0000
0000
,
1001
0000
0000
0000
,
0100
0000
0000
0000
,
0110
0000
0000
0000
,
0010
0000
0000
0000
,
0110
0000
0000
0000
,
0001
0000
0000
0000
,
1000
0000
0000
0000
,
0001
0000
0000
0000
,
1000
0000
0000
0000
,
0010
0000
0000
0000
,
0100
0000
0000
0000
,
0010
0000
0000
0000
,
0100
0000
0100
0000
,
0110
0000
0000
0000
,
0200
0000
0000
0300
,
0000
0000
0000
0000
,
0002
0000
0000
0003
,
2000
0000
3000
0000
,
0000
0000
0000
0000
,
0200
0000
0300
0000
,
0000
0000
0000
0000
,
0010
0000
0000
0000
,
0010
0000
0000
0000
,
0100
0000
0000
0000
,
0100
0000
0000
0000
,
1000
0000
0000
0000
,
1000
0000
0000
0000
,
0001
0000
0000
0000
,
0001
0000
0000
0000
,
1000
0000
1000
0000
,
1000
0000
0000
0000
,
0001
0000
0001
0000
,
0001
0000
0000
0000
,
0100
0000
0100
0000
,
0100
0000
0000
0000
,
0010
0000
0010
0000
,
0010
0000
0000
0000
,
1001
0000
0000
0000
;

//---------------dance-single - C. Picardy----------------
#NOTES:
     dance-single:
     :
     Easy:
     3:
     0.248708,0.346414,0.124354,0.097707,0.000000,196.000000,182.000000,14.000000,11.000000,0.000000,0.000000,0.248708,0.346414,0.124354,0.097707,0.000000,196.000000,182.000000,14.000000,11.000000,0.000000,0.000000:
0000
0000
0000
0000
,
0000
0000
0000
0000
,
0000
0000
0000
0000
,
0000
0000
0000
0000
,
0010
0000
0100
0001
,
1000
0000
0100
0010
,
0001
0000
1000
0001
,
0220
0000
0330
0000
,
0100
0000
0010
0000
,
0001
0000
0100
0000
,
1000
0000
0100
0000
,
0010
0000
1000
0000
,
0100
0100
0100
0000
,
0001
0001
0001
0000
,
0010
0010
0010
0000
,
1000
1000
1000
0000
,
1001
0000
0000
0000
,
1000
0001
1000
0000
,
0010
0100
0010
0000
,
1000
0100
0010
0000
,
0001
0100
0010
0000
,
0001
0001
0001
0100
,
0010
0010
0010
1000
,
0100
0100
0100
0010
,
1000
1000
1000
0001
,
0100
0001
0100
0010
,
0100
0010
0100
1000
,
0100
1000
0100
0010
,
1000
0010
1000
0100
,
0001
0100
1000
0100
,
0010
1000
0010
0001
,
0100
0010
0001
0010
,
1000
0100
0010
0100
,
0010
0000
1001
0000
,
1000
0010
0100
0000
,
0010
0000
1010
0000
,
0100
0010
0001
0000
,
0100
0000
0011
0000
,
1000
0001
0010
0000
,
0100
0000
0110
0000
,
1001
1001
0110
0110
,
2000
0000
0000
0000
,
3002
0000
0000
0000
,
0203
0000
0000
0000
,
0320
0000
0000
0030
,
1000
0010
0000
0100
,
0001
1000
0000
0010
,
1000
0001
0000
1000
,
0220
0000
0330
0000
,
1000
1000
0001
0001
,
0100
0010
0100
0010
,
0100
0100
0010
0010
,
1000
0001
1000
0001
,
1000
1000
0100
0100
,
0010
0001
0010
0001
,
0010
0010
0001
0001
,
1000
0100
1000
0100
,
2000
0000
0000
3000
,
0100
0010
0001
0100
,
0020
0000
0000
0030
,
1000
0001
0100
0010
,
0200
0000
0000
0300
,
0001
1000
0100
0010
,
0001
0100
0010
1000
,
1001
0100
1001
0010
,
0110
0000
0000
0000
;

//---------------dance-single - C. Picardy----------------
#NOTES:
     dance-single:
     :
     Medium:
     6:
     0.357834,0.461886,0.133236,0.142119,0.000000,282.000000,267.000000,15.000000,16.000000,0.000000,0.000000,0.357834,0.461886,0.133236,0.142119,0.000000,282.000000,267.000000,15.000000,16.000000,0.000000,0.000000:
0000
0000
0000
0000
,
0000
0000
0000
0000
,
0000
0000
0000
0000
,
0000
0000
0000
0000
,
1000
1000
0001
0001
,
0010
0010
0100
0100
,
0010
0001
0100
0010
,
2002
0000
3003
0000
,
0100
0001
0100
0001
,
0100
0010
0100
0010
,
1000
0010
1000
0010
,
1000
0100
1000
0100
,
0000
0010
0000
0001
0000
0010
0000
0001
,
0000
0100
0000
0001
0000
0100
0000
0001
,
0000
1000
0000
0010
0000
1000
0000
0010
,
0100
0000
0100
0010
,
2002
3003
0000
0000
,
0100
0000
0100
0000
0100
0000
0100
0010
,
1000
0000
1000
0000
1000
0000
1000
0001
,
0010
0000
0010
0000
0010
0000
0010
0001
,
0100
0000
0100
0000
0100
0000
0100
0010
,
0100
0000
0001
0000
0010
0000
0100
1000
,
0100
0000
0010
0000
0100
0000
1000
0010
,
1000
0000
0001
0000
0100
0000
0001
0010
,
0001
0000
1000
0000
0100
0000
0010
0001
,
0010
0000
0100
0000
1000
0000
0001
0100
,
0010
0000
1000
0000
0100
0000
0010
0001
,
0100
0000
0010
0000
1000
0000
0100
0010
,
0001
0000
1000
0000
0010
0000
0100
0001
,
1000
0000
1100
0000
0110
0000
0001
0010
,
0100
0000
0011
0000
0101
0000
0010
1000
,
0001
0000
1100
0000
1001
0000
0100
0010
,
0100
0000
1010
1100
,
0010
0000
0001
0000
0100
0100
0010
0000
,
1000
0000
0010
0000
1000
1000
0100
0000
,
0010
0000
0100
0000
1000
1000
0001
0000
,
0100
0010
1000
0100
,
0010
0001
0001
0000
0100
0010
0010
0000
,
1000
0001
0001
0000
0010
0100
0100
0000
,
1000
0010
0010
0000
0100
0001
0001
0000
,
1010
0000
0100
0000
1010
0000
0001
1000
,
0200
0000
2300
0000
,
3020
0000
0230
0000
,
0320
0000
2030
0000
,
3200
0000
0302
0000
,
0103
0000
1000
0000
0000
0001
1000
0000
,
0001
0000
0010
0000
0000
0100
1000
0000
,
0100
0000
0010
0000
0000
0001
1000
0000
,
0202
0000
0303
0000
,
1000
0000
0001
0000
0100
0010
0100
0000
,
0001
0000
1000
0000
0010
0100
0010
0000
,
0100
0000
0010
0000
1000
0001
1000
0000
,
0100
0000
0010
0000
0001
1000
0001
0000
,
1000
0000
0100
0000
0010
0001
0010
0000
,
0100
0000
1000
0000
0001
0010
0001
0000
,
0100
0000
0001
0000
1000
0010
1000
0000
,
0001
0000
0100
0000
0010
1000
0010
0000
,
0210
0010
1000
1000
,
0001
0000
1000
0000
0310
0000
0001
0010
,
0200
0010
0001
0001
,
1000
0000
0010
0000
1300
0000
0001
0010
,
0100
0000
1000
0000
0010
0100
0001
0000
,
1000
0000
0100
0000
0010
0100
1000
0000
,
0001
0100
1000
0000
1000
0100
0001
0000
,
1000
0001
1000
0001
0100
0000
0010
0000
,
1001
0000
0000
0000
;

//---------------dance-single - C. Picardy----------------
#NOTES:
     dance-single:
     :
     Hard:
     8:
     0.527869,0.610888,0.168766,0.195413,0.346414,416.000000,397.000000,19.000000,22.000000,3.000000,0.000000,0.527869,0.610888,0.168766,0.195413,0.346414,416.000000,397.000000,19.000000,22.000000,3.000000,0.000000:
0000
0000
0000
0000
,
0000
0000
0000
0000
,
0000
0000
0000
0000
,
0000
0000
0000
0000
,
0001
0000
1000
0000
0100
0010
0001
0000
,
1000
0000
0001
0000
0010
0100
1000
0000
,
0001
0100
0001
0100
0010
1000
0010
1000
,
2001
0000
0000
0100
0100
0000
3000
0000
,
0010
0000
0001
0000
0100
0000
0001
0010
,
0100
0000
0010
0000
0001
0000
0100
0010
,
1000
0000
0100
0000
1000
0000
0010
1000
,
0100
0000
0010
0000
0100
0000
0010
0001
,
0100
0001
1000
0000
0100
0000
0010
0100
,
0010
0001
0100
0000
0010
0000
1000
0100
,
0010
0100
1000
0000
0100
0000
0010
0001
,
1001
0000
0100
0000
0010
0000
1000
0001
,
0101
0000
0000
0200
0000
0320
0000
0000
,
1030
0000
0000
1000
0001
0000
0000
0001
1000
0000
0000
1000
0100
0000
0010
0000
,
0001
0000
0000
0001
0100
0000
0000
0100
0001
0000
0000
0001
0100
0000
0010
0000
,
1000
0000
0000
1000
0010
0000
0000
0010
1000
0000
0000
1000
0010
0000
1000
0000
,
0100
0000
0000
0100
0010
0000
0000
0010
0100
0000
0000
0100
0010
0000
0001
0000
,
0100
0000
0000
0100
0010
0000
0000
0010
1000
0000
0000
1000
0010
0000
0100
0000
,
0010
0000
0000
0010
1000
0000
0000
1000
0001
0000
0000
0001
1000
0000
0100
0000
,
0010
0000
0000
0010
0001
0000
0000
0001
0100
0000
0000
0100
0010
0000
1000
0000
,
0100
0000
0000
0100
1000
0000
0000
1000
0010
0000
0000
0010
0100
0000
0001
0000
,
1000
0000
0000
0000
1010
0000
0000
0000
0110
0000
0000
0000
0100
0001
0100
0001
,
0100
0000
0000
0000
1001
0000
0000
0000
1100
0000
0000
0000
0010
0100
0010
0100
,
0010
0000
0000
0000
1100
0000
0000
0000
1001
0000
0000
0000
0001
0000
0010
0001
,
0010
1100
0110
0001
,
1000
0000
0010
0000
0100
0000
0010
0000
1000
0000
0001
0000
0100
0001
0100
0001
,
0100
0000
0010
0000
1000
0000
0001
0000
0100
0000
0010
0000
1000
0010
1000
0010
,
1000
0100
0010
0001
0010
0100
1000
0100
,
2100
0000
0001
3100
,
0010
0000
0001
0000
1000
0000
0000
0100
0000
0010
0000
0001
0000
0000
0000
0000
,
1000
0000
0010
0000
0100
0000
0000
0001
0000
0100
0000
0010
1000
0000
0000
0000
,
0100
0000
1000
0000
0010
0000
0000
0100
0000
0001
0000
1000
0000
0000
0000
0000
,
0001
0000
0100
0000
0010
0000
0000
1000
0000
0001
0000
0100
0010
0000
0000
0000
,
1000
0000
0010
0000
0100
0000
0010
1000
0000
0010
0000
1000
0010
0000
1000
0000
,
0001
0000
0100
0000
0001
0000
0100
0001
0000
0100
0000
0001
0100
0000
0010
0000
,
1000
0000
0001
0000
1000
0000
0001
1000
0000
0001
0000
1000
0001
0000
0000
0000
,
1010
0000
0000
0000
0110
0000
0000
0000
1010
0000
0000
0001
0100
0000
0001
0000
,
0002
0203
2300
3200
,
0302
0023
2030
3020
,
0230
2300
3200
0302
,
0203
2300
3020
0130
,
0001
0000
0100
0000
0M00
1000
1000
0000
,
0010
0000
0000
0000
0100
0000
0000
0000
0M00
0000
0000
0000
0001
0000
1000
0001
,
0000
0100
0M00
0010
,
0220
0000
0000
0330
,
0001
0100
0010
0100
0001
0100
0010
1000
,
0100
1000
0010
1000
0100
1000
0010
1000
,
0100
0010
0001
0010
0100
0010
0001
0010
,
0100
1000
0001
1000
0100
1000
0001
1000
,
0001
0100
0010
1000
0100
0010
0001
0010
,
0100
1000
0100
0010
0001
0100
0010
1000
,
0100
0010
0001
0010
0100
1000
0100
0010
,
0001
0100
0010
1000
0100
0010
0001
0100
,
0010
0000
1000
0000
0100
0000
0000
1000
0000
0010
0000
1000
0001
0000
0000
0000
,
0100
0000
0001
0000
0010
0000
0000
0001
0000
0100
0000
0001
1000
0000
0000
0000
,
0100
0000
1000
0000
0010
0000
0000
0100
0000
0010
0000
1000
0010
0000
0000
0000
,
0100
0000
0001
0000
1000
0000
0000
0100
0000
0010
0000
0001
0010
0000
0000
0000
,
1000
0000
0100
0000
1000
0000
0100
1000
0000
0100
0000
1000
0100
0000
0010
0000
,
0001
0000
0010
0000
0001
0000
0010
0001
0000
0010
0000
0001
0010
0000
0001
0000
,
1000
0000
0001
0000
1000
0000
0001
1000
0000
0001
0000
1000
0001
0000
0000
0000
,
0101
0000
0000
0000
0110
0000
0000
0000
1010
0000
0000
0100
1000
0000
0010
0000
,
2000
0000
3000
0000
;

//---------------dance-single - C. Picardy----------------
#NOTES:
     dance-single:
     :
     Challenge:
     10:
     0.836216,0.894903,0.364179,0.168766,1.025919,659.000000,618.000000,41.000000,19.000000,4.000000,8.000000,0.836216,0.894903,0.364179,0.168766,1.025919,659.000000,618.000000,41.000000,19.000000,4.000000,8.000000:
// measure 0
0000
0000
0000
0000
,  // measure 1
0000
0000
0000
0000
,  // measure 2
0000
0000
0000
0000
,  // measure 3
0000
0000
0000
0000
,  // measure 4
1010
0000
1000
0000
0100
0000
1000
0000
0010
0000
0100
0000
0001
0000
1000
0010
,  // measure 5
1000
0001
0100
0010
0101
0000
0110
0000
,  // measure 6
1000
0001
0100
0000
0001
1000
0100
0000
1000
0001
1000
0001
0100
0001
0100
0001
,  // measure 7
0200
0000
0000
0010
0000
0001
0301
0000
,  // measure 8
1000
0000
0001
1000
0001
0000
1000
0100
1000
0000
0000
0001
1000
0000
0100
1000
,  // measure 9
0100
0000
0010
0001
0010
0000
0001
1000
0001
0000
0000
1000
0001
0000
0100
0001
,  // measure 10
0100
0000
0010
0100
0010
0000
1000
0010
1000
0000
0000
0001
0100
0000
0010
1000
,  // measure 11
0010
0000
1000
0001
1000
0000
0010
0100
0010
0000
0000
0000
1001
0000
0000
0000
,  // measure 12
1000
0000
0100
0010
0001
0000
0100
0010
1000
0000
0000
0100
0010
0000
0001
0010
,  // measure 13
0100
0000
0010
0100
1000
0000
0010
0100
0001
0000
0000
1000
0001
0000
1000
0010
,  // measure 14
0100
0000
0010
1000
0100
0000
0010
0001
0100
0000
0000
0010
1000
0000
0100
0000
,  // measure 15
1001
0000
0000
0000
1000
0000
0010
1000
0001
0000
0000
0010
0100
0000
0010
0000
,  // measure 16
2002
0000
3003
0000
0100
0010
0100
0000
0000
0000
2002
0000
0000
0000
0000
3003
,  // measure 17
0100
0000
0001
0100
0001
0000
0100
0001
0100
0000
0000
0001
1000
0001
1000
0100
,  // measure 18
1000
0000
0100
1000
0100
0000
1000
0100
1000
0000
0000
0100
0010
0001
0010
0001
,  // measure 19
0010
0000
0001
0010
0001
0000
0010
0001
0010
0000
0000
0100
0010
0000
0100
0010
,  // measure 20
0100
0000
0010
0100
0010
0000
0100
0010
0100
0000
0000
0000
1001
0000
0000
0000
,  // measure 21
1000
0000
0010
0100
0001
0000
0010
0100
1000
0000
0000
0001
0100
0010
1000
0100
,  // measure 22
0010
0000
0100
0010
0001
0000
0100
0010
1000
0000
0000
0100
0010
0001
0100
0010
,  // measure 23
1000
0000
0100
0010
0001
0000
0100
0010
1000
0000
0000
0100
0010
0000
0001
0010
,  // measure 24
0100
0000
1000
0100
0010
0000
0001
0100
0010
0000
1000
0001
0100
0000
0010
0000
,  // measure 25
1001
0000
1000
0100
1000
0000
1000
0001
1000
0000
0001
0010
0100
1000
0100
0010
,  // measure 26
0001
0000
0001
0100
0001
0000
0001
1000
0001
0000
1000
0010
0100
0001
0100
0010
,  // measure 27
0100
0000
0100
0001
0100
0000
0100
0010
0100
0000
0100
0001
0010
0000
0010
0100
,  // measure 28
0010
0000
0010
0001
0010
0001
0010
0100
0010
0000
0010
0001
0010
0100
1000
0001
,  // measure 29
0100
0000
0010
1000
0001
0000
0010
0100
1000
0000
0001
0010
0100
1000
0100
0010
,  // measure 30
0001
0000
1000
0100
0010
0000
0001
0100
0010
0000
1000
0001
0100
0010
1000
0100
,  // measure 31
0010
0000
0100
1000
0001
0000
0100
0010
1000
0000
0100
0010
0001
0010
0100
0010
,  // measure 32
0004
0400
0000
0000
0000
0000
0000
0303
0110
0000
0100
0000
1010
0000
0001
0000
,  // measure 33
0001
0100
0001
0100
0001
0100
0000
0010
0000
1000
0000
0010
1000
0000
0100
1000
,  // measure 34
0010
1000
0010
1000
0010
1000
0000
0001
0000
0100
0000
0001
0010
0000
0100
0010
,  // measure 35
0001
0010
0001
0010
0001
0010
0000
0100
0000
1000
0000
0100
0010
0000
0100
1000
,  // measure 36
0001
1000
0001
1000
0001
1000
0000
0100
0000
0010
0000
0001
1000
0000
0101
0000
,  // measure 37
0010
1000
0001
0100
0010
1000
0000
0100
0000
0010
0000
0100
1000
0000
0001
0010
,  // measure 38
0100
0010
0001
0100
0010
1000
0000
0100
0000
1000
0000
0010
0100
0000
0001
0100
,  // measure 39
0010
1000
0010
0100
0001
1000
0000
0100
0000
0010
0000
0001
0100
0000
0010
0000
,  // measure 40
0110
0000
0000
0000
0101
0000
0000
0000
1001
0000
0000
0100
1000
0000
1001
0000
,  // measure 41
0002
0000
0200
0000
0020
0000
M000
0333
,  // measure 42
0200
0000
0020
0000
2000
0000
000M
3330
,  // measure 43
2000
0000
0200
0000
0002
0000
00M0
3303
,  // measure 44
2000
0000
0002
0000
0020
0000
0M00
3033
,  // measure 45
1000
0000
1000
0000
1000
0000
0000
0100
0000
0010
0000
0001
0010
0000
0000
0000
,  // measure 46
0100
0000
0100
0000
0100
0000
0000
1000
0000
0010
0000
0100
0010
0000
0000
1000
,  // measure 47
0010
0000
0010
0000
0010
0000
0000
1000
0000
0001
0000
0100
0010
0000
1000
0000
,  // measure 48
2002
0000
0000
3003
,  // measure 49
0100
0010
0100
0000
0110
0000
1000
0000
0100
1000
0100
0000
1100
0000
0010
0000
,  // measure 50
0001
0010
0001
0000
0011
0000
0100
0000
0001
0100
0001
0000
0101
0000
1000
0000
,  // measure 51
0100
0010
0001
0000
0101
0000
0010
0000
1000
0010
0100
0000
1010
0000
0100
0000
,  // measure 52
0010
0001
0100
0000
0110
0000
1000
0000
0100
1000
0010
0000
0110
0000
1000
0001
,  // measure 53
0100
0001
0100
0000
0101
0000
1000
0010
0100
0010
0100
0000
0110
0000
0001
0010
,  // measure 54
0001
0100
0001
0000
0101
0000
1000
0010
0100
0010
1000
0000
1010
0000
0001
0100
,  // measure 55
0010
1000
0100
0000
0011
0000
1000
0100
0010
0001
1000
0000
0101
0000
0010
1000
,  // measure 56
0001
0100
0010
0000
1001
0000
1000
0100
0010
0001
0100
0000
1010
0000
0001
0100
,  // measure 57
0010
1000
0100
0010
0001
0100
0010
1000
0000
0100
0000
0010
0001
0000
1000
0100
,  // measure 58
0010
0001
0100
0010
1000
0100
0010
0001
0000
1000
0000
0100
0010
0000
0001
0010
,  // measure 59
0100
1000
0100
0010
0001
0010
0100
1000
0000
0001
0000
0100
0010
0000
1000
0100
,  // measure 60
0010
0001
0100
0010
1000
0100
0010
0001
0000
0100
0000
0010
1000
0000
0001
0100
,  // measure 61
0010
0100
0001
0000
1010
0000
1000
0010
0100
0010
1000
0000
0110
0000
0001
0100
,  // measure 62
0010
1000
0100
0000
0011
0000
1000
0100
0010
0100
1000
0000
0011
0000
1000
0100
,  // measure 63
0010
0001
0100
0010
1000
0100
0010
0001
0100
0010
1000
0010
0100
0001
0010
0000
,  // measure 64
1100
0000
0100
0000
0011
0000
0100
0000
0110
0000
0000
0100
0010
0000
0100
0000
,  // measure 65
1001
0000
0000
0000
;
