#TITLE:Sweet Dreams;
#SUBTITLE:;
#ARTIST:La Bouche;
#TITLETRANSLIT:;
#SUBTITLETRANSLIT:;
#ARTISTTRANSLIT:;
#GENRE:;
#CREDIT:;
#BANNER:sweetdreamsbn.png;
#BACKGROUND:sweetdreamsbg.png;
#LYRICSPATH:;
#CDTITLE:;
#MUSIC:sweetdreams.ogg;
#OFFSET:0.001456;
#SAMPLESTART:43.321411;
#SAMPLELENGTH:12.000000;
#SELECTABLE:YES;
#BPMS:0.000000=133.679993
;
#STOPS:
;
#BGCHANGES:16.000=purplestars.mp4=1.000=1=0=1=SongBgWithMovieViz==CrossFade==,
32.000=flash=1.600=0=0=1=====,
32.250=purplestars.mp4=1.000=0=1=1=StretchRewind====,
64.000=redgreenstarsTrim.mp4=1.000=1=1=1=StretchRewind==CrossFade==,
96.000=multicolorstars.mp4=1.000=1=1=1=StretchRewind==CrossFade==,
156.000=multicolorstars.mp4=1.000=1=0=1=SongBgWithMovieViz==CrossFade==,
160.000=purplestars.mp4=1.000=0=0=1===CrossFade_Fastest==,
200.000=sweetdreamsbg.png=1.000=1=0=1===CrossFade==,
99999=-nosongbg-=1.000=0=0=0 // don't automatically add -songbackground-
;
#KEYSOUNDS:;
#ATTACKS:;

//---------------dance-single - C. Picardy----------------
#NOTES:
     dance-single:
     :
     Beginner:
     1:
     0.085839,0.135464,0.032190,0.000000,0.000000,56.000000,53.000000,3.000000,0.000000,0.000000,0.000000,0.085839,0.135464,0.032190,0.000000,0.000000,56.000000,53.000000,3.000000,0.000000,0.000000,0.000000:
// measure 0
0000
0000
0000
0000
,  // measure 1
0000
0000
0000
0000
,  // measure 2
0000
0000
0000
0000
,  // measure 3
0000
0000
0000
0000
,  // measure 4
0000
0000
0000
0000
,  // measure 5
0000
0000
0000
0000
,  // measure 6
0000
0000
0000
0000
,  // measure 7
0000
0000
0000
0000
,  // measure 8
1000
0000
0000
0000
,  // measure 9
0001
0000
0000
0000
,  // measure 10
1000
0000
0000
0000
,  // measure 11
0001
0000
0000
0000
,  // measure 12
0100
0000
0000
0000
,  // measure 13
0010
0000
0000
0000
,  // measure 14
0100
0000
0000
0000
,  // measure 15
0010
0000
0000
0000
,  // measure 16
1001
0000
0000
0000
,  // measure 17
0100
0000
0100
0000
,  // measure 18
0100
0000
0000
0000
,  // measure 19
0010
0000
0000
0000
,  // measure 20
1000
0000
0000
0000
,  // measure 21
0001
0000
0001
0000
,  // measure 22
0001
0000
0000
0000
,  // measure 23
0010
0000
0000
0000
,  // measure 24
0110
0000
0000
0000
,  // measure 25
0100
0000
0000
0000
,  // measure 26
0010
0000
0000
0000
,  // measure 27
1000
0000
0000
0000
,  // measure 28
0001
0000
0000
0000
,  // measure 29
0100
0000
0000
0000
,  // measure 30
0010
0000
0000
0000
,  // measure 31
1000
0000
0000
0000
,  // measure 32
0001
0000
0001
0000
,  // measure 33
0001
0000
0000
0000
,  // measure 34
1000
0000
1000
0000
,  // measure 35
1000
0000
0000
0000
,  // measure 36
0100
0000
0100
0000
,  // measure 37
0100
0000
0000
0000
,  // measure 38
0010
0000
0010
0000
,  // measure 39
0010
0000
0000
0000
,  // measure 40
1001
0000
0000
0000
,  // measure 41
0010
0000
0000
0000
,  // measure 42
0100
0000
0000
0000
,  // measure 43
0001
0000
0000
0000
,  // measure 44
1000
0000
1000
0000
,  // measure 45
1000
0000
0000
0000
,  // measure 46
0001
0000
0001
0000
,  // measure 47
0001
0000
0000
0000
,  // measure 48
0100
0000
0100
0000
,  // measure 49
0100
0000
0000
0000
,  // measure 50
0010
0000
0010
0000
;

//---------------dance-single - ----------------
#NOTES:
     dance-single:
     :
     Easy:
     3:
     0.190072,0.272270,0.042919,0.042919,0.000000,124.000000,120.000000,4.000000,4.000000,0.000000,0.000000,0.190072,0.272270,0.042919,0.042919,0.000000,124.000000,120.000000,4.000000,4.000000,0.000000,0.000000:
0000
0000
0000
0000
,
0000
0000
0000
0000
,
0000
0000
0000
0000
,
0000
0000
0000
0000
,
0000
0000
0000
0000
,
0000
0000
0000
0000
,
0000
0000
0000
0000
,
0000
0000
0000
0000
,
1000
0000
0001
0000
,
1000
0000
0001
0000
,
0100
0000
0010
0000
,
0100
0000
0010
0000
,
1000
0001
0100
0000
,
0010
0000
1000
0000
,
0001
0100
0010
0000
,
1000
0000
0001
0001
,
1001
0000
0100
0000
,
0010
0000
1000
0000
,
0001
0000
1000
0000
,
0100
0100
0010
0010
,
0001
0000
1000
0000
,
0100
0000
0010
0000
,
0001
0000
1000
0000
,
0010
0010
0100
0100
,
1001
0100
0010
0000
,
1000
0000
0001
0000
,
1000
0010
0100
0000
,
0001
0000
0100
0000
,
0010
1000
0001
0000
,
1000
0000
0001
0000
,
0100
0001
1000
0000
,
0100
0000
0010
0000
,
1001
0100
0010
0100
,
0001
0001
1000
0000
,
0100
0010
0001
1000
,
0100
0000
0010
0000
,
0100
1000
0001
1000
,
0010
0100
0010
0000
,
1000
0001
0100
0001
,
1000
0001
0100
0000
,
1001
0010
0100
0010
,
0001
1000
0001
1000
,
0010
0100
0010
0100
,
0001
1000
0001
1000
,
0200
0300
0010
0010
,
0001
0000
1000
0000
,
0020
0030
0100
0100
,
0001
0000
1000
0000
,
0002
0003
1000
0001
,
1000
0000
0100
0000
,
0020
0030
0001
1000
;

//---------------dance-single - C. Picardy----------------
#NOTES:
     dance-single:
     :
     Medium:
     4:
     0.288173,0.326724,0.064379,0.107298,0.000000,188.000000,182.000000,6.000000,10.000000,0.000000,0.000000,0.288173,0.326724,0.064379,0.107298,0.000000,188.000000,182.000000,6.000000,10.000000,0.000000,0.000000:
0000
0000
0000
0000
,
0000
0000
0000
0000
,
0000
0000
0000
0000
,
0000
0000
0000
0000
,
2000
0000
0000
0000
,
3000
0000
0000
0000
,
0002
0000
0000
0000
,
0003
0000
0000
0000
,
0100
0010
0100
0010
,
1000
0001
0100
0010
,
1000
0100
1000
0100
,
0010
0000
0100
0000
1000
0000
0001
0100
,
0010
0100
0001
0100
,
0010
1000
0010
1000
,
0100
0010
0001
1000
,
0010
0000
0100
0000
0001
0000
0100
0010
,
0100
0001
1000
0001
,
0200
0000
0310
1000
,
0200
0000
1300
0001
,
0010
0000
0010
0000
0100
0000
1000
0001
,
0100
0000
0010
0000
1000
0000
0001
0001
,
0000
0002
0000
0000
1003
0000
1000
1000
,
0000
2000
0000
0000
3010
0000
0100
0000
,
0010
0100
0001
0000
,
1100
0010
0100
0001
,
1000
0010
0100
0001
,
1000
0100
0100
0010
,
0001
0000
1000
0000
0010
0000
0100
0001
,
1000
0100
0010
0001
,
1000
0100
1000
0001
,
0010
0100
0100
1000
,
0001
0000
0100
0000
0001
0000
0100
0001
,
0010
0100
1000
0100
,
0010
0000
0100
0000
1000
0000
0001
0100
,
0010
1000
1000
0100
,
0010
0000
0100
0000
1000
0000
0001
0010
,
0100
0010
0010
0100
,
1000
0000
0001
0000
0100
0000
0010
1000
,
0100
0010
0010
0001
,
1000
2000
0002
3003
,
1001
0100
0010
0100
,
0001
0000
1000
0000
0001
0000
1000
0100
,
0010
0100
1000
0010
,
0100
0000
0001
0000
0010
0000
0001
0100
,
0020
1000
0100
1030
,
0001
0101
1000
1100
,
0020
0100
0001
0130
,
1000
1010
0001
0011
,
1000
0000
0001
1000
0000
1000
0001
0000
,
0100
0010
1000
0001
,
0100
0000
0010
0100
0000
0100
0010
0000
;

//---------------dance-single - C. Picardy----------------
#NOTES:
     dance-single:
     :
     Hard:
     7:
     0.423062,0.462859,0.236057,0.053649,0.032190,276.000000,254.000000,22.000000,5.000000,0.000000,0.000000,0.423062,0.462859,0.236057,0.053649,0.032190,276.000000,254.000000,22.000000,5.000000,0.000000,0.000000:
0000
0000
0000
0000
,
0000
0000
0000
0000
,
0000
0000
0000
0000
,
0000
0000
0000
0000
,
0000
0000
0100
0000
0010
0000
0000
0100
,
0000
0100
0000
1000
0000
0002
0000
0000
,
0003
0000
0001
0000
0001
0000
0000
0010
,
0000
0100
0000
0000
0200
0000
0000
0000
,
1300
0100
1000
0100
0010
0100
0010
0100
,
0010
0001
0010
0001
0010
0001
0010
0001
,
0100
0001
0100
0001
0100
0010
0100
0010
,
1000
0010
1000
0010
1000
0010
1000
0010
,
1000
0100
0010
0100
1000
0100
0010
0100
,
1000
0010
0100
0010
1000
0010
0100
0010
,
1000
0001
0100
0001
1000
0001
0100
0001
,
1000
0100
0010
0001
0010
0100
1000
0000
,
0101
0000
0010
0000
1000
0001
0100
0010
,
0000
0010
0000
0010
1000
0100
0010
0001
,
0000
0001
0000
0000
1000
0000
0001
1000
,
0100
0000
0100
0000
0010
0000
0010
0001
,
0000
0000
1000
1000
0001
0010
0100
1000
,
0000
1000
0000
0100
0010
0001
0100
0010
,
0000
0010
0000
0000
1000
0000
0001
0100
,
0010
1000
0001
0100
,
1001
0010
1001
0100
,
0001
0100
0010
1000
0000
1000
0000
0001
,
0100
0000
0010
0000
1010
0000
0001
0100
,
0000
0010
0000
2000
0000
0000
3001
0001
,
1000
0000
1100
0000
0001
0000
0010
0100
,
0000
0100
0000
0010
0000
0010
0000
0100
,
1000
0000
0001
0000
0101
0000
0100
0010
,
0000
0010
0000
0000
0200
0000
0010
0310
,
1000
1010
1001
0100
,
0001
0100
0010
1000
0000
0001
0000
1000
,
0100
0000
0110
0000
0011
0000
0010
0100
,
0000
0100
0000
2000
0000
0000
3010
0010
,
0100
0000
0101
0000
0011
0000
0100
0010
,
0000
0100
0000
1000
0000
0001
0000
1000
,
0001
0100
1001
0010
,
0101
1000
0110
1001
,
0001
0010
0001
0010
0100
0010
0100
0010
,
0100
1000
0100
1000
0100
1000
0100
1000
,
0010
0100
0010
0100
0001
0100
0001
0100
,
0001
1000
0001
1000
0001
1000
0001
1000
,
0010
0000
0000
0100
0000
0000
0001
0000
0000
1000
0000
0000
0001
0000
1000
0000
,
0000
1100
0000
0010
0000
0101
0000
1000
,
0001
0000
0000
0100
0000
0000
0010
0000
0000
0000
0010
0000
1000
0000
0000
0000
,
0000
0110
0000
0101
0000
1000
0000
0001
,
1000
0000
0000
0001
0000
0000
1000
0000
0000
0010
0000
0000
1000
0000
0100
0000
,
0000
0011
0000
1000
0000
0101
0000
0010
,
1000
0000
0000
0001
0000
0000
0100
0000
0000
0000
0001
0000
1000
0000
0000
0000
;

//---------------dance-single - C. Picardy----------------
#NOTES:
     dance-single:
     :
     Challenge:
     9:
     0.662185,0.898490,0.064379,0.568682,0.595506,432.000000,426.000000,6.000000,53.000000,0.000000,4.000000,0.662185,0.898490,0.064379,0.568682,0.595506,432.000000,426.000000,6.000000,53.000000,0.000000,4.000000:
0000
0000
0000
0000
,
0000
0000
0000
0000
,
0000
0000
0000
0000
,
0000
0000
0000
0000
,
0002
0000
0200
0003
2000
0300
3200
0010
,
0000
0320
0000
1000
0000
2000
0000
3030
,
0002
0000
2000
0003
0200
3000
0302
1000
,
0000
2000
0003
0000
0020
3000
0001
0031
,
0100
0000
0001
0100
0001
0000
0100
0001
0100
0000
0001
0100
0001
0000
1000
0001
,
1000
0000
0001
1000
0001
0000
1000
0100
1000
0000
0100
1000
0100
0000
0010
0100
,
0010
0000
0100
0010
0100
0000
1000
0100
1000
0000
0010
0100
0010
0000
1000
0010
,
1000
0000
0001
0100
0001
0000
1000
0001
1000
0000
0001
1000
0001
0000
0100
0000
,
0001
0000
0010
0100
1000
0000
0010
0100
0001
0000
1000
0010
0100
0000
0001
0100
,
0010
0000
1000
0100
0010
0000
0100
0010
0001
0000
0010
0100
1000
0000
0001
0100
,
0010
0000
1000
0001
0100
0000
0010
1000
0001
0000
1000
0001
0010
0000
0100
0010
,
0001
0000
1000
0001
0100
0000
0001
1000
0001
0000
1000
0001
1000
0000
0100
0000
,
1100
0010
0100
1000
0010
0100
0001
0200
,
0000
1000
0000
0310
0010
0100
0001
0020
,
0000
0100
0000
0001
0031
0010
0100
1000
,
0020
0000
0230
0000
0002
0000
1000
1000
,
0303
0000
0001
0100
0010
1000
0200
0020
,
0000
0001
0330
1000
0001
0100
0002
2000
,
0000
0010
0000
3003
0001
0100
1000
0100
,
0002
0000
0020
0003
0100
0230
0000
1000
,
1300
0000
0001
0000
1000
0000
0010
0100
0010
0000
1000
0010
1000
0000
0001
0100
,
0002
0000
2000
0003
0020
3000
0200
0030
0002
0300
0020
0003
0200
0030
1000
0301
,
0100
0000
0001
0100
0001
0000
1000
0001
1000
0000
0100
1000
0100
0000
2000
0000
,
0002
3000
0200
0003
0020
0300
2000
0030
0200
3000
0020
0300
0002
0030
1000
0003
,
0100
0000
1000
0010
1000
0000
0001
1000
0001
0000
0010
0001
0010
0000
0100
0000
,
2000
0000
0020
3000
0200
0030
0020
0300
2000
0030
0002
3000
0200
0003
0010
0300
,
1000
0000
0001
0100
0001
0000
0010
0001
0010
0000
0100
1000
0100
0000
0020
0000
,
0100
0000
0130
0000
0010
0000
0000
0000
0022
0000
0000
0033
1000
0000
0101
0000
,
1001
0000
0010
1000
0010
0000
1000
0010
1000
0000
0001
1000
0001
0000
1000
0100
,
1000
0000
0100
0010
0100
0000
1000
0100
1000
0000
0001
0100
0001
0000
1000
0000
,
0001
0000
0010
0001
0010
0000
0001
0100
0001
0000
0100
0010
0100
0000
0001
0010
,
0001
0000
1000
0001
1000
0000
0010
1000
0010
0000
1000
0000
0001
0000
0101
0000
,
0110
0000
1000
0001
0100
0000
0001
1000
0010
0000
0100
0010
1000
0000
0001
1000
,
0100
0000
0010
0100
1000
0000
0001
0010
0100
0000
0010
0100
1000
0000
0001
0000
,
0100
0001
0100
0001
0100
0001
0100
0001
0100
0010
0100
0010
0100
0010
0100
0010
,
1000
0010
1000
0010
1000
0010
1000
0010
1000
0100
1000
0100
1000
0100
1000
0100
,
1000
0000
0001
0100
0010
0000
1000
0001
0100
0000
0010
1000
0001
0000
0010
0100
,
1000
0000
0001
0010
0100
0000
1000
0001
0100
0000
0001
0100
0010
0000
1000
0000
,
0001
0000
1000
0001
0100
0000
0001
1000
0100
0000
0010
0100
1000
0000
0010
0000
,
1000
0000
0001
0000
1000
0000
0001
0000
0100
0010
0100
0010
0100
0010
0100
0010
,
0200
0000
0000
0010
0000
0000
1000
0000
0000
0001
0000
0000
0010
0000
0310
0000
,
0000
0000
0100
0001
0000
0000
0100
0010
0000
0000
0100
0001
0000
0000
0100
0010
,
0200
0000
0000
0001
0000
0000
1000
0000
0000
0000
0001
0000
0301
0000
1000
0000
,
0000
0000
0100
0010
0000
0000
0100
1000
0000
0000
0100
0010
0000
0000
0100
1000
,
0002
0000
0000
0010
0000
0000
1000
0000
0000
0100
0000
0000
0010
0000
0013
0000
,
0000
0000
0100
1000
0000
0000
0001
0100
0000
0000
0001
1000
0000
0000
0010
1000
,
0002
0000
0000
0010
0000
0000
0100
0000
0000
0000
0013
0000
0100
0000
0000
0000
;
