#TITLE:Super Driver;
#SUBTITLE:;
#ARTIST:Daniel;
#TITLETRANSLIT:;
#SUBTITLETRANSLIT:;
#ARTISTTRANSLIT:;
#GENRE:;
#CREDIT:;
#BANNER:superdriverbn.png;
#BACKGROUND:superdriverbg.png;
#LYRICSPATH:;
#CDTITLE:;
#MUSIC:superdriver.ogg;
#OFFSET:-0.011422;
#SAMPLESTART:53.941822;
#SAMPLELENGTH:12.000000;
#SELECTABLE:YES;
#BPMS:0.000000=160.000000
;
#STOPS:
;
#BGCHANGES:16.000=flash=1.600=0=0=1=====,
16.250=fast.mp4=1.000=0=1=1=StretchRewind====,
28.000=fast.mp4=1.000=0=0=1=SongBgWithMovieViz====,
29.000=fast.mp4=1.000=0=0=1=SongBgWithMovieViz===#FF0000=,
29.500=fast.mp4=1.000=0=0=1=SongBgWithMovieViz===#00FF00=,
30.500=fast.mp4=1.000=0=0=1=SongBgWithMovieViz===#0000FF=,
31.500=fast.mp4=1.000=0=0=1=SongBgWithMovieViz====,
32.000=flash=1.600=0=0=1=====,
32.250=fast.mp4=1.000=0=0=1=====,
44.000=flash=0.700=0=0=1=====,
44.250=superdriverbg.png=0.500=1=0=1===CrossFade==,
48.000=flash=3.000=0=0=1=====,
48.250=fastspinningcircles.mp4=1.000=0=1=1=StretchRewind====,
48.500=flash=3.000=0=0=1=====,
48.750=fastspinningcircles.mp4=1.000=0=0=1=====,
52.000=flash=3.000=0=0=1=====,
52.250=fastspinningcircles.mp4=1.000=0=0=1=====,
52.500=flash=3.000=0=0=1=====,
52.750=fastspinningcircles.mp4=1.000=0=0=1=====,
64.000=flash=3.000=0=0=1=====,
64.250=fastspinningcircles.mp4=1.000=0=0=1=====,
64.500=flash=3.000=0=0=1=====,
64.750=fastspinningcircles.mp4=1.000=0=0=1=====,
68.000=flash=3.000=0=0=1=====,
68.250=fastspinningcircles.mp4=1.000=0=0=1=====,
68.500=flash=3.000=0=0=1=====,
68.750=fastspinningcircles.mp4=1.000=0=0=1=====,
80.000=rainbowrays.mp4=1.000=0=1=1=StretchRewind==CrossFade_Fastest==,
108.000=flash=1.800=0=0=1=====,
108.250=superdriverbg.png=1.000=0=0=1=====,
108.500=flash=1.800=0=0=1=====,
108.750=superdriverbg.png=1.000=0=0=1=====,
109.500=flash=1.800=0=0=1=====,
109.750=superdriverbg.png=1.000=0=0=1=====,
112.000=fast.mp4=1.000=0=0=1===CrossFade_Fastest==,
139.500=flash=1.000=0=0=1=====,
139.750=superdriverbg.png=1.000=0=0=1=====,
142.500=superdriverbg.png=1.000=0=0=1====#00FF00=,
143.500=superdriverbg.png=1.000=0=0=1====#0000FF=,
144.000=flash=1.800=0=0=1=====,
144.250=colorfulfasttunnel.mp4=1.000=0=1=1=StretchRewind====,
176.000=flash=1.800=0=0=1=====,
176.250=colorfulfasttunnel.mp4=1.000=0=0=1=====,
199.500=flash=1.000=0=0=1=====,
199.750=superdriverbg.png=1.000=1=0=1===CrossFade==,
202.500=superdriverbg.png=1.000=0=0=1====#FF0000=,
203.000=superdriverbg.png=1.000=0=0=1====#00FF00=,
203.500=superdriverbg.png=1.000=0=0=1====#0000FF=,
204.500=superdriverbg.png=1.000=0=0=1====#FF00FF=,
205.000=superdriverbg.png=1.000=0=0=1====#00FFFF=,
205.500=superdriverbg.png=1.000=0=0=1====#FFFF00=,
206.000=flash=1.000=0=0=1=====,
206.250=superdriverbg.png=1.000=0=0=1=====,
208.000=flash=3.000=0=0=1=====,
208.250=fastspinningcircles.mp4=1.000=0=0=1=====,
208.500=flash=3.000=0=0=1=====,
208.750=fastspinningcircles.mp4=1.000=0=0=1=====,
212.000=flash=3.000=0=0=1=====,
212.250=fastspinningcircles.mp4=1.000=0=0=1=====,
212.500=flash=3.000=0=0=1=====,
212.750=fastspinningcircles.mp4=1.000=0=0=1=====,
224.000=flash=3.000=0=0=1=====,
224.250=fastspinningcircles.mp4=1.000=0=0=1=====,
224.500=flash=3.000=0=0=1=====,
224.750=fastspinningcircles.mp4=1.000=0=0=1=====,
228.000=flash=3.000=0=0=1=====,
228.250=fastspinningcircles.mp4=1.000=0=0=1=====,
228.500=flash=3.000=0=0=1=====,
228.750=fastspinningcircles.mp4=1.000=0=0=1=====,
240.000=flash=3.000=0=0=1=====,
240.250=colorfulfasttunnel.mp4=1.000=0=0=1=====,
240.500=flash=3.000=0=0=1=====,
240.750=colorfulfasttunnel.mp4=1.000=0=0=1=====,
244.000=flash=3.000=0=0=1=====,
244.250=colorfulfasttunnel.mp4=1.000=0=0=1=====,
244.500=flash=3.000=0=0=1=====,
244.750=colorfulfasttunnel.mp4=1.000=0=0=1=====,
256.000=flash=3.000=0=0=1=====,
256.250=colorfulfasttunnel.mp4=1.000=0=0=1=====,
256.500=flash=3.000=0=0=1=====,
256.750=colorfulfasttunnel.mp4=1.000=0=0=1=====,
260.000=flash=3.000=0=0=1=====,
260.250=colorfulfasttunnel.mp4=1.000=0=0=1=====,
260.500=flash=3.000=0=0=1=====,
260.750=colorfulfasttunnel.mp4=1.000=0=0=1=====,
272.000=rainbowrays.mp4=1.000=0=0=1===CrossFade_Fastest==,
300.000=flash=1.800=0=0=1=====,
300.250=superdriverbg.png=1.000=0=0=1=====,
300.500=flash=1.800=0=0=1=====,
300.750=superdriverbg.png=1.000=0=0=1=====,
301.500=flash=1.800=0=0=1=====,
301.750=superdriverbg.png=1.000=0=0=1=====,
99999=-nosongbg-=1.000=0=0=0 // don't automatically add -songbackground-
;
#KEYSOUNDS:;
#ATTACKS:;

//---------------dance-single - C. Picardy----------------
#NOTES:
     dance-single:
     :
     Beginner:
     1:
     0.102770,0.164494,0.078957,0.000000,0.000000,82.000000,73.000000,9.000000,0.000000,0.000000,0.000000,0.102770,0.164494,0.078957,0.000000,0.000000,82.000000,73.000000,9.000000,0.000000,0.000000,0.000000:
0000
0000
0000
0000
,
0000
0000
0000
0000
,
0000
0000
0000
0000
,
0000
0000
0000
0000
,
0010
0000
0000
0000
,
0000
0000
0000
0000
,
0100
0000
0000
0000
,
0000
0000
0000
0000
,
1000
0000
0000
0000
,
0000
0000
0000
0000
,
0001
0000
0000
0000
,
1001
0000
0000
0000
,
1001
0000
0000
0000
,
0100
0000
0000
0000
,
0010
0000
0000
0000
,
1000
0000
0000
0000
,
0001
0000
0000
0000
,
0001
0000
0000
0000
,
1000
0000
0000
0000
,
0010
0000
0000
0000
,
0100
0000
0000
0000
,
0001
0000
0001
0000
,
0001
0000
0000
0000
,
1000
0000
0000
0000
,
0100
0000
0000
0000
,
0010
0000
0010
0000
,
0010
0000
0000
0000
,
1000
0000
0000
0000
,
1001
0000
0000
0000
,
0001
0000
0000
0000
,
1000
0000
0000
0000
,
0010
0000
0000
0000
,
0100
0000
0000
0000
,
0001
0000
0000
0000
,
1000
0000
0000
0000
,
0000
0000
0000
0000
,
1001
0000
0000
0000
,
0001
0000
0000
0000
,
1000
0000
1000
0000
,
1000
0000
0000
0000
,
0100
0000
0000
0000
,
0010
0000
0010
0000
,
0010
0000
0000
0000
,
0001
0000
0000
0000
,
1001
0000
0000
0000
,
0100
0000
0100
0000
,
0100
0000
0000
0000
,
0010
0000
0000
0000
,
1000
0000
0000
0000
,
0001
0000
0001
0000
,
0000
0000
0000
0000
,
1001
0000
0000
0000
,
0100
0000
0000
0000
,
0010
0000
0000
0000
,
1000
0000
0000
0000
,
0001
0000
0000
0000
,
0100
0000
0000
0000
,
0010
0000
0000
0000
,
1000
0000
0000
0000
,
0001
0000
0000
0000
,
1001
0000
0000
0000
,
1000
0000
0000
0000
,
0001
0000
0000
0000
,
1000
0000
0000
0000
,
1001
0000
0000
0000
,
1001
0000
0000
0000
,
0100
0000
0000
0000
,
0010
0000
0000
0000
,
1000
0000
0000
0000
,
1000
0000
0000
0000
,
0001
0000
0000
0000
,
0001
0000
0000
0000
,
0100
0000
0000
0000
,
0100
0000
0000
0000
,
0010
0000
0000
0000
,
0010
0000
0000
0000
;

//---------------dance-single - C. Picardy----------------
#NOTES:
     dance-single:
     :
     Challenge:
     12:
     1.052761,1.157215,0.438650,0.166687,1.096626,840.000000,790.000000,50.000000,19.000000,100.000000,0.000000,1.052761,1.157215,0.438650,0.166687,1.096626,840.000000,790.000000,50.000000,19.000000,100.000000,0.000000:
0000
0000
0000
0000
,
0000
0000
0000
0000
,
0000
0000
0000
0000
,
0100
0010
0100
0010
0100
0000
1000
0000
0001
0000
0100
0000
0000
MMMM
0000
0000
,
0001
0100
0001
1000
0100
1000
0010
0100
,
0001
0000
1000
0000
0100
0000
1000
0000
0010
0000
0100
0000
0001
0000
1000
0010
,
1000
0000
0001
0100
0001
0000
1000
0100
1000
0000
0001
0010
0001
0000
1000
0100
,
0010
MMM0
0001
M1MM
0000
MM1M
0000
1MMM
,
0100
0000
0001
0000
0100
0000
1000
0000
0010
0000
0100
0000
0001
0000
1000
0100
,
0010
0000
0001
0010
0100
0000
1000
0010
0100
0000
0001
0100
0010
0000
1000
0001
,
0100
0010
1000
0001
0100
0010
1000
0100
,
0022
MM00
0000
MM00
0000
MM00
0000
MM33
,
1100
0000
11MM
0000
1000
0001
0100
0010
1000
0100
0010
0001
0010
0100
1000
0001
,
0100
0000
M1M1
0000
1000
0001
0100
0010
0100
0001
1000
0100
0010
0100
1000
0001
,
1000
0100
1000
0100
0001
0100
0001
0100
1000
0010
1000
0010
0001
0010
0001
0010
,
1000
0000
0010
0000
1000
0000
0010
0000
0100
0000
0001
0000
0100
0000
0001
0000
1000
0000
0001
0000
1000
0000
0001
0000
0100
0000
0010
0000
0100
0001
0100
0001
,
0100
0000
M11M
0000
1000
0001
0010
0100
0010
0001
1000
0010
0100
0001
0010
0100
,
0010
0000
MM11
0000
1000
0100
0010
0001
1000
0010
0100
0001
1000
0100
0010
0001
,
0100
0001
0100
0001
0100
1000
0100
1000
0100
0010
0100
0010
1000
0010
1000
0010
,
0001
0000
0010
0000
0001
0000
0010
0000
0100
0000
0001
0000
0100
0000
0001
0000
0010
0000
0100
0000
0010
0000
0100
0000
1000
0000
0001
0000
1000
0001
1000
0001
,
1000
0100
0010
0100
1000
0001
0010
0100
,
0010
0001
0100
0010
1000
0001
0100
0010
,
1000
0010
0000
1000
0010
0000
0100
0001
0100
0001
0100
0000
0010
0000
1000
0001
,
0200
0010
0310
2000
0MM1
3001
1MM0
1010
,
1001
0100
0010
1000
0100
0010
0100
1000
,
0010
0001
0010
1000
0001
0100
0010
1000
,
0001
0010
0001
0010
0100
1000
0100
1000
0001
0010
0100
1000
0001
0000
0100
0000
,
0101
M11M
0000
1MM1
0000
M00M
0000
0MM0
,
0110
0100
0001
1000
0100
0001
0100
1000
,
1010
0100
0001
1000
0010
0100
0001
0010
,
0110
0100
1000
0001
0100
0010
1000
0100
,
1100
0100
0010
0001
0101
1000
0010
0100
,
0010
1000
0010
1000
0001
1000
0200
0000
0010
0000
0310
0001
0010
0100
1000
0000
,
0001
0100
1000
0100
0010
1000
0100
0010
,
0001
0010
0001
0010
0100
1000
0100
1000
0001
0010
0100
1000
0001
0100
0020
0000
,
MM0M
0000
MM0M
0000
MM3M
1001
0000
0101
,
1100
0000
1000
0000
0010
0000
0100
0000
0101
0000
1000
0000
0010
0000
1000
0100
,
0010
0100
1000
0010
0110
0100
0001
0010
,
0100
1000
0100
1000
0100
0010
0100
0010
0001
0010
0001
0010
0100
0010
0100
0000
,
1000
0001
0100
0010
1010
1000
0100
0010
,
0011
0100
0020
1000
2030
0001
0001
3001
,
0201
0010
0010
0310
2000
0001
3001
0102
,
0100
0100
0100
0100
0103
0010
1000
1001
,
M00M
0100
0001
0010
0100
0010
1001
M10M
,
1MM1
0000
0100
0000
0010
0000
1000
0000
0001
0000
0010
0000
0100
0000
0010
0001
,
0100
0010
1000
0100
0001
0100
1000
0010
,
0100
0001
0100
0001
0100
0010
0100
0010
1000
0100
1000
0100
0010
0001
0010
0001
,
1000
0010
0100
0010
1010
1000
0001
0100
,
0101
0001
2000
0010
3020
0100
0100
0130
,
0002
0100
0203
1000
2300
0100
3100
0202
,
M0M0
0000
M0M0
0000
M3M3
1000
0010
1001
,
0000
0100
1001
0010
1001
0000
MMMM
0000
,
MM11
0000
MM11
0000
0100
0010
0100
1000
0001
0100
0010
0100
0001
1000
0100
0010
,
0100
0000
11MM
0000
0010
0100
1000
0001
0100
0010
0100
0001
0010
0100
1000
0010
,
0100
0001
0100
0001
0100
1000
0100
1000
0100
0001
0100
0001
0010
0001
0010
0001
,
1000
0000
0100
0000
1000
0000
0100
0000
0001
0000
0100
0000
0001
0000
0100
0000
1000
0000
0100
0000
0010
0000
0001
0000
1000
0000
0100
0000
0010
0100
0010
0100
,
0010
0000
11MM
0000
0001
0100
0010
0100
0001
0010
0100
0010
0001
1000
0100
0010
,
0001
0000
1MM1
0000
1000
0100
0010
0001
1000
0100
0010
0001
1000
0010
0100
0001
,
0010
0100
0010
0100
1000
0100
1000
0100
0001
0100
0001
0100
1000
0010
1000
0010
,
0100
0000
0001
0000
0100
0000
0001
0000
0010
0000
0100
0000
0010
0000
0100
0000
1000
0000
0001
0000
0100
0000
0010
0000
1000
0000
0001
0000
1000
0010
1000
0010
,
1000
0000
M11M
0000
0001
0100
0010
1000
0001
0010
0100
1000
0001
0100
0010
0100
,
0001
0000
1M1M
0000
0001
0100
0010
1000
0100
0010
0100
1000
0001
0100
0010
1000
,
0001
0100
0010
0100
1000
0100
0010
1000
0100
0010
0100
0001
0100
0010
0100
1000
,
0010
0000
0100
0000
0010
0000
0001
0000
0010
0000
1000
0000
0010
0000
0100
0000
0010
0000
0001
0000
0010
0000
1000
0000
0001
0000
0100
0000
0001
0010
0001
0010
,
0001
0000
M11M
0000
1000
0001
0100
0010
0100
0001
1000
0100
0010
0100
1000
0010
,
0100
0000
1MM1
0000
0001
0100
0010
1000
0100
0010
0001
0100
0010
1000
0001
0010
,
0100
1000
0100
0001
0100
0010
0100
1000
0010
0100
0010
0001
0010
1000
0010
0100
,
0001
0000
0010
0000
0100
0000
1000
0000
0100
0000
0010
0000
0001
0000
0010
0000
0100
0000
1000
0000
0100
0000
0010
0000
0100
0000
1000
0000
0001
1000
0001
1000
,
0001
0100
0010
0100
1000
0100
0001
1000
,
0100
0010
1000
0010
0100
0010
0001
1000
,
0010
0100
0000
0001
0100
0000
0001
1000
0001
1000
0001
1000
0100
0000
0010
0100
,
1000
MMM0
0001
M1M1
0000
11MM
0000
M1M1
,
1001
0001
0010
0200
1000
1300
0010
0100
,
0001
0000
0100
0001
0100
0000
0010
1000
0010
1000
0010
0000
1000
0000
0001
0000
,
0010
0100
0010
0001
1000
0010
0100
0010
1000
0100
0010
0100
1000
0001
0100
0010
,
0110
1MM1
0000
M11M
0000
0000
0000
0000
;

//---------------dance-single - ----------------
#NOTES:
     dance-single:
     :
     Hard:
     8:
     0.567739,0.628202,0.263190,0.114049,0.065798,453.000000,423.000000,30.000000,13.000000,10.000000,0.000000,0.567739,0.628202,0.263190,0.114049,0.065798,453.000000,423.000000,30.000000,13.000000,10.000000,0.000000:
0000
0000
0000
0000
,
0000
0000
0000
0000
,
0000
0000
0000
0000
,
0220
0000
0000
0330
,
1001
0010
0100
0010
,
0001
0100
0010
1000
,
0001
0000
0000
0001
0100
0000
0000
0100
0001
0000
0000
0001
1000
0000
0000
0000
,
0100
0000
0010
0100
0000
1000
0000
0001
,
0101
0100
0010
1000
,
0001
0000
0000
0001
0010
0000
0000
0010
0100
0000
0000
0100
1000
0000
0000
1000
,
0001
0010
0001
0100
,
2020
0000
0000
3030
,
1001
1001
1000
0100
0010
0001
0100
0010
,
1000
1000
0001
0100
0010
0100
0001
0010
,
0100
1000
0100
0010
0100
1000
0100
0010
,
0001
0100
0010
0000
1000
0000
0100
0000
,
0011
0011
0010
0100
1000
0001
0100
0010
,
0100
0100
0001
0100
0010
1000
0001
0010
,
0100
1000
0100
1000
0100
0010
0100
0010
,
0001
0100
0001
0100
0020
0000
0000
0000
,
1030
0000
0001
0000
1000
0010
1000
0000
,
0001
0000
0100
0000
0010
1000
0100
0000
,
0010
0001
0000
0010
0001
0000
0000
0000
0010
0000
0100
0000
1000
0000
0000
0000
,
0001
0000
0100
0010
0000
1000
0001
0100
,
0010
0000
1000
0000
0100
0010
0001
0000
,
1000
0000
0010
0000
0100
0010
1000
0000
,
0001
0010
0100
1000
0100
0010
0001
0000
,
0100
0110
0000
1001
0000
M00M
0000
0000
,
0110
0000
1000
0000
0001
0100
0010
0000
,
1000
0000
0001
0000
0010
0100
1000
0100
,
0010
0000
0001
0000
1000
0100
0001
0000
,
0001
0100
1000
0000
1000
0010
0001
0000
,
0010
0000
1000
0001
0000
1000
0100
1000
,
0000
0001
0100
0001
0000
1000
0100
0020
,
0001
0000
1000
0000
0001
0000
0130
1100
,
0000
0000
MMMM
0000
0000
M11M
0000
1000
,
0001
0100
0010
1000
0100
0000
1001
0000
,
0001
0100
1000
0100
0001
0000
0010
0200
,
0010
0000
0001
0000
1000
0000
0310
0100
,
1000
0010
0100
0000
0001
0100
0010
1000
,
0000
0001
1000
0100
0010
0000
0110
0000
,
0001
0001
0100
0100
0010
0000
0010
2000
,
0010
0000
0001
0000
3100
0010
0001
0010
,
0000
0100
1000
0001
1001
0000
0110
0000
,
1000
0001
0010
0001
0100
0000
0110
0000
,
0001
0100
0010
1000
0100
0000
1000
0001
,
1002
0000
0010
0000
1000
0000
0103
0010
,
1000
0100
0010
0000
0001
0001
0010
0100
,
0100
1000
1000
0010
0100
0000
1001
0000
,
0001
0001
0100
0100
0010
0000
1000
2002
,
0000
0000
0000
0000
3003
1000
0010
0100
,
0000
0001
0010
0100
0110
0000
0MM0
0000
,
1000
1000
0001
0100
1000
0100
0001
0010
,
0100
0100
1000
0001
0100
0001
0010
0100
,
1000
0100
0001
0100
1000
0100
0001
0100
,
1000
0010
0001
0010
1000
0000
0001
0000
,
1000
1000
0001
0010
1000
0010
0001
1000
,
0100
0100
0010
0001
0100
0001
0010
0001
,
1000
0010
0100
0010
0001
0010
1000
0100
,
0220
0000
0000
0330
,
1100
1100
0100
0010
0001
0010
0100
1000
,
0001
0001
0100
0001
0010
0001
0100
0010
,
1000
0100
0010
0100
1000
0100
0010
0100
,
1000
0010
0100
0010
1000
0000
0001
0000
,
0101
0101
0100
0010
1000
0100
0010
0001
,
1000
1000
0010
0100
0001
0100
0010
1000
,
0100
0010
0001
0010
0100
0010
0001
0010
,
0400
0000
4000
0000
,
3300
0100
0010
0100
,
1000
0010
0100
0010
,
1000
0001
0000
1000
0001
0000
0000
0000
0010
0000
0100
0000
1000
0000
0000
0000
,
0010
0000
1000
0100
0000
0010
0000
0001
,
0100
0000
0010
0000
0100
0100
0001
0000
,
1000
0100
0001
0100
,
1000
0100
0000
0000
0100
0010
0000
0000
0010
0001
0000
0000
0001
0100
0000
0000
,
0101
0101
0000
1100
0000
0000
0000
0000
;

//---------------dance-single - C. Picardy----------------
#NOTES:
     dance-single:
     :
     Easy:
     4:
     0.297029,0.396759,0.175460,0.140368,0.000000,237.000000,217.000000,20.000000,16.000000,0.000000,0.000000,0.297029,0.396759,0.175460,0.140368,0.000000,237.000000,217.000000,20.000000,16.000000,0.000000,0.000000:
0000
0000
0000
0000
,
0000
0000
0000
0000
,
0000
0000
0000
0000
,
0000
0000
0000
0000
,
0001
0000
0100
0000
,
0001
0000
0010
0000
,
0100
0100
1000
1000
,
0010
0000
0000
0000
,
1001
0000
0100
0000
,
0010
0010
0001
0001
,
0100
0000
0010
0000
,
2002
0000
0000
3003
,
1000
1000
0001
0100
,
0010
0010
1000
0100
,
0010
0100
1000
0001
,
0010
0100
1000
0010
,
1001
0100
0010
1000
,
0110
0001
1000
0100
,
0110
0001
0100
0010
,
2000
0000
0000
3000
,
0001
0000
0100
0000
,
0010
0000
1000
0000
,
0001
0001
1000
1000
,
0100
0010
0100
1000
,
1001
0000
0100
0000
,
0010
0000
1000
0000
,
0001
1000
0100
0010
,
0110
0000
0000
0000
,
1001
0000
0100
0000
,
0010
0000
1000
1000
,
0001
0000
1000
0000
,
0100
0000
0010
0010
,
0100
1000
0001
0000
,
0100
0000
0010
0000
,
1000
0001
0100
0010
,
1001
0000
0000
0000
,
0001
1000
0100
0100
,
0010
0001
1000
0010
,
0200
0000
0301
0000
,
1000
1000
0001
0100
,
0010
1000
1000
0001
,
0100
0100
0010
1000
,
2200
0000
0000
3300
,
0001
0100
0101
0000
,
1000
0001
0100
0100
,
0010
1000
1000
0100
,
0020
0000
0130
0000
,
1000
0001
0100
0100
,
0010
1000
0001
0001
,
1000
0100
0100
0022
,
0000
0000
0033
0000
,
1001
0000
0110
0000
,
0010
1000
0001
0100
,
0010
0010
1000
0001
,
0100
0010
1000
0100
,
0010
0001
0100
0000
,
0001
1000
0100
0010
,
0001
0001
1000
0010
,
0100
0001
0100
0010
,
2000
0000
0002
3003
,
1010
1000
0001
0100
,
0011
0100
1000
0010
,
0100
0100
0001
0001
,
1000
0100
0010
0001
,
0101
0100
0010
1000
,
1100
0010
0100
1000
,
0001
0100
0010
1000
,
0002
0000
2000
3003
,
1001
0000
0100
0000
,
0010
0000
1000
0000
,
0100
0100
1000
0001
,
2000
0000
0001
0001
,
3100
0000
0010
0000
,
0001
0000
1000
0000
,
0010
0100
0001
1000
,
0220
0000
0000
0330
0000
0000
0000
0000
;

//---------------dance-single - C. Picardy----------------
#NOTES:
     dance-single:
     :
     Medium:
     7:
     0.330868,0.462886,0.166687,0.105276,0.000000,264.000000,245.000000,19.000000,12.000000,0.000000,0.000000,0.330868,0.462886,0.166687,0.105276,0.000000,264.000000,245.000000,19.000000,12.000000,0.000000,0.000000:
// measure 0
0000
0000
0000
0000
,  // measure 1
0000
0000
0000
0000
,  // measure 2
0000
0000
0000
0000
,  // measure 3
2002
0000
3003
0000
,  // measure 4
0001
0100
0010
0100
,  // measure 5
0001
0010
0100
0010
,  // measure 6
0001
1000
0001
1000
,  // measure 7
0010
0000
0100
0010
0000
1000
0000
0001
,  // measure 8
1000
0100
0010
0001
,  // measure 9
1000
0010
0100
0001
,  // measure 10
1000
0100
0010
0100
,  // measure 11
2002
0000
0000
3003
,  // measure 12
4000
3004
0000
0000
,  // measure 13
0043
0430
0000
0300
,  // measure 14
1400
0000
0340
0000
,  // measure 15
0034
0000
0400
0303
,  // measure 16
1040
0430
0000
0000
,  // measure 17
4300
3400
0000
0000
,  // measure 18
0304
0000
0043
0000
,  // measure 19
0430
0000
4000
0000
,  // measure 20
3300
0000
0001
0000
0100
0001
0000
1000
,  // measure 21
0000
0100
0000
1000
0000
0010
0000
0100
,  // measure 22
0000
0001
1000
0100
,  // measure 23
0010
0000
0100
0010
0000
0001
0000
0100
,  // measure 24
0001
1000
0100
1000
,  // measure 25
0010
0100
0001
1000
,  // measure 26
1100
0101
0011
1010
,  // measure 27
0001
1000
0000
0110
0000
0000
0000
0000
,  // measure 28
1001
0000
0100
0000
0001
1000
0000
0100
,  // measure 29
0000
0010
0000
0001
0000
1000
0000
2000
,  // measure 30
0000
0000
3001
0000
0100
0000
0010
1000
,  // measure 31
0000
0100
0000
0010
0000
0001
0000
0001
,  // measure 32
1000
0100
0010
0100
,  // measure 33
1000
0010
0100
0001
,  // measure 34
0010
0000
0100
0000
1000
0000
0000
2002
,  // measure 35
0000
0000
0000
3003
0000
0100
0000
0100
,  // measure 36
0010
0100
0010
0000
1000
0000
1000
0000
,  // measure 37
0001
0000
1000
0100
1000
0000
0010
0000
,  // measure 38
0200
0001
0010
0310
,  // measure 39
1000
0000
0001
0000
1000
0000
0100
0100
,  // measure 40
1000
0000
0001
0010
0001
0000
0001
0000
,  // measure 41
1000
0100
1000
0000
1000
0000
0001
0000
,  // measure 42
0020
0000
0100
0000
0031
0000
0100
1000
,  // measure 43
0000
0001
0100
0000
1001
0000
0000
0000
,  // measure 44
0001
0100
0010
0000
0100
0000
0100
0000
,  // measure 45
0001
0000
1000
0100
0010
0000
0100
0000
,  // measure 46
2000
0010
0001
3100
,  // measure 47
0010
0000
0100
0000
1000
0000
0001
0001
,  // measure 48
0100
0000
0010
1000
0010
0000
0010
0000
,  // measure 49
1000
0001
0100
0000
0001
0000
1000
2200
,  // measure 50
0000
0000
0000
0000
0000
3300
0000
0011
,  // measure 51
0000
0100
0010
0000
1001
0000
0000
0000
,  // measure 52
0040
0034
0000
0000
,  // measure 53
4003
3040
0000
0000
,  // measure 54
0430
0000
0304
0000
,  // measure 55
0043
0000
0400
0330
,  // measure 56
0400
4300
0000
0000
,  // measure 57
3004
0403
0000
0000
,  // measure 58
0340
0000
4030
0000
,  // measure 59
3004
0000
0040
0033
,  // measure 60
1400
0304
0000
0000
,  // measure 61
0403
4300
0000
0000
,  // measure 62
3040
0000
0034
0000
,  // measure 63
0043
0000
4000
3030
,  // measure 64
0401
4000
0000
3000
,  // measure 65
0040
0000
0000
0030
0004
0000
0000
0000
0000
0000
0000
0000
0303
0000
0000
0000
,  // measure 66
0041
0000
0000
0000
4000
0000
0000
3000
,  // measure 67
0400
0000
0000
0300
0004
0000
0000
0000
,  // measure 68
0033
1000
0100
0001
,  // measure 69
0010
1000
0001
0100
,  // measure 70
1000
0010
0001
0100
,  // measure 71
0010
0000
1000
0100
0000
0010
0000
0001
,  // measure 72
1000
0000
0010
0000
0100
0100
0000
0000
,  // measure 73
0001
1000
0100
0001
,  // measure 74
1000
0100
0010
0000
0001
0100
0010
0000
,  // measure 75
1000
0001
0000
0110
0000
0000
0000
0000
;
