#TITLE:Street;
#SUBTITLE:;
#ARTIST:Kenichiro Fukui (Einhander);
#TITLETRANSLIT:;
#SUBTITLETRANSLIT:;
#ARTISTTRANSLIT:;
#GENRE:;
#CREDIT:;
#BANNER:streetbn.png;
#BACKGROUND:streetbg.png;
#LYRICSPATH:;
#CDTITLE:;
#MUSIC:street.ogg;
#OFFSET:0.613336;
#SAMPLESTART:107.130806;
#SAMPLELENGTH:12.000000;
#SELECTABLE:YES;
#DISPLAYBPM:125.000000;
#BPMS:0.000000=124.997009
,221.000000=249.994019
,223.000000=124.997009
;
#STOPS:28.000000=1.440000,
221.000000=1.440000
;
#BGCHANGES:17.000=blueabstractlines.mp4=1.000=1=0=1=SongBgWithMovieViz==CrossFade==,
29.000=flash=2.000=0=0=1=====,
29.250=blueabstractlines.mp4=1.000=0=0=0=StretchNoLoop====,
62.000=redmagmalines.mp4=1.000=1=0=0=StretchNoLoop==CrossFade==,
93.000=flash=2.000=0=0=1=====,
93.250=deepspacespin.mp4=1.000=0=0=0=StretchNoLoop====,
125.000=blueabstractlines.mp4=1.000=1=0=0=StretchNoLoop==CrossFade==,
157.000=redmagmalines.mp4=1.000=1=0=0=StretchNoLoop==CrossFade==,
189.000=flash=2.000=0=0=1=====,
189.250=deepspacespin.mp4=1.000=0=0=0=StretchNoLoop====,
221.000=deepspacespin.mp4=1.000=1=0=1=SongBgWithMovieViz==CrossFade==,
223.000=flash=1.600=0=0=1=====,
223.250=burst.mp4=1.000=0=0=0=StretchNoLoop====,
255.000=streetbg.png=1.000=0=0=1===CrossFade_Fastest==,
99999=-nosongbg-=1.000=0=0=0 // don't automatically add -songbackground-
;
#KEYSOUNDS:;
#ATTACKS:;

//---------------dance-single - C. Picardy----------------
#NOTES:
     dance-single:
     :
     Beginner:
     1:
     0.080571,0.151922,0.039718,0.031775,0.000000,71.000000,66.000000,5.000000,4.000000,0.000000,0.000000,0.080571,0.151922,0.039718,0.031775,0.000000,71.000000,66.000000,5.000000,4.000000,0.000000,0.000000:
0000
0000
0000
0000
,
0000
0000
0000
0000
,
0000
0000
0000
0000
,
0000
0000
0000
0000
,
0000
0000
0000
0000
,
0000
0000
0000
0000
,
0000
0000
0000
0000
,
0000
0100
0000
0000
,
0000
0100
0000
0000
,
0000
0010
0000
0000
,
0000
0010
0000
0000
,
0000
0001
0000
0000
,
0000
1000
0000
0000
,
0000
0010
0000
0000
,
0000
0100
0000
0000
,
0000
1001
0000
0000
,
0000
1001
0000
0000
,
0000
0110
0000
0000
,
0000
0110
0000
0000
,
0000
1000
0000
0000
,
0000
0001
0000
0000
,
0000
1000
0000
0000
,
0000
0001
0000
0000
,
0000
0010
0000
0010
,
0000
0100
0000
0100
,
0000
0001
0000
0001
,
0000
1000
0000
1000
,
0000
0010
0000
0000
,
0000
0100
0000
0000
,
0000
0001
0000
0000
,
0000
1000
0000
0000
,
0000
2000
3000
0000
,
0000
0000
0000
0000
,
0000
0002
0003
0000
,
0000
0000
0000
0000
,
0000
0020
0030
0000
,
0000
0000
0000
0000
,
0000
2000
3000
0000
,
0000
0000
0000
0000
,
0000
0001
0000
0000
,
0000
0001
0000
0000
,
0000
1000
0000
0000
,
0000
1000
0000
0000
,
0000
0010
0000
0000
,
0000
0010
0000
0000
,
0000
0100
0000
0000
,
0000
0100
0000
0000
,
0000
1000
0000
1000
,
0000
1000
0000
0000
,
0000
0001
0000
0001
,
0000
0001
0000
0000
,
0000
0010
0000
0010
,
0000
0010
0000
0000
,
0000
0100
0000
0100
,
0000
0100
0000
0000
,
1001
0000
0000
0000
,
0010
0000
0000
0000
,
1000
0000
0000
0000
,
0001
0000
0000
0000
,
0100
0000
0000
0010
,
0000
0010
0000
1000
,
0000
1000
0000
0001
,
0000
0001
0000
1000
,
0000
0010
0000
0100
;

//---------------dance-single - C. Picardy----------------
#NOTES:
     dance-single:
     :
     Easy:
     3:
     0.203130,0.253203,0.103267,0.047662,0.000000,179.000000,166.000000,13.000000,6.000000,0.000000,0.000000,0.203130,0.253203,0.103267,0.047662,0.000000,179.000000,166.000000,13.000000,6.000000,0.000000,0.000000:
// measure 0
0000
0000
0000
0000
,  // measure 1
0000
0000
0000
0000
,  // measure 2
0000
0000
0000
0000
,  // measure 3
0000
0000
0000
0000
,  // measure 4
0000
0000
0000
0000
,  // measure 5
0000
0000
0000
0000
,  // measure 6
0000
0000
0000
0000
,  // measure 7
0000
0000
0100
0000
,  // measure 8
0010
0000
0001
0000
,  // measure 9
1000
0000
0010
0000
,  // measure 10
0100
0000
0001
0000
,  // measure 11
1000
0010
0100
0000
,  // measure 12
0001
1000
0100
0000
,  // measure 13
0010
0001
0100
0000
,  // measure 14
0010
1000
0001
0000
,  // measure 15
0100
0010
1000
0000
,  // measure 16
0100
0100
0010
0001
,  // measure 17
0000
0001
0100
1000
,  // measure 18
0000
1000
0100
0001
,  // measure 19
0000
0100
0100
0010
,  // measure 20
0000
1000
1000
0001
,  // measure 21
0000
0100
0100
0010
,  // measure 22
0000
0001
0001
0010
,  // measure 23
0000
1001
1000
0001
,  // measure 24
1000
0100
0010
0100
,  // measure 25
0010
0001
0010
0001
,  // measure 26
0010
0100
1000
0100
,  // measure 27
1000
0001
0100
0110
,  // measure 28
0000
1000
0010
1001
,  // measure 29
0000
1000
0100
0110
,  // measure 30
0000
2002
0000
0000
,  // measure 31
3003
0020
0000
0000
,  // measure 32
0000
1030
0000
1000
,  // measure 33
0000
0002
0000
0000
,  // measure 34
0000
0103
0000
0100
,  // measure 35
0000
2000
0000
0000
,  // measure 36
0000
3100
0000
0001
,  // measure 37
0000
0020
0000
0000
,  // measure 38
0000
0031
0000
0100
,  // measure 39
0000
1000
0010
1000
,  // measure 40
0010
1000
1000
0010
,  // measure 41
0010
0100
0001
0100
,  // measure 42
0001
0100
0100
0001
,  // measure 43
0001
1000
0100
1000
,  // measure 44
0100
1000
1000
0100
,  // measure 45
0100
0010
0100
0010
,  // measure 46
0100
0000
0000
0000
,  // measure 47
0000
0001
0100
1000
,  // measure 48
0100
0001
0100
1000
,  // measure 49
0100
0001
0010
1000
,  // measure 50
0010
0001
0010
1000
,  // measure 51
0010
0100
0001
0100
,  // measure 52
1000
0100
0001
0100
,  // measure 53
0010
0100
0001
0100
,  // measure 54
1000
0010
1000
0100
,  // measure 55
0010
0000
0000
0000
,  // measure 56
1001
0000
1001
0000
,  // measure 57
0110
0000
0110
0000
,  // measure 58
1010
0000
1010
0000
,  // measure 59
1100
0000
1100
0000
,  // measure 60
0010
0100
1000
0100
,  // measure 61
0010
0100
1000
0100
,  // measure 62
0010
0001
0100
1000
,  // measure 63
0100
0001
1000
0010
;

//---------------dance-single - C. Picardy----------------
#NOTES:
     dance-single:
     :
     Medium:
     5:
     0.306397,0.355875,0.071493,0.182704,0.027803,270.000000,261.000000,9.000000,23.000000,0.000000,0.000000,0.306397,0.355875,0.071493,0.182704,0.027803,270.000000,261.000000,9.000000,23.000000,0.000000,0.000000:
0000
0000
0000
0000
,
0000
0000
0000
0000
,
0000
0000
0000
0000
,
0000
0000
0000
0000
,
0000
0020
0000
0000
,
0000
0000
0000
0000
,
0000
0000
0000
0000
,
0030
1000
0100
0010
,
0001
0010
0001
0000
0100
0000
0010
0000
,
1000
0010
1000
0000
0100
0000
0010
0000
,
0100
0010
0100
0000
1000
0000
0001
0000
,
0100
0001
0020
0000
0001
0000
0000
0000
,
0001
0000
0100
0001
,
0100
1030
0010
0100
,
0001
1000
0100
0010
,
0100
0000
1000
0200
0010
0000
1000
0000
,
1000
0310
0001
0100
,
0010
0100
0001
0000
0020
0000
0100
0000
,
1030
0100
0010
0000
0001
0000
0100
0000
,
0001
0100
2000
0000
3200
0000
0320
0000
,
2030
3200
2300
3020
,
0230
0302
0023
0031
,
0100
0000
0010
0000
1000
0000
0100
0010
,
0001
0010
0100
0000
1100
0000
1000
0100
,
0001
0000
1000
0000
1010
0000
0001
1000
,
0010
0000
0100
0000
0011
0000
0100
0001
,
0010
0000
0100
0000
0110
0000
1000
0100
,
0001
0100
1000
0000
0200
0000
0320
0000
,
0032
0023
0230
2300
,
3020
0030
0100
0010
,
1000
0000
0001
1000
0100
1000
0001
1000
,
0010
0000
0000
0000
1000
0000
0000
1000
0000
0000
1000
0000
0000
0000
0000
0000
,
0000
0000
0010
0100
0000
0100
0010
0000
,
0000
0000
0000
0000
0001
0000
0000
0001
0000
0000
0001
0000
0000
0000
0000
0000
,
0000
0000
0100
0010
0000
0010
0100
0000
,
0000
0000
0000
0000
1000
0000
0000
0001
0000
0000
1000
0000
0000
0000
0000
0000
,
0010
0000
0100
0100
0000
0001
0001
0000
,
0100
0000
0000
0000
0001
0000
0000
1000
0000
0000
0001
0000
0000
0000
0000
0000
,
0010
0000
0100
0100
0000
1000
1000
0000
,
0000
0000
0001
0000
0001
0000
0001
0100
,
0001
0000
1000
1000
0000
1000
1000
0000
,
0010
0000
0010
0000
0010
0000
0010
1000
,
0010
0000
0100
0100
0000
0100
0100
0000
,
0100
0000
0100
0000
0100
0000
0100
0001
,
0100
0000
0001
0001
0000
0001
0001
0000
,
1000
1000
1000
1000
,
1000
0000
1000
0000
0000
1000
0000
0000
1000
0000
0000
1000
0000
0000
1000
0000
,
0000
1000
0000
0000
0001
0000
0000
0000
0100
0000
0000
0000
0010
0000
0000
0000
,
0100
0000
0001
0010
0001
1000
0100
0000
,
1000
0010
0100
0010
,
1000
0000
0100
1000
0100
0010
0001
0000
,
0100
1000
0100
0001
,
0010
0000
0100
0010
0001
0010
0100
0000
,
1000
0010
0100
0001
,
0010
0000
0100
1000
0001
0010
0100
1000
,
0010
0100
0000
0000
0000
0000
1001
0000
,
1000
0100
0110
0001
,
0100
0010
1010
0100
,
0010
1000
0110
0001
,
1000
0100
0011
0100
,
0020
1000
0001
0100
,
0001
0100
1000
1030
,
0100
0010
0001
0100
,
0010
1000
0001
0100
0010
1000
0002
0000
,
0003
0000
0000
0000
;

//---------------dance-single - C. Picardy----------------
#NOTES:
     dance-single:
     :
     Challenge:
     10:
     0.815925,0.896637,0.262140,0.595772,1.100193,719.000000,686.000000,33.000000,75.000000,45.000000,0.000000,0.815925,0.896637,0.262140,0.595772,1.100193,719.000000,686.000000,33.000000,75.000000,45.000000,0.000000:
0000
0000
0000
0000
,
0000
0000
0000
0000
,
0000
0000
0000
0000
,
0000
0000
0000
0000
,
0000
0000
0000
0200
0000
0000
0000
0000
0000
0000
0000
0000
0000
0000
0000
0000
,
40M0
000M
00M0
000M
,
00M0
0000
0000
0000
0000
0000
0000
0000
0000
0000
0000
0000
0000
0000
0000
0000
0000
0000
0000
0000
0000
0000
0000
0000
0000
0000
0000
0000
0000
0000
0000
0000
0000
0000
0000
0000
0000
0000
0000
0000
0000
0000
0000
0000
0000
0000
0000
0000
000M
0000
0000
0000
0000
0000
0000
0000
0000
0000
0000
0000
0000
0000
0000
0000
0000
0000
0000
0000
0000
0000
0000
0000
0000
0000
0000
0000
0000
0000
0000
0000
0000
0000
0000
0000
0000
0000
0000
0000
0000
0000
0000
0000
0000
0000
0000
0000
00M0
0000
0000
0000
0000
0000
0000
0000
0000
0000
0000
0000
0000
0000
0000
0000
0000
0000
0000
0000
0000
0000
0000
0000
0000
0000
0000
0000
0000
0000
0000
0000
0000
0000
0000
0000
0000
0000
0000
0000
0000
0000
0000
0000
0000
0000
0000
0000
00MM
0000
0000
0000
0000
0000
0000
0000
0000
0000
0000
0000
0000
0000
0000
0000
0000
0000
0000
0000
0000
0000
0000
0000
0000
0000
0000
0000
0000
0000
0000
0000
0000
0000
0000
0000
0000
0000
0000
0000
0000
3000
0000
0000
0000
0000
0000
0000
,
M0MM
0300
0000
0000
0000
0000
0000
0000
0000
0000
0000
0000
0000
0000
0000
0000
0000
0000
0000
0000
0000
0000
0000
0000
0000
0000
0000
0000
0000
0000
0000
0000
0000
0000
0000
0000
0000
0000
0000
0000
0000
0000
0000
0000
0000
0000
0000
0000
0110
0000
0000
0000
0000
0000
0000
0000
0000
0000
0000
0000
0000
0000
0000
0000
0000
0000
0000
0000
0000
0000
0000
0000
0010
0000
0000
0000
0000
0000
0000
0000
0000
0000
0000
0000
0000
0000
0000
0000
0000
0000
0000
0000
0000
0000
0000
0000
0100
0000
0000
0000
0000
0000
0000
0000
0000
0000
0000
0000
1000
0000
0000
0000
0000
0000
0000
0000
0000
0000
0000
0000
0100
0000
0000
0000
0000
0000
0000
0000
0000
0000
0000
0000
1000
0000
0000
0000
0000
0000
0000
0000
0000
0000
0000
0000
0100
0000
0000
0000
0000
0000
0000
0000
0000
0000
0000
0000
1000
0000
0000
0000
0000
0000
0000
0000
0000
0000
0000
0000
0100
0000
0000
0000
0000
0000
0000
0000
0000
0000
0000
0000
0000
0000
0000
0000
0000
0000
0000
0000
0000
0000
0000
0000
,
0010
0001
0010
0001
1000
0000
0001
0000
0100
0001
0100
0001
0100
0001
0100
0000
,
0010
1000
0010
1000
0001
0000
1000
0000
0010
0100
0010
0100
0010
0100
0010
0000
,
1000
0100
1000
0100
0010
0000
0001
0000
1000
0001
1000
0001
0100
0001
0100
0000
,
0010
0100
0010
0100
0020
0000
0200
0030
0002
0300
0200
0003
0020
0300
0200
0030
,
0020
0000
0000
0300
0000
0000
2000
0000
0000
0030
0000
0000
3001
0000
1000
0000
0001
0000
1000
0000
0000
0000
0000
0000
0200
0000
0000
0000
0000
0000
2000
0000
0000
0300
0000
0000
0020
0000
0000
3000
0000
0000
0200
0000
0000
0030
0000
0000
,
2000
0300
0200
3000
0310
0100
0010
0000
1000
0001
0100
0001
1000
0100
1000
0000
,
0001
0000
0000
0010
0000
0000
0100
0000
0000
1000
0000
0000
0100
0000
1000
0000
0100
0000
1000
0000
0000
0100
0000
0000
0010
0000
0000
0000
0000
0000
0001
0000
0000
0010
0000
0000
0100
0000
0000
0010
0000
0000
0001
0000
0000
0000
0000
0000
,
1000
0010
1000
0010
1000
0000
0001
0000
0100
0000
0001
0100
0010
0100
0001
0000
,
1000
0000
0000
0010
0000
0000
1000
0000
0000
0001
0000
0000
0100
0000
0001
0000
0100
0000
0001
0000
0000
0000
0000
0000
1000
0000
0000
0000
0000
0000
0001
0000
0100
0000
0001
0000
0100
0000
0000
0010
0000
0000
1000
0000
0000
0000
0000
0000
,
1000
0010
1000
0100
1000
0010
1000
0000
0001
0000
0010
0100
1000
0100
0010
0000
,
0001
0000
0000
0010
0000
0000
0001
0000
0000
0100
0000
0000
0010
0000
1000
0000
0010
0000
1000
0000
0000
0000
0000
0000
0001
0000
0000
0000
0000
0000
1000
0000
0100
0000
1000
0000
0100
0000
0000
0010
0000
0000
0100
0000
0000
0000
0000
0000
,
0100
1000
0001
0010
0200
0000
0002
0300
0200
0003
0020
0300
2000
0030
0020
3000
,
0200
0000
0000
0030
0000
0000
2000
0000
0000
0300
0000
0000
3100
0000
0010
0000
0200
0000
0020
0000
0000
0300
0000
0000
0031
0000
0000
0000
0000
0000
0010
0000
0100
0000
0020
0000
0200
0000
0000
0030
0000
0000
0302
0000
0000
0000
0000
0000
,
0200
0003
0020
0300
0002
0030
0200
0003
0010
0300
1000
0000
0001
0100
0010
0000
,
1000
0000
0000
0010
0000
0000
1000
0000
0000
0001
0000
0000
0100
0000
0001
0000
0100
0000
0001
0000
0000
0000
0000
0000
1000
0000
0000
0000
0000
0000
0001
0000
1000
0000
0001
0000
1MM0
0000
0000
0001
0000
0000
1000
0000
0000
0001
0000
0000
,
1MM0
0001
1000
0001
1MM0
0100
0010
0000
1100
0000
0001
0100
0010
0100
0001
0000
,
0110
0000
1000
0001
0100
0010
1000
0000
0110
0000
0001
0010
0100
1000
0001
0000
,
1010
0000
1000
0001
0100
0010
1000
0000
0101
0000
1000
0001
0010
0001
1000
0000
,
0110
0000
0001
0010
0100
1000
0010
0000
1100
0000
0010
0100
0010
0001
0100
0000
,
0011
0000
1000
0001
0200
0000
0020
0300
0002
0030
0020
0003
0200
0030
0020
0300
,
0002
0030
0020
0003
0200
0030
0020
0300
2000
0030
0200
3000
0002
0300
0200
0003
,
0020
0300
0130
1000
0010
1000
0100
0000
0110
0000
1000
0100
0010
0001
0100
0000
,
0001
0000
1000
0001
0100
0001
0010
0001
1000
0100
0010
0001
1000
0100
0010
1000
,
0010
0000
0100
0000
1000
0000
0010
0000
0100
0000
0000
0000
0000
0000
0202
0000
0000
0000
0000
0303
0220
0000
0000
0000
0000
0330
0220
0000
0000
0000
0000
0330
,
0101
0000
1001
0000
1000
0100
0001
0100
1000
0000
0001
0010
1000
0010
0001
0000
,
1000
0000
0100
0000
0001
0000
0100
0000
1000
0000
0000
0000
0000
0000
0220
0000
0000
0000
0000
0330
2200
0000
0000
0000
0000
3300
2020
0000
0000
0000
0000
3030
,
0110
0000
0101
0000
0001
0100
1000
0100
0001
0000
1000
0010
0001
0010
1000
0000
,
0001
0000
0100
0000
1000
0000
0100
0000
0010
0000
0000
0000
0000
0000
2020
0000
0000
0000
0000
3030
2002
0000
0000
0000
0000
3003
2200
0000
0000
0000
0000
3300
,
0101
0000
1100
0000
0010
0100
1000
0100
0010
0000
0001
0010
0100
0010
0001
0000
,
1000
0000
0001
0000
0100
0000
0001
0000
1000
0000
0000
0000
0000
0000
2002
0000
0000
0000
0000
3003
0202
0000
0000
0000
0000
0303
0202
0000
0000
0000
0000
0303
,
1010
0110
2002
0MM0
0000
0MM0
0000
0MM0
,
3003
0000
M00M
0000
1000
0100
0000
0001
0100
0000
1000
0100
0000
0001
0100
0000
,
1000
0000
0010
0000
0001
0010
0100
0010
0001
0000
1000
0100
0010
0100
1000
0000
,
1000
0100
0001
0100
0010
1000
0000
0010
0001
0000
0010
0100
0000
0010
0001
0000
,
0010
0000
1000
0000
0100
0010
1000
0010
0100
0000
0100
0010
0001
0010
0100
0000
,
0100
0010
1000
0010
0001
0100
0000
1000
0100
0000
0010
0001
0000
0010
1000
0000
,
0100
0000
0001
0000
0100
0010
0100
0010
0100
0000
1000
0100
1000
0100
1000
0000
,
0001
0100
0001
0100
0001
1000
0000
0001
0100
0000
0001
1000
0000
0100
1000
0000
,
0001
0000
0010
0001
0000
1000
0000
0000
0200
0000
0000
0000
0310
0000
0100
0010
,
0000
0000
0000
0100
0000
0000
0010
0000
0100
0000
0010
0000
0001
0000
0000
0000
0000
0000
0100
0000
0000
0001
0000
0000
0100
0000
0000
0000
0000
0000
0001
0000
0000
0100
0000
0000
0001
0000
0000
0100
0000
0000
0001
0000
0000
0000
0000
0000
,
1000
0001
1000
0000
0001
0100
0001
0100
0010
0000
0100
0001
0100
0001
0010
0000
,
0100
0000
1000
0000
0001
0100
0001
0000
1000
0000
0001
0100
0001
0000
1000
0100
,
1000
0000
0001
0000
1000
0010
1000
0010
0100
0000
0010
1000
0010
1000
0100
0000
,
0010
0001
0010
0001
0010
0100
0010
0000
0001
0000
0010
0100
0010
0000
0001
0000
,
1000
0010
1000
0000
0001
1000
0100
1000
0001
0000
1000
0001
0100
0001
1000
0000
,
1000
0001
0100
0010
1000
0010
0000
0100
0010
0000
1000
0100
0000
0001
0100
0000
,
1000
0000
0010
0000
0100
0010
0001
0010
0100
0000
0010
0100
1000
0100
0010
1000
,
0100
0010
0001
1000
MMMM
0000
0000
0000
M11M
0000
0000
0000
1MM1
0000
1000
0000
,
0100
0000
0000
0000
0000
0000
0010
0000
0000
0100
0000
0000
1000
0000
0000
0100
0000
0000
0010
0000
0000
0000
0000
0000
0100
0000
0000
1000
0000
0000
0010
0000
0000
1000
0000
0000
0100
0000
1000
0000
0100
0000
1000
0000
0000
0100
0000
0000
,
0010
0000
0000
0000
0000
0000
0001
0000
0010
0000
0001
0000
0010
0000
0000
0001
0000
0000
0010
0000
0000
0000
0000
0000
0001
0000
0000
0100
0000
0000
0010
0000
0000
0100
0000
0000
0010
0000
0000
1000
0000
0000
0100
0000
0000
1000
0000
0000
,
0010
0000
0000
0100
0000
0000
0001
0000
0000
1000
0000
0000
0001
0000
0000
0100
0000
0000
0001
0000
0000
1000
0000
0000
0100
0000
0000
1000
0000
0000
0100
0000
0000
0010
0000
0000
0001
0000
0010
0000
0001
0000
0010
0000
0000
0100
0000
0000
,
0010
0000
0000
0001
0000
0000
0100
0000
0010
0000
0100
0000
0010
0000
0000
1000
0000
0000
0010
0000
0000
0100
0000
0000
0010
0000
0000
1000
0000
0000
0001
0000
0000
0100
0000
0000
0001
0000
0000
0010
0000
0000
0001
0000
0000
0010
0000
0000
,
0001
0000
0000
1000
0000
0000
0001
0000
0000
1000
0000
0000
0100
0000
0000
1000
0000
0000
0100
0000
0000
1000
0000
0000
0010
0000
0000
1000
0000
0000
0100
0000
0000
1000
0000
0000
0010
0000
1000
0000
0010
0000
1000
0000
0000
0001
0000
0000
,
0100
0000
0000
0010
0000
0000
0100
0000
0010
0000
1000
0000
0010
0000
0000
1000
0000
0000
0100
0000
0000
0010
0000
0000
0001
0000
0000
1000
0000
0000
0100
0000
0000
1000
0000
0000
0001
0000
0000
0100
0000
0000
0010
0000
0000
1000
0000
0000
,
0010
0000
0000
1000
0000
0000
0100
0000
0000
0010
0000
0000
0001
0000
0000
1000
0000
0000
0010
0000
0000
1000
0000
0000
0010
0000
0000
0100
0000
0000
0001
0000
0000
1000
0000
0000
0001
0000
0100
0000
0001
0000
0100
0000
0000
0010
0000
0000
,
1000
0000
0000
0001
0000
0000
1000
0000
0100
0000
1000
0000
0001
0000
0000
0010
0000
0000
0100
0000
0000
1000
0000
0000
0001
0000
0000
0010
0000
0000
0100
0000
0000
1000
0000
0000
0002
0000
0000
0000
0000
0000
M000
0000
0000
0M00
0000
0000
,
00M0
0M00
M000
0M00
00M0
0M00
M000
0M00
00M3
0000
0000
0000
0000
0000
0000
0000
;

//---------------dance-single - ----------------
#NOTES:
     dance-single:
     :
     Hard:
     9:
     0.532223,0.533812,0.190647,0.095324,0.432928,469.000000,445.000000,24.000000,12.000000,10.000000,0.000000,0.532223,0.533812,0.190647,0.095324,0.432928,469.000000,445.000000,24.000000,12.000000,10.000000,0.000000:
0000
0000
0000
0000
,
0000
0000
0000
0000
,
0000
0000
0000
0000
,
0000
0000
0000
0000
,
0000
0000
0000
2002
0000
0000
0000
0000
0000
0000
0000
0000
0000
0000
0000
0000
,
0000
0000
0000
0000
,
0000
0000
0000
0000
,
3003
0000
MMMM
0000
1000
0000
0100
0000
0010
0000
0100
1000
0100
0000
0010
0000
,
0001
0000
0000
0000
1000
0000
0100
0000
0001
0000
0100
1000
0100
0000
0010
0000
,
0001
0000
0000
0000
0100
0000
0001
0000
0010
0000
0001
0010
0001
0000
0100
0000
,
1000
0000
0000
0000
0001
0000
0100
0000
1000
0000
0100
0010
0100
0000
0010
0000
,
1000
0000
0100
0010
0001
0010
0100
0010
,
0001
0010
0100
1000
0100
0010
0100
1000
,
0010
0000
0000
0000
0100
0000
0010
0000
0001
0000
0010
0100
0010
0000
0100
0000
,
0001
0000
0000
0000
1000
0100
1000
0000
0000
0000
0010
1000
0100
0000
0000
0000
,
0010
0000
0000
0000
0001
0010
0000
0001
0010
0000
0100
0000
0010
0000
0000
0000
,
1100
0000
0000
0000
0010
0100
0000
0010
1000
0000
0001
0000
0100
0000
0000
0000
,
0011
0000
0000
0000
1000
0100
0000
0001
0100
0000
1000
0000
0010
0000
0000
0000
,
0110
0000
0000
0000
0010
0100
0010
0000
0100
0000
0001
0100
0020
0000
0000
0000
,
1030
0000
0001
0100
0001
0100
0010
0001
,
0010
0001
1000
0100
1000
0100
0001
0010
,
0100
0000
0000
0000
0001
0000
0010
0000
0100
0000
0010
0000
0001
0010
0001
0010
,
0001
0000
0000
0000
1000
0000
0010
0000
0100
0000
0010
0000
1000
0100
1000
0100
,
1000
0000
0000
0000
0001
0000
1000
0000
0101
0000
0000
0001
1000
0000
0100
0000
,
0110
0000
0000
0000
0001
0000
1000
0000
1010
0000
0000
0100
0010
0000
1000
0000
,
1100
0000
0000
0000
0010
0000
0001
0000
0110
0000
0000
1000
0001
0000
0100
0000
,
1001
0000
0000
0000
1000
0000
0001
0000
1010
0000
0000
0100
0001
0000
1000
0000
,
0011
0000
0000
0000
1000
0000
0100
0000
0001
0000
0100
0010
0000
0100
1000
0000
,
1001
0000
0000
0000
0001
0000
0100
0000
1000
0000
0100
0001
0000
0100
0010
0000
,
1010
0000
0000
0000
0100
0000
0101
0000
0000
0000
0100
0010
0000
0010
1000
0000
,
0000
0000
0001
0100
0000
0100
0001
0000
0000
0000
1000
0100
0000
0100
1000
0001
,
0010
0001
0010
0001
1000
0000
0000
1000
0000
0000
1000
0000
0000
1000
0000
0000
,
1000
0000
1000
0000
0001
0000
0100
0001
0000
0000
1000
0000
1000
0010
0000
0000
,
0200
0000
0000
0000
0301
0000
0000
0001
0000
0000
0001
0000
0000
0001
0000
0000
,
0001
0000
0001
0000
1000
0000
0100
1000
0000
0000
0001
0000
0001
1000
0000
0000
,
0200
0000
0000
0000
1300
0000
0000
0100
0000
0000
0010
0000
0000
0100
0000
0000
,
0010
0000
0001
0000
1000
0000
0001
0010
0000
0000
0100
0000
0100
1000
0000
0000
,
0002
0000
0000
0000
0013
0000
0000
0100
0000
0000
0010
0000
0000
0001
0000
0000
,
0100
0000
0010
0000
0100
0000
0010
0100
0000
0000
0001
0000
0001
0100
0000
0000
,
0001
0000
0100
0000
0010
1000
0000
0000
0010
0000
1000
0010
0000
0010
1000
0000
,
0001
0000
0100
0000
0010
0000
0010
1000
0000
0000
0001
0000
1000
0100
0000
0000
,
0010
0000
0001
0000
0100
0001
0000
0000
0100
0000
0001
0100
0000
0100
0001
0000
,
1000
0000
0100
0000
1000
0000
1000
0010
0000
0000
0100
0000
0010
0100
0000
0000
,
0001
0000
1000
0000
0100
0010
0000
0000
0100
0000
1000
0001
0000
0001
1000
0000
,
0100
0000
0010
0000
0001
0010
0001
0000
0000
0000
1000
0010
1000
0000
0001
0000
,
1000
0000
0001
0000
0001
0000
0010
0001
0000
1000
0001
0000
0010
0000
0001
0000
,
0202
0000
0000
0000
,
0303
0000
0000
0000
0001
0100
0000
0001
1000
0000
0001
0010
0000
0001
1000
0000
,
0100
0000
0010
0000
0100
1000
0000
0010
1000
0000
0100
0010
0000
0100
1000
0000
,
0001
0000
0100
0000
0010
0100
0000
0010
0001
0000
0010
0100
0000
0010
1000
0000
,
0001
0000
0100
0000
1000
0100
0000
1000
0100
0000
0010
0100
0000
0010
0100
0000
,
0001
0000
0010
0000
0100
1000
0000
0100
0001
0000
0100
1000
0000
1000
0010
0000
,
0001
0000
0010
0000
1000
0001
0000
0100
0001
0000
1000
0100
0000
0010
0100
0000
,
1000
0000
0010
0000
0100
0001
0000
0010
0001
0000
1000
0010
0000
0010
1000
0000
,
0001
0000
0100
0000
1000
0000
0000
0100
0000
0000
0001
0000
0000
1000
0000
0000
,
0100
0220
M00M
0000
M00M
0330
M11M
0000
,
0010
0000
0001
0010
0001
0000
0100
0000
0101
0000
0000
0000
0010
0000
0000
0000
,
1000
0000
0100
1000
0100
0000
1000
0000
1001
0000
0000
0000
0100
0000
0001
0000
,
0100
0000
0001
0100
0001
0000
0100
0000
0110
0000
0000
0000
1000
0000
0010
0000
,
1000
0000
0010
1000
0010
0000
1001
0000
1001
0000
0000
0000
0100
0000
0010
0000
,
0100
0000
0001
0100
0001
0000
0100
0000
0010
0000
0100
0000
1000
0000
0100
0000
,
0010
0000
1000
0010
1000
0000
0100
0000
0010
0000
0001
0000
0100
0000
0001
0000
,
0010
0000
0100
0010
0100
0000
1000
0000
0010
0000
1000
0000
0100
0000
0010
0000
,
0100
0000
1000
0100
1000
0000
0001
0000
0100
0001
0100
0000
2002
0000
0000
0000
,
3003
0000
0000
0000
;
