#TITLE:Story of the Underdog;
#SUBTITLE:;
#ARTIST:Sanxion7;
#TITLETRANSLIT:;
#SUBTITLETRANSLIT:;
#ARTISTTRANSLIT:;
#GENRE:;
#CREDIT:;
#BANNER:storyoftheunderdogbn.png;
#BACKGROUND:storyoftheunderdogbg.png;
#LYRICSPATH:;
#CDTITLE:;
#MUSIC:storyoftheunderdog.ogg;
#OFFSET:-0.227960;
#SAMPLESTART:78.449463;
#SAMPLELENGTH:12.000000;
#SELECTABLE:YES;
#BPMS:0.000000=134.979996
;
#STOPS:
;
#BGCHANGES:16.000=flash=1.600=0=0=1=====,
16.250=colorfulflare.mp4=1.000=0=0=0=StretchNoLoop====,
45.000=colorfulflare.mp4=1.000=1=0=1=SongBgWithMovieViz==CrossFade==,
48.000=flash=1.600=0=0=1=====,
48.250=usefulflares.mp4=1.000=0=0=0=StretchNoLoop====,
80.000=colorfulflare.mp4=1.000=0=0=0=StretchNoLoop==CrossFade_Fastest==,
112.000=flash=1.600=0=0=1=====,
112.250=usefulflares.mp4=1.000=0=0=0=StretchNoLoop====,
112.500=usefulflares.mp4=1.000=0=0=1=SongBgWithMovieViz====,
144.000=flash=1.600=0=0=1=====,
144.250=sparklingflare.mp4=1.000=0=0=0=StretchNoLoop====,
176.000=colorfulflare.mp4=1.000=0=0=0=StretchNoLoop==CrossFade_Fastest==,
208.000=flash=1.600=0=0=1=====,
208.250=sparklingflare.mp4=1.000=0=0=0=StretchNoLoop====,
240.000=usefulflares.mp4=1.000=1=0=1=SongBgWithMovieViz==CrossFade==,
248.000=flash=1.000=0=0=1=====,
248.250=storyoftheunderdogbg.png=1.000=0=0=1=====,
99999=-nosongbg-=1.000=0=0=0 // don't automatically add -songbackground-
;
#KEYSOUNDS:;
#ATTACKS:;

//---------------dance-single - C. Picardy----------------
#NOTES:
     dance-single:
     :
     Beginner:
     1:
     0.102759,0.163161,0.122809,0.000000,0.000000,82.000000,68.000000,14.000000,0.000000,0.000000,0.000000,0.102759,0.163161,0.122809,0.000000,0.000000,82.000000,68.000000,14.000000,0.000000,0.000000,0.000000:
0000
0000
0000
0000
,
0000
0000
0000
0000
,
0000
0000
0000
0000
,
0000
0000
0000
0000
,
0010
0000
0000
0000
,
0010
0000
0000
0000
,
0100
0000
0000
0000
,
0100
0000
0000
0000
,
0001
0000
0000
0000
,
0001
0000
0000
0000
,
1000
0000
0000
0000
,
1000
0000
0000
0000
,
1001
0000
0000
0000
,
0010
0000
0010
0000
,
0010
0000
0000
0000
,
0100
0000
0100
0000
,
0100
0000
0000
0000
,
0001
0000
0001
0000
,
0001
0000
0000
0000
,
1000
0000
1000
0000
,
1001
0000
0000
0000
,
0100
0000
0000
0000
,
0010
0000
0000
0000
,
1000
0000
0000
0000
,
0001
0000
0000
0000
,
1000
0000
0000
0000
,
0001
0000
0000
0000
,
0100
0000
0100
0000
,
0110
0000
0000
0000
,
0001
0000
0001
0000
,
0000
0000
0000
0000
,
1000
0000
1000
0000
,
0000
0000
0000
0000
,
0100
0000
0100
0000
,
0110
0000
0000
0000
,
0100
0000
0000
0000
,
1000
0000
1000
0000
,
1000
0000
0000
0000
,
0001
0000
0001
0000
,
0001
0000
0000
0000
,
0100
0000
0100
0000
,
0100
0000
0000
0000
,
0010
0000
0010
0000
,
0010
0000
0000
0000
,
1001
0000
0000
0000
,
0100
0000
0000
0000
,
0010
0000
0000
0000
,
1000
0000
0000
0000
,
0001
0000
0000
0000
,
0001
0000
0000
0000
,
1000
0000
0000
0000
,
1000
0000
0000
0000
,
1001
0000
0000
0000
,
1001
0000
0000
0000
,
1001
0000
0000
0000
,
1001
0000
0000
0000
,
0110
0000
0000
0000
,
0110
0000
0000
0000
,
0110
0000
0000
0000
,
0000
0000
0000
0000
,
1001
0000
0000
0000
,
0000
0000
0100
0000
,
1001
0000
0000
0000
;

//---------------dance-single - C. Picardy----------------
#NOTES:
     dance-single:
     :
     Easy:
     3:
     0.213036,0.271935,0.166670,0.052633,0.000000,170.000000,151.000000,19.000000,6.000000,0.000000,0.000000,0.213036,0.271935,0.166670,0.052633,0.000000,170.000000,151.000000,19.000000,6.000000,0.000000,0.000000:
// measure 0
0000
0000
0000
0000
,  // measure 1
0000
0000
0000
0000
,  // measure 2
0000
0000
0000
0000
,  // measure 3
0000
0000
0000
0000
,  // measure 4
0001
0000
0100
0000
,  // measure 5
0010
0000
0100
0000
,  // measure 6
0001
0000
1000
0000
,  // measure 7
0100
0000
1000
0000
,  // measure 8
0001
0001
0001
0000
,  // measure 9
1000
1000
1000
0000
,  // measure 10
0010
0010
0010
0000
,  // measure 11
0100
0000
0100
0100
,  // measure 12
1001
0000
0100
0000
,  // measure 13
0010
0000
1000
1000
,  // measure 14
0100
0000
0010
0000
,  // measure 15
0001
0000
0010
0010
,  // measure 16
0100
0000
1000
0000
,  // measure 17
0001
0000
0100
0100
,  // measure 18
0010
0000
1000
0000
,  // measure 19
0001
0000
0100
0100
,  // measure 20
0110
0000
1000
0000
,  // measure 21
0001
0000
0010
0100
,  // measure 22
1000
0000
0001
0000
,  // measure 23
0100
0000
0001
0100
,  // measure 24
0010
0000
1000
0000
,  // measure 25
0100
0000
0010
0001
,  // measure 26
1000
0000
0010
0000
,  // measure 27
0100
0000
0001
0001
,  // measure 28
0101
0000
1000
1000
,  // measure 29
1000
0000
0010
0000
,  // measure 30
0100
0000
0001
0001
,  // measure 31
0001
0000
1000
0000
,  // measure 32
0100
0000
0010
0010
,  // measure 33
0010
0000
0001
0000
,  // measure 34
2002
0000
0000
3003
,  // measure 35
0010
0000
0100
1001
,  // measure 36
0010
0000
0001
0000
,  // measure 37
0100
0000
0001
0000
,  // measure 38
1000
0000
0100
0000
,  // measure 39
0010
0000
0001
0000
,  // measure 40
1000
0000
0010
0000
,  // measure 41
0100
0000
0001
0000
,  // measure 42
1000
0000
0100
0000
,  // measure 43
0020
0000
0002
0033
,  // measure 44
0100
0100
0101
0000
,  // measure 45
1000
1000
1100
0000
,  // measure 46
0001
0001
0011
0000
,  // measure 47
1000
1000
1010
0000
,  // measure 48
1001
0000
1001
0000
,  // measure 49
0101
0000
0101
0000
,  // measure 50
0110
0000
1010
0000
,  // measure 51
1100
0000
0011
0000
,  // measure 52
1000
0001
1000
0001
,  // measure 53
0100
0010
0100
0010
,  // measure 54
1000
0010
1000
0010
,  // measure 55
1000
0001
1000
0001
,  // measure 56
1000
0100
0010
0001
,  // measure 57
1000
0100
0010
0001
,  // measure 58
1000
0001
0100
0010
,  // measure 59
1000
0001
0100
0010
,  // measure 60
2002
0000
0000
0000
,  // measure 61
3003
0000
0010
0100
,  // measure 62
1001
0000
0000
0000
;

//---------------dance-single - C. Picardy----------------
#NOTES:
     dance-single:
     :
     Medium:
     5:
     0.320808,0.383779,0.131581,0.061405,0.000000,256.000000,241.000000,15.000000,7.000000,0.000000,0.000000,0.320808,0.383779,0.131581,0.061405,0.000000,256.000000,241.000000,15.000000,7.000000,0.000000,0.000000:
0000
0000
0000
0000
,
0000
0000
0000
0000
,
0000
0000
0000
0000
,
0000
0000
0000
0000
,
1001
1000
0001
1000
,
0010
0100
0010
0100
,
0001
0100
1000
0100
,
0001
0100
1000
0100
,
0001
0001
0001
1000
,
0100
0100
0100
1000
,
0010
0010
0010
0100
,
0001
0000
0001
0000
1000
0100
0010
0000
,
1001
0100
0010
1000
,
0100
0000
0010
0000
0001
0010
0001
0000
,
0100
0010
0100
0001
,
1000
0000
0100
0000
1000
0010
1000
0000
,
0001
0100
0010
1000
,
0100
0000
0010
0000
0001
0100
0010
0000
,
1000
0001
0010
0100
,
1000
0000
0001
0000
1000
0100
0010
0000
,
1100
0001
0010
0100
,
0010
0001
0100
0010
,
1000
0100
1000
0010
,
0100
0001
0010
0100
,
0000
1000
0000
0001
0000
1000
0000
0001
,
0000
0100
0000
0010
0000
1000
0000
0010
,
0000
0100
0000
0001
0000
0100
0000
0010
,
1000
0000
0000
0010
1000
0000
1000
0000
,
0101
0000
0010
1000
,
0001
0000
0010
0000
0100
1000
0001
0000
,
0000
0100
0010
0100
,
0001
0000
1000
0000
0100
0010
0001
0000
,
0000
0100
0010
1000
,
0100
0000
0010
0000
0100
1000
0001
0020
,
0200
0000
0000
0330
,
0100
0000
0000
0000
0010
0010
0100
0000
,
1001
0100
0010
1000
,
0100
0010
0001
1000
,
0110
0001
1000
0100
,
0010
0001
0100
0010
,
1100
0001
0101
1000
,
1010
0100
0110
0001
,
1100
0001
1010
0100
,
0002
0000
0000
1000
1003
0000
0000
0000
,
0100
0100
0000
0000
0010
0010
0000
0000
,
0001
0001
0000
0000
1000
1000
0000
0000
,
0100
0100
0000
0000
1000
1000
0000
0000
,
0001
0001
0000
0000
0100
0100
0000
0000
,
0001
0100
0000
0000
0001
0100
0000
0000
,
0010
0100
0000
0000
0010
0100
0000
0000
,
0010
1000
0000
0000
0010
1000
0000
0000
,
0001
1000
0000
0000
0001
1000
0000
0000
,
0110
0000
0001
0000
1000
0100
1000
0000
,
0010
0000
0100
0000
0001
0010
0001
0000
,
0100
0000
0010
0000
0100
0001
0100
0000
,
0010
0000
1000
0000
0100
1000
0100
0000
,
0010
0000
0001
0000
1000
0100
0010
0000
,
0001
0000
1000
0000
0010
0100
0001
0000
,
1000
0000
0100
0000
0010
0001
0100
0000
,
0020
0000
0000
0000
0130
0010
0100
0000
,
1002
1000
1000
1003
,
0000
0000
0000
0000
0001
0100
0010
0000
,
2002
0000
3003
0000
;

//---------------dance-single - C. Picardy----------------
#NOTES:
     dance-single:
     :
     Challenge:
     10:
     0.766931,0.801330,0.368428,0.017544,0.653520,612.000000,570.000000,42.000000,2.000000,42.000000,0.000000,0.766931,0.801330,0.368428,0.017544,0.653520,612.000000,570.000000,42.000000,2.000000,42.000000,0.000000:
0000
0000
0000
0000
,
0000
0000
0000
0000
,
0000
0000
0000
0000
,
0000
0000
0000
0000
0000
0000
0000
0000
0000
0000
0000
0000
0000
0000
0000
0000
0000
0000
0000
0000
0000
0000
0000
0000
0000
0000
0000
0000
0000
0000
0000
0000
0000
0000
0000
0000
0000
0000
0000
0000
0000
0000
0000
0000
0000
0000
0000
0000
0000
0000
0000
0000
0000
0000
0000
0000
0000
0000
0000
0000
0000
0000
0000
0000
0000
0000
0000
0000
0000
0000
0000
0000
0010
0000
0000
0000
0000
0000
0100
0000
0000
0000
0000
0000
0010
0000
0000
0000
0000
0000
0000
0000
0000
0000
0000
0000
0100
0000
0000
0000
0000
0000
0000
0000
0000
0000
0000
0000
0000
0000
0000
0000
1000
0000
0000
0000
0000
0000
0000
0000
0000
0000
0000
0000
0000
0000
0000
0000
0001
0000
0000
0000
0000
0000
0000
0000
0000
0000
0000
0000
0000
0000
0000
0000
0010
0000
0000
0000
0000
0000
0000
0000
0000
0000
0000
0000
0000
0000
0000
0000
0000
0000
0000
0000
0000
0000
0000
0000
0000
0000
0000
0000
0000
0000
0000
0000
0000
0000
0000
0000
0000
0000
0000
0000
0000
0000
0000
0000
0000
0000
0000
0000
,
1100
0000
0000
0000
0000
0000
0000
0000
0000
0000
0000
0000
0100
0000
0000
0000
0000
0000
0100
0000
0000
0000
0000
0000
1000
0000
0000
0000
0000
0000
0000
0000
0000
0001
0000
0000
0000
0000
0000
0001
0000
0000
0000
0000
0000
0000
0010
0000
,
0001
0000
0000
0000
0000
0000
1000
0000
0000
0000
0000
0000
0000
0000
0000
0000
0000
0000
0010
0000
0000
0000
0000
0000
0010
0000
0000
0000
0000
0000
0000
0000
0000
0100
0000
0000
0000
0000
0000
0100
0000
0000
0000
0000
0000
0000
0010
0000
,
1000
0000
0000
0000
0000
0000
0001
0000
0000
0000
0000
0000
0000
0000
0000
0000
0000
0000
0010
0000
0000
0000
0000
0000
0010
0000
0000
0000
0000
0000
0000
0000
0000
0001
0000
0000
0000
0000
0000
0001
0000
0000
0000
0000
0000
0000
1000
0000
,
0100
0000
0000
0000
0000
0000
0010
0000
0000
0000
0000
0000
0000
0000
0000
0000
0000
0000
0001
0000
0000
0000
0000
0000
0001
0000
0000
0000
0000
0000
0000
0000
0000
1000
0000
0000
0000
0000
0000
1000
0000
0000
0000
0000
0000
0000
0010
0000
,
0100
0000
0000
0000
0000
0000
0001
0000
0000
0000
0000
0000
1000
0000
0000
0000
0000
0000
1000
0000
0000
0000
0000
0000
0100
0000
0000
0000
0000
0000
0000
0000
0000
0010
0000
0000
0000
0000
0000
0001
0000
0000
0000
0000
0000
0000
0010
0000
,
0100
0000
0000
0000
0000
0000
0010
0000
0000
0000
0000
0000
0001
0000
0000
0000
0000
0000
0010
0000
0000
0000
0000
0000
0100
0000
0000
0000
0000
0000
0000
0000
0000
1000
0000
0000
0000
0000
0000
0100
0000
0000
0000
0000
0000
0000
0010
0000
,
0001
0000
0000
0000
0000
0000
0100
0000
0000
0000
0000
0000
1000
0000
0000
0000
0000
0000
0100
0000
0000
0000
0000
0000
0001
0000
0000
0000
0000
0000
0000
0000
0000
1000
0000
0000
0010
0000
1000
0000
0010
0000
1000
0000
0000
0000
0010
0000
,
1000
0000
0000
0000
0000
0000
0010
0000
0000
0000
0000
0000
0000
0000
0000
0100
0000
0000
0000
0000
0000
0000
0000
0000
0001
0000
0000
0000
0000
0000
0001
0000
0000
0000
0000
0000
0100
0000
0000
0001
0000
0000
0100
0000
0001
0000
0100
0000
,
0001
0000
1000
0000
0001
0000
0100
0000
0010
0000
1000
0000
0001
0000
1000
0100
,
1000
0000
0001
0000
0010
0000
0100
1000
0100
0000
0010
0000
0001
0000
1000
0000
,
0010
0000
0100
0000
0001
0000
1000
0000
0100
0000
0010
0000
0001
0000
1000
0010
,
1000
0000
0100
0000
0010
0000
0001
0010
0001
0000
0100
0000
0010
0000
1000
0000
,
0001
0000
0010
0000
0100
0000
1000
0100
0010
0000
0100
0000
1000
0000
0001
0100
,
0010
0000
1000
0000
0001
0000
0010
0100
1000
0000
0001
0000
0001
0000
0010
0001
,
1000
0000
0000
0000
0000
0000
0010
0000
0000
0000
0000
0000
0100
0000
0000
0000
0000
0000
0001
0000
0000
0100
0000
0000
0010
0000
0000
0000
0000
0000
1000
0000
0000
0000
0000
0000
0001
0000
1000
0000
0001
0000
1000
0000
0000
0100
0000
0000
,
0010
0000
0000
0000
0000
0000
0010
0000
0000
0000
0000
0000
0001
0000
0000
0000
0000
0000
1000
0000
0000
0010
0000
0000
1000
0000
0000
0000
0000
0000
0001
0000
0000
0000
0000
0000
0001
0000
0000
0100
0000
0000
0010
0000
0100
0000
0010
0000
,
0100
0001
0101
1000
0100
1000
1100
0010
,
0001
1000
1001
0010
1000
0100
1100
0100
,
0010
0001
0011
1000
0001
0010
0011
0100
,
1000
0010
1010
0001
0100
0010
0110
1000
,
0001
0100
0110
0001
1000
0100
0110
0001
,
1000
0010
0110
0001
1000
0100
1001
0010
,
0001
0000
0000
0000
0000
0000
0100
0000
0000
0000
0000
0000
1001
0000
0000
0000
0000
0000
0001
0000
0000
0000
0000
0000
1000
0000
0000
0000
0000
0000
0100
0000
0000
0000
0000
0000
1000
0000
0001
0000
1000
0000
0001
0000
0000
0100
0000
0000
,
0010
0000
0000
0010
0000
0000
0000
0000
1000
0000
0010
0000
1000
0000
0000
1000
0000
0000
0001
0100
0001
0100
0000
0000
,
M0M1
0100
M010
0000
1M0M
1M0M
0000
M1M1
,
0000
0000
1M1M
0000
0000
0000
M100
0010
0001
0000
0001
0000
1MM0
0000
1000
0000
,
001M
M100
0000
MM00
0001
MM01
0000
11MM
,
0000
0000
MM11
0000
0000
0000
1000
0100
001M
0000
0100
0000
1000
0000
0MM1
0000
,
1000
1000
1M1M
0000
M001
M1M1
0000
M11M
,
0000
0000
1MM1
0000
0000
0000
M001
0100
0010
0000
1M0M
0000
1010
0000
1MM1
0000
,
0101
0000
0000
M010
0000
0000
0000
0000
0000
0000
0000
0000
1000
0000
0000
1000
0000
0000
0010
1000
0010
1000
0000
0000
,
0001
0000
0000
0000
0000
0000
0000
0000
0000
0000
0000
0000
0000
0000
0000
0000
0000
0000
0000
0000
0000
0000
0000
0000
0001
0000
0000
0000
0000
0000
0000
0000
0000
0000
0000
0000
0000
0000
0000
0000
0000
0000
0000
0000
0000
0000
0000
0000
0100
0000
0000
0000
0000
0000
0000
0000
0000
0000
0000
0000
0000
0000
0000
0000
0000
0000
0000
0000
0000
0000
0000
0000
0001
0000
0000
0000
0000
0000
0010
0000
0000
0000
0000
0000
0001
0000
0000
0000
0000
0000
0000
0000
0000
0000
0000
0000
1000
0000
0000
0000
0000
0000
0000
0000
0000
0000
0000
0000
0000
0000
0000
0000
0100
0000
0000
0000
0000
0000
0000
0000
0000
0000
0000
0000
0000
0000
0000
0000
0010
0000
0000
0000
0000
0000
0000
0000
0000
0000
0000
0000
0000
0000
0000
0000
0001
0000
0000
0000
0000
0000
0000
0000
1000
0000
0000
0000
0000
0000
0000
0000
0001
0000
0000
0000
0000
0000
0000
0000
1000
0000
0000
0000
0000
0000
0000
0000
0001
0000
0000
0000
0000
0000
0000
0000
1000
0000
0000
0000
0000
0000
0000
0000
,
0001
0000
1000
0000
0100
0000
0010
0001
0010
0000
0100
0000
1000
0000
0001
0010
,
0001
0000
1000
0000
0010
0000
0100
0001
0100
0000
0010
0000
1000
0000
0001
0010
,
0001
0000
1000
0000
0100
0000
0010
0001
0010
0000
0100
0000
0010
0000
0100
1000
,
0100
0000
0010
0000
0001
0000
1000
0010
1000
0000
0001
0000
0100
0000
0010
1000
,
0010
0000
1000
0000
0001
0000
0010
0100
1000
0000
0001
0000
0100
0000
0010
1000
,
0001
0000
0010
0000
0100
0000
1000
0100
0010
0000
0001
0000
1000
0000
0010
0100
,
0001
0000
0000
0000
0000
0000
0010
0000
0000
0000
0000
0000
0100
0000
0000
0000
0000
0000
1000
0000
0000
0001
0000
0000
0010
0000
0000
0000
0000
0000
0100
0000
0000
0000
0000
0000
1000
0000
0100
0000
1000
0000
0100
0000
0000
1000
0000
0000
,
0001
0000
0000
0000
0000
0000
0100
0000
0000
0000
0000
0000
0100
0000
0000
0000
0000
0000
0010
0000
0000
0100
0000
0000
0010
0000
0000
0000
0000
0000
0100
0000
0000
0000
0000
0000
0001
0000
0100
0000
0001
0000
0100
0000
0001
0000
0100
0000
,
0001
0000
0100
0000
0101
0000
1000
0010
1000
0000
0100
0000
1100
0000
0010
0100
,
0010
0000
0001
0000
0011
0000
1000
0001
1000
0000
0010
0000
1010
0000
0100
0010
,
0100
0000
0010
0000
0110
0000
0001
1000
0001
0000
1000
0000
1001
0000
1000
0100
,
1000
0000
0100
0000
1100
0000
0100
0010
0100
0000
0010
0000
0110
0000
1000
0001
,
0100
0000
0010
0000
1001
0000
0001
1000
0100
0000
0010
0000
1001
0000
0010
0001
,
1000
0000
0010
0000
1001
0000
0010
0001
1000
0000
0010
0000
1001
0000
0100
0001
,
1000
0000
0001
0000
0110
0000
0010
0001
1000
0000
0001
0000
0110
0000
0100
0001
,
1000
0000
0001
0000
0110
0000
1000
0001
1000
0000
0010
0000
0110
0000
1000
0001
,
1000
0000
0001
0100
0001
0000
1000
0001
1000
0000
0010
1000
0010
0000
1000
0010
,
1000
0000
0001
0100
0001
0000
1000
0001
1000
0000
0100
1000
0100
0000
1000
0010
,
1000
0000
0001
0010
0001
0000
0100
0001
0100
0000
0001
0100
0001
0000
1000
0010
,
1000
0000
0001
1000
0001
0000
1000
0100
1000
0000
0001
0100
0001
0000
1000
0001
,
1000
0000
0100
0010
0001
0000
0010
0001
1000
0000
0001
0100
0010
0000
1000
0010
,
0100
0000
0001
1000
0010
0000
1000
0100
0010
0000
0001
0100
0010
0000
1000
0001
,
0100
0000
0000
0000
0000
0000
0010
0000
0000
1000
0000
0000
0001
0000
0000
0000
0000
0000
0010
0000
0000
0100
0000
0000
1000
0000
0000
0000
0000
0000
0001
0000
0000
0100
0000
0000
0001
0000
0100
0000
0001
0000
0100
0000
0000
0000
0010
0000
,
1000
0000
0000
0000
0000
0000
1000
0000
0000
0000
0000
0000
0001
0000
0000
0000
0000
0000
1000
0000
0000
0001
0000
0000
0100
0000
0000
0000
0000
0000
0100
0000
0000
0000
0000
0000
0010
0000
0100
0000
0010
0000
0100
0000
0010
0000
0100
0000
,
0010
1000
0001
0000
0100
0010
0000
1000
0001
1000
0100
0000
1000
0010
0000
0100
,
0001
0000
0000
0000
0000
0000
0000
0000
0000
0000
0000
0000
0100
0000
0000
0000
0000
0000
0000
0000
0000
0000
0000
0000
0001
0000
0000
0000
0000
0000
0000
0000
0000
0000
0000
0000
0000
0000
0000
0000
0000
0000
0000
0000
0000
0000
0000
0000
0001
0000
0000
0000
0000
0000
0000
0000
0000
0000
0000
0000
0000
0000
0000
0000
0000
0000
0000
0000
0000
0000
0000
0000
1000
0000
0000
0000
0000
0000
0001
0000
0000
0000
0000
0000
1000
0000
0000
0000
0000
0000
0000
0000
0000
0000
0000
0000
0001
0000
0000
0000
0000
0000
0000
0000
0000
0000
0000
0000
0000
0000
0000
0000
0010
0000
0000
0000
0000
0000
0000
0000
0000
0000
0000
0000
0000
0000
0000
0000
0100
0000
0000
0000
0000
0000
0000
0000
0000
0000
0000
0000
0000
0000
0000
0000
1000
0000
0000
0000
0000
0000
0000
0000
0000
0000
0000
0000
0000
0000
0000
0000
0000
0000
0000
0000
0000
0000
0000
0000
0000
0000
0000
0000
0000
0000
0000
0000
0000
0000
0000
0000
0000
0000
0000
0000
0000
0000
0000
0000
0000
0000
0000
0000
,
0202
0000
0000
0000
,
0303
0000
0000
0000
;

//---------------dance-single - C. Picardy----------------
#NOTES:
     dance-single:
     :
     Hard:
     8:
     0.515047,0.575668,0.254390,0.035088,0.149125,411.000000,382.000000,29.000000,4.000000,0.000000,0.000000,0.515047,0.575668,0.254390,0.035088,0.149125,411.000000,382.000000,29.000000,4.000000,0.000000,0.000000:
0000
0000
0000
0000
,
0000
0000
0000
0000
,
0000
0000
0000
0000
,
0000
0000
0000
0000
0000
0000
1000
0001
1000
0001
0000
0000
,
0110
0000
0000
0000
0100
0000
0000
0000
1000
0000
0000
0000
0001
0000
0000
0001
,
0010
0000
0000
0000
0100
0000
0000
0000
1000
0000
0000
0000
0010
0000
0000
0010
,
0100
0000
0000
0000
0001
0000
0000
0000
1000
0000
0000
0000
0100
0000
0000
0100
,
1000
0000
0000
0000
0010
0000
0000
0000
0100
0000
0000
0000
0001
0000
0000
0001
,
1000
0000
0000
0000
0100
0000
0000
0000
1100
0000
0000
0000
0010
0000
0000
0010
,
0100
0000
0000
0000
0001
0000
0000
0000
0011
0000
0000
0000
1000
0000
0000
1000
,
0100
0000
0000
0000
0010
0000
0000
0000
0110
0000
0000
0000
0001
0000
0000
0001
,
1000
0001
0000
1000
0100
0100
0100
0000
,
0011
0000
0000
0000
1100
0000
0000
0000
0001
0000
0000
0001
0100
0000
0000
0000
,
0010
1000
0100
1000
0010
0010
0010
0000
,
0100
0000
0000
0100
0001
0000
0000
0000
0010
0000
0001
0000
0100
0000
0000
0000
,
0001
0100
0010
0100
0001
0001
0001
0000
,
1000
0000
0000
1000
0100
0000
0000
0000
0010
0000
0100
0000
1000
0000
0000
0000
,
0001
0100
0010
1000
0100
0010
0010
0000
,
0100
0000
0000
0100
0010
0000
0000
0000
0001
0000
0100
0000
1000
0000
0100
0000
,
0001
0001
0000
1000
0100
0100
1100
0000
,
0010
0011
0000
1000
0000
1100
0000
0001
,
0100
1000
0000
0100
0000
0110
0000
0001
,
0100
1000
0000
0100
0000
1010
0000
0001
,
0010
0100
0000
0010
0000
1100
0000
0001
,
1000
0100
0001
0000
0001
0100
1000
0000
,
1000
0010
0001
0010
1000
1000
0100
0000
,
0010
0100
1000
0000
1000
0100
0010
0100
,
1000
0001
0000
0100
0010
0010
0110
0000
,
1001
1000
0000
0000
0100
0100
0000
0010
,
0000
0000
0001
0000
0000
0000
1000
0100
1000
0000
0001
0000
0010
0000
0100
0000
,
0000
1001
0000
0000
0010
0010
0000
0100
,
0000
0000
0010
0000
0000
0000
0100
0010
0100
0000
0001
0000
0010
0000
0100
0000
,
0010
0000
0010
0000
0001
0001
0010
0100
,
0000
0000
1000
0000
0000
0000
1000
0010
1000
0000
0001
0000
1000
0000
0100
0000
,
1001
0000
0000
0000
0001
1000
0000
0010
,
0100
0000
0000
0010
0000
0000
0000
0000
0000
1000
0000
0000
0001
0000
0010
0000
0100
0000
1000
0000
0000
0000
0000
0000
,
0001
0100
0000
0100
0001
0100
0000
0100
,
0001
0010
0000
0010
0001
0100
0000
0100
,
0010
0100
0000
0100
0010
1000
0000
1000
,
0100
0010
0000
0100
1000
0010
0000
0100
,
0001
0101
0000
1000
0100
1100
0000
0001
,
0010
0011
0000
1000
0010
1010
0000
0010
,
0100
0110
0000
0100
0010
0110
0000
0001
,
1000
0002
0000
0100
0100
0103
0000
0010
,
1000
0001
0100
0001
1000
0100
1100
0000
,
0001
0010
0100
0010
0001
0100
0101
0000
,
0010
1000
0001
1000
0100
0010
0110
0000
,
0100
0010
0100
1000
0001
0100
1001
0000
,
0001
0100
0001
0100
0010
0100
0010
0100
,
1000
0100
1000
0100
0010
0100
0010
1000
,
0010
1000
0010
1000
0100
1000
0100
0001
,
0100
0001
0100
0010
0001
0010
1001
0000
,
1000
0000
0100
0000
1000
0000
0100
1000
0100
0000
1000
0000
0100
0000
0010
0100
,
0010
0000
0001
0000
0010
0000
0001
0010
0001
0000
0100
0000
0001
0000
0100
0001
,
0100
0000
0010
0000
0100
0000
0010
0100
0010
0000
1000
0000
0010
0000
1000
0010
,
1000
0000
0001
0000
1000
0000
0001
1000
0001
0000
1000
0000
0100
0000
0010
0001
,
0010
0000
0100
0000
1000
0000
0001
0010
0001
0000
1000
0000
0010
0000
0100
0001
,
0100
0000
0010
0000
1000
0000
0010
0100
0010
0000
1000
0000
0001
0000
0010
0100
,
0010
0000
0001
0000
1000
0000
0001
1000
0001
0000
0100
0000
0010
0000
0100
0010
,
0100
0001
0000
1000
0100
1000
0010
0000
,
2001
0000
0000
0001
0000
0001
0000
0001
,
0000
0000
0000
3001
0000
0000
0000
0000
0000
0000
0000
0000
0010
0000
0100
0000
1000
0000
0001
0000
0000
0000
0000
0000
,
0220
0000
0330
0000
;
