#TITLE:Stab N' Stomp!;
#SUBTITLE:;
#ARTIST:Manabu Namiki/Battle Garegga;
#TITLETRANSLIT:;
#SUBTITLETRANSLIT:;
#ARTISTTRANSLIT:;
#GENRE:;
#CREDIT:;
#BANNER:stabnstompbn.png;
#BACKGROUND:stabnstomp.png;
#LYRICSPATH:;
#CDTITLE:;
#MUSIC:stabnstomp.ogg;
#OFFSET:-0.052610;
#SAMPLESTART:62.112564;
#SAMPLELENGTH:11.319989;
#SELECTABLE:YES;
#BPMS:0.000000=170.059998
;
#STOPS:
;
#BGCHANGES:16.000=flash=1.600=0=0=1=====,
16.250=stabnstomp1.mp4=1.000=0=1=1=StretchRewind====,
320.000=flash=1.800=0=0=1=====,
320.250=stabnstomp.png=1.000=0=0=1=====,
99999=-nosongbg-=1.000=0=0=0 // don't automatically add -songbackground-
;
#KEYSOUNDS:;
#ATTACKS:;

//---------------dance-single - C. Picardy----------------
#NOTES:
     dance-single:
     :
     Beginner:
     1:
     0.092586,0.210196,0.105098,0.218954,0.000000,74.000000,62.000000,12.000000,25.000000,2.000000,0.000000,0.092586,0.210196,0.105098,0.218954,0.000000,74.000000,62.000000,12.000000,25.000000,2.000000,0.000000:
0000
0000
0000
0000
,
0000
0000
0000
0000
,
0000
0000
0000
0000
,
0000
0000
0000
0000
,
0010
0000
0000
0000
,
0000
0000
0000
0000
,
0100
0000
0000
0000
,
0000
0000
0000
0000
,
1000
0000
0000
0000
,
0000
0000
0000
0000
,
0001
0000
0000
0000
,
0000
0000
0000
0000
,
1000
0000
0000
0000
,
0010
0000
0000
0000
,
0100
0000
0000
0000
,
0001
0000
0000
0000
,
0010
0000
0000
0000
,
0010
0000
0000
0000
,
0100
0000
0000
0000
,
0001
0000
0000
0000
,
2000
0000
0000
0000
,
3000
0000
0000
0000
,
0020
0000
0000
0000
,
0030
0000
0000
0000
,
0200
0300
0000
0000
,
0002
0003
0000
0000
,
2000
3000
0000
0000
,
0020
0030
0000
0000
,
1001
0000
0000
0000
,
0000
0000
0000
0000
,
0110
0000
0000
0000
,
2002
0000
0000
0000
,
3003
0000
0000
0000
,
0220
0000
0000
0000
,
0330
0000
0000
0000
,
2200
0000
0000
0000
,
3300
0000
0000
0000
,
0022
0000
0000
0000
,
0033
0000
0000
0000
,
0MM0
0000
0000
0000
,
0020
0000
0030
0000
,
2000
0000
3000
0000
,
0002
0000
0003
0000
,
0200
0300
0000
0000
,
1000
0000
0000
0000
,
0010
0000
0000
0000
,
0100
0000
0000
0000
,
0001
0000
0000
0000
,
1001
0000
0000
0000
,
0110
0000
0000
0000
,
1010
0000
0000
0000
,
0101
0000
0000
0000
,
2000
0000
0000
0000
,
0020
0000
3030
0000
,
0002
0000
0000
0000
,
2000
0000
3003
0000
,
0002
0000
0000
0000
,
0020
0000
0033
0000
,
2000
0000
3000
0000
,
1001
0000
0000
0000
,
0010
0000
0000
0000
,
0000
0000
0000
0000
,
0100
0000
0000
0000
,
0000
0000
0000
0000
,
0001
0000
0000
0000
,
1000
0000
0000
0000
,
0010
0000
0000
0000
,
0100
0000
0000
0000
,
0001
0000
0000
0000
,
0001
0000
0000
0000
,
1000
0000
0000
0000
,
1000
0000
0000
0000
,
0010
0000
0000
0000
,
0100
0000
0000
0000
,
0001
0000
0000
0000
,
1000
0000
0000
0000
,
0010
0000
0000
0000
,
1000
0000
0000
0000
,
0001
0000
0000
0000
,
0000
0000
0000
0000
,
1001
0000
0000
0000
;

//---------------dance-single - C. Picardy----------------
#NOTES:
     dance-single:
     :
     Easy:
     5:
     0.319048,0.455425,0.280262,0.253987,0.000000,255.000000,223.000000,32.000000,29.000000,16.000000,0.000000,0.319048,0.455425,0.280262,0.253987,0.000000,255.000000,223.000000,32.000000,29.000000,16.000000,0.000000:
0000
0000
0000
0000
,
0000
0000
0000
0000
,
0000
0000
0000
0000
,
0001
1000
0000
0100
,
0010
0000
0001
0000
,
1000
1000
1000
0000
,
0010
0000
0100
0000
,
0001
0001
0000
1000
,
0001
0000
0100
0000
,
0010
1000
0010
0000
,
0100
0000
0001
0000
,
1000
1000
0000
1001
,
0002
0003
2000
3000
,
0020
0030
0200
0300
,
0002
0003
2000
3000
,
0002
0003
0000
1000
,
0001
0100
0001
1000
,
0010
0100
0001
1000
,
0100
0010
0001
0100
,
1000
0000
MMMM
0000
,
2002
0000
0000
0000
,
3MM3
0000
0000
0000
,
0220
0000
0000
0000
,
M33M
0000
0000
0000
,
1000
0000
0010
0000
,
0100
0000
0001
0000
,
1000
0000
0100
0000
,
0010
0000
0001
0000
,
2000
0000
0010
3000
,
0200
0000
0010
0300
,
0002
0000
0100
0003
,
2000
0000
0001
3000
,
1001
0000
0110
0000
,
1100
0000
0011
0000
,
0101
0000
1010
0000
,
0110
0000
1001
0000
,
0001
1000
0010
0100
,
0001
1000
1000
0010
,
0100
0001
0010
0100
,
1001
0000
MMMM
0000
,
0020
0000
1000
1030
,
0020
0000
0100
0130
,
0002
0000
0010
0103
,
0001
0010
0000
0001
,
1001
0100
0010
1000
,
0001
0100
0010
1000
,
0110
0100
0001
0010
,
0100
0010
0001
1000
,
1010
0100
0001
1000
,
0100
0010
0010
0001
,
0101
0100
0010
1000
,
0001
0001
0000
0100
,
0120
1000
0100
0130
,
0001
0010
0001
1000
,
2010
0001
0010
3010
,
0100
0001
0000
1000
,
1100
0001
0100
0001
,
0101
0100
0010
1000
,
1100
0100
0010
0100
,
1001
0000
MMMM
0000
,
0120
0000
2000
3000
,
0200
0330
0000
0000
,
0201
0000
0020
0030
,
0002
0303
0000
0000
,
1000
0010
0100
0100
,
0001
0010
0001
1000
,
0010
0010
1000
1000
,
0100
1000
0010
0100
,
0001
0001
0010
0010
,
0100
0010
0100
1000
,
0001
0001
0100
0010
,
1000
0001
0000
1000
,
1100
0001
0010
0001
,
0101
0100
0100
0010
,
1010
1000
1000
0010
,
0100
0202
0303
0010
,
1000
0110
0001
0110
,
1000
1100
1001
0100
,
0002
0100
1000
0013
,
0001
0000
0000
1000
0000
0001
0000
1000
,
0001
0000
0000
0000
;

//---------------dance-single - C. Picardy----------------
#NOTES:
     dance-single:
     :
     Medium:
     7:
     0.535500,0.560523,0.411634,0.289020,0.017516,428.000000,381.000000,47.000000,33.000000,34.000000,0.000000,0.535500,0.560523,0.411634,0.289020,0.017516,428.000000,381.000000,47.000000,33.000000,34.000000,0.000000:
0000
0000
0000
0000
,
0000
0000
0000
0000
,
0000
0000
0000
0000
,
0100
0000
0100
0000
0000
1000
0010
0000
,
0100
0000
0001
0000
1000
0100
1000
0000
,
0010
0000
0100
0001
1000
0000
0100
0000
,
0010
0010
0001
1000
,
0010
0100
0000
0100
0000
0001
0001
0000
,
1000
0000
0100
0000
0010
0100
1000
0000
,
0001
0100
0001
0100
0001
0000
1000
0100
,
0010
0100
1000
0001
,
0100
0001
0100
0000
0101
0000
0110
0000
,
0010
1000
0100
0000
0110
0000
0011
0000
,
0001
1000
0001
0100
0001
0000
1000
0001
,
0100
0110
1000
1010
,
0200
0000
0010
0000
1300
0000
0001
0100
,
0010
1010
0100
1100
,
1000
0001
1000
0001
1000
0000
0001
0000
,
0021
0001
0100
1030
,
0002
0003
0002
0003
1000
0002
0003
1000
,
1010
MMMM
0110
MMMM
,
0011
0000
MMMM
0000
0000
0000
0000
0010
,
0101
0M0M
1001
M00M
,
0220
0330
0MM0
M00M
,
0010
0010
0010
0000
0100
0100
0100
0000
,
0001
0001
0001
0001
0001
0000
1000
0010
,
0110
0000
0100
0000
0001
1000
0100
0000
,
0010
0010
0010
0000
0001
0000
1000
0010
,
0100
0000
0110
0000
0100
0001
0010
0000
,
0001
0001
0001
1000
0100
0000
0010
1000
,
0100
0000
0011
0000
0100
0001
0010
0000
,
0100
0100
0100
0000
0000
0100
1100
0000
,
0020
0032
0023
0032
,
0203
0302
0203
0320
,
2030
3200
0302
0203
,
2300
0000
0000
0000
3020
0000
0000
0000
0032
0000
0000
0000
0023
0000
0000
0030
,
1000
0001
0001
0000
0100
0010
0010
0000
,
0100
0001
0001
0100
0001
0000
0001
1000
,
0200
0000
0010
0000
0001
0000
1000
0300
,
1001
0000
0100
0010
0000
1000
0000
0001
,
1001
0100
0100
0100
,
1010
0000
1000
0000
1000
0000
1000
0001
,
0101
0001
0001
0001
,
0010
1000
0100
0000
MM00
0000
1010
0000
,
0001
0000
0000
0001
0100
0000
0000
0000
0010
0000
0000
0000
0101
0000
0000
0000
,
0001
0100
0010
1000
0100
0000
0010
0100
,
1000
1100
0100
0110
,
0010
0000
0001
0000
0010
0000
0000
0000
0100
0000
0000
0100
1000
0000
0000
0000
,
0010
0100
0001
0000
1000
0000
1100
0000
,
0100
0010
0000
0000
0001
0000
1000
0000
0001
0000
0000
0000
0001
0000
1000
0000
,
1000
0000
0000
0000
M101
0000
0000
0000
0100
0010
0000
0000
0100
0000
0000
0000
,
0010
1000
0100
0000
0010
0000
0101
0000
,
0001
2000
0100
0000
0010
0000
0001
3000
,
0001
0200
0010
0010
0310
0000
1000
0002
,
0100
0000
0010
0000
1000
1000
1003
0000
,
1000
0200
0010
0000
0001
0000
0010
0010
,
0310
0011
1100
1001
,
1000
0100
0010
0100
1000
0000
1000
0010
,
0100
0101
1001
1100
,
0010
0000
0010
0000
0020
0002
0033
0100
,
0020
0000
0000
0000
1M00
0000
0000
M000
,
0001
0000
003M
0000
0000
0000
0000
0010
,
0200
0000
0000
1000
1000
0000
0000
0010
,
0010
0002
0303
00MM
,
0100
0010
1000
0101
,
0100
0010
0100
0001
0100
0000
0010
1000
,
0100
0110
0010
0011
,
0001
1000
1100
0000
0000
0100
0010
0000
,
0010
0100
1000
0000
0010
0100
0001
0000
,
0010
0100
1000
0100
0010
0000
0001
0010
,
0100
0110
0010
0011
,
1000
0001
0100
0010
0000
1000
0001
0000
,
100M
0100
100M
0000
100M
0010
1000
0000
,
1000
0001
1000
0001
0100
0000
M001
0000
,
M001
0010
M001
0000
0001
1000
0001
0000
,
0001
0010
0001
0000
1000
0001
0101
0000
,
0001
0100
1000
0000
1000
0100
0001
0000
,
0001
0010
1000
0010
0001
0000
0001
0010
,
1000
0000
1000
0010
0001
0100
0010
0000
,
0110
0000
1010
1000
0000
0001
0000
1001
,
1001
0000
0000
0000
;

//---------------dance-single - C. Picardy----------------
#NOTES:
     dance-single:
     :
     Hard:
     9:
     0.790738,0.770720,0.525491,0.052549,0.586798,632.000000,572.000000,60.000000,6.000000,97.000000,0.000000,0.790738,0.770720,0.525491,0.052549,0.586798,632.000000,572.000000,60.000000,6.000000,97.000000,0.000000:
0000
0000
0000
0000
,
0000
0000
0000
0000
,
0120
1000
0001
0130
,
0010
0001
0000
0000
0100
0000
0000
0MM0
0000
0000
0010
0000
0010
0000
0000
0000
,
1000
0001
0000
0000
0101
0000
0000
0000
0110
0000
0000
0000
1010
0000
0000
0000
,
1000
0100
1000
0000
0100
0000
0010
0000
0100
0000
0000
0000
0100
0000
1000
0000
,
0010
0000
0000
0000
0110
0000
0000
0000
0100
0001
0000
0000
0101
0000
0000
0000
,
0001
0010
0001
0000
0100
0000
0000
0000
0010
0000
0000
0010
0100
0000
0001
0000
,
0010
0100
0000
0000
1100
0000
0000
0000
0010
0100
0000
0000
0110
0000
0000
0000
,
0010
0100
1000
0000
0010
0000
1000
0000
0001
0000
0000
0000
0001
0000
0100
0000
,
1000
0000
0000
0000
0110
0000
0000
0000
0001
0010
0000
0000
0011
0000
0000
0000
,
0100
1000
0100
0000
0010
0000
0000
0010
0001
0000
0100
0000
0010
0000
0000
0000
,
1000
0001
0100
0000
0010
0000
1000
0000
0100
0000
0010
0000
0100
0000
1000
0000
,
0010
0100
0001
0000
0010
0000
0010
0000
0010
0000
0000
0000
0100
0000
1000
0000
,
0010
0100
0000
0000
0110
0000
0000
0000
0100
0001
0100
0000
0010
0000
1000
0000
,
0100
0010
0100
0000
0010
0000
0001
0000
1000
0000
0000
1000
0010
0000
1000
0000
,
0001
0100
0010
0000
1000
0000
0100
0000
0010
0100
1000
0000
0100
0000
0010
0000
,
0001
0100
0001
0000
0010
0000
0010
0000
0010
0000
0100
0000
1000
0000
0001
0000
,
0100
0001
1000
0000
0100
0000
0010
0000
1000
0000
0010
0000
0001
0000
0100
0000
,
0110
0000
1010
0000
1001
0101
0000
0001
,
1001
0000
0M00
0000
M000
0000
100M
0100
1000
0000
0M01
0000
0000
0000
M1M0
0001
,
0100
0000
001M
0000
10M0
0000
0M00
0000
M0MM
0000
0MM0
0000
0110
M000
0M00
00M0
,
1000
0100
10M0
0100
100M
0000
00M0
M000
0M01
0010
M001
0M10
0001
0000
00M0
M00M
,
0100
M010
0100
M010
010M
0000
0000
0M00
00M0
M000
000M
0000
1100
0000
00M0
MM0M
,
0010
0100
1000
0000
0010
0000
0000
0000
0110
0000
0000
0000
0101
0000
0000
0000
,
0001
0010
0001
0000
0100
0000
0010
0000
0010
0000
0000
0010
1000
0000
0100
0000
,
0010
0100
0000
0000
0110
0000
0000
0000
0011
0000
0000
0000
1001
0000
0000
0000
,
0010
0001
0100
0000
0001
0000
0000
0000
0001
0000
0000
1000
0100
0000
0010
0000
,
0100
1000
0000
0000
1010
0000
0000
0000
0100
0001
0000
0000
0101
0000
0000
0000
,
1000
0010
0100
0000
0001
0000
1000
0000
0100
0000
0000
0000
0100
0000
1000
0000
,
0010
0100
0000
0000
0110
0000
0000
0000
0010
0001
0000
0000
1001
0000
0000
0000
,
0100
1000
0010
0000
0010
0000
0000
0000
0010
0000
0000
0100
0010
0000
0100
0000
,
0001
0000
0000
0001
0100
0000
0000
0100
0010
0000
0000
0010
1000
0000
0000
1000
,
0100
0010
0100
0000
0010
0000
0001
0000
0010
0000
0000
0010
0100
0000
0000
0100
,
0010
0000
0000
0010
0001
0000
0000
0001
0010
0000
0000
0010
1000
0000
0000
1000
,
0010
0001
0010
0100
1000
1010
1010
0000
,
0100
0001
1000
0000
0100
0000
0010
0000
0100
1000
0100
0000
0010
0000
0001
0000
,
0100
0001
1000
0000
0100
0000
0010
0000
0100
0010
0001
0000
0100
0000
0001
0000
,
0010
0100
0010
0000
0001
0000
0100
0000
0010
1000
0100
0000
0010
0000
0001
0000
,
1001
0000
0100
0101
0000
0110
0000
1001
,
0201
0000
M010
0000
M001
0000
M301
MMMM
,
1000
0000
0MMM
0000
1MMM
0000
0MMM
0000
1MMM
0000
0MMM
0000
1MMM
0000
0000
0002
,
MM10
M1M0
MM10
1MM3
,
0010
0001
1000
0000
0020
0000
0000
1000
0000
0000
0100
0000
0130
0000
0000
0000
,
0100
0001
0100
0000
0101
0000
0000
0000
0010
1000
0000
0000
1010
0000
0000
0000
,
0010
1000
0100
0000
0100
0000
0010
0000
0010
0000
0000
0000
0001
0000
0010
0000
,
0001
0010
0000
0000
1001
0000
0000
0000
0100
0010
0000
0000
1001
0000
0000
0000
,
1000
0001
0100
0000
0010
0000
0000
0000
0100
0000
0000
0100
0010
0000
0100
0000
,
0001
1000
0100
0000
0010
0000
0000
0010
0100
0000
1000
0000
0010
0000
0000
0010
,
0100
0001
0100
0000
0010
0000
1000
0000
1000
0000
0000
0100
0010
0000
0100
0000
,
1000
0010
0000
0000
0010
1000
0000
0000
1000
0010
0000
0000
0101
0000
0000
0000
,
1000
0100
1000
0000
0001
0000
0000
0001
0100
0000
0000
0001
0010
0000
0000
0000
,
0001
1000
0000
0000
0001
0100
0000
0000
0001
0010
0000
0000
1001
0000
0000
0000
,
0001
1000
0100
0000
1000
0000
0010
0000
1000
0000
0000
0001
0100
0000
0000
0000
,
0100
0010
0000
0000
0100
0001
0000
0000
0100
0010
0000
0000
0100
1000
0000
0000
,
0100
0010
0100
0000
0001
0000
0001
1000
0100
0000
0010
0000
0011
0000
0000
0000
,
0010
0100
0010
0000
0001
0000
0100
0000
1000
0000
0100
0000
0001
0000
0010
0000
,
0100
1000
0100
0000
0010
0000
0100
0000
0010
0000
0001
0000
0010
0000
1000
0000
,
0010
1000
0010
0000
0010
0000
0001
0000
0100
0000
0010
0000
1000
0000
0001
0000
,
0101
0000
0011
0000
1010
1100
0000
0001
,
0101
0000
0100
0000
0001
0000
1000
0100
1000
0000
0010
0000
0100
0000
0001
0000
,
0010
0001
0010
0001
0010
0000
0000
0000
MMMM
0000
MMMM
0000
0000
0000
0100
0000
,
0110
0000
0010
0000
1000
0000
0001
0100
0010
0000
0100
0000
0001
0000
0010
0000
,
0100
0010
0100
0010
0100
0000
0000
00M0
0M00
M00M
00M0
0M00
M0MM
0000
0000
0000
,
1000
0100
1000
0100
1000
0000
0000
0000
0010
1000
0010
1000
0010
0000
0000
0000
,
0100
0001
0100
0001
0100
0000
0001
0000
0001
0000
0000
0000
1000
0000
0000
0000
,
0100
1000
0100
1000
0100
0000
0000
0000
1000
0001
1000
0001
1000
0000
0000
0000
,
0001
0100
0001
0000
0100
0000
0000
0000
0110
0000
0000
0000
0101
0000
0000
0000
,
1000
0010
0100
0010
0100
0000
0000
0000
0001
1000
0001
1000
0100
0000
0000
0000
,
1000
0001
1000
0000
0010
0000
1000
0000
0100
0000
0000
0000
0100
0000
0010
0000
,
0001
0100
0000
0000
0101
0000
0000
0000
0100
0010
0000
0000
0110
0000
0000
0000
,
1000
0010
0000
0000
0110
0000
0000
0000
0100
0000
0000
0001
1000
0000
0101
0000
,
0001
0100
0010
0001
0010
1000
0010
0001
,
0010
1000
0100
0001
0100
0010
1000
0010
,
0001
1000
0100
0001
1000
0010
0001
0100
,
0010
0001
0010
0100
0010
0001
0010
1000
,
0010
1000
0000
0000
1010
0000
0000
0000
0100
0000
0000
0000
0101
0000
0000
0000
,
1000
0100
1000
0000
0100
0000
0010
0000
0110
0000
0000
0000
0010
0000
0001
0000
,
0200
00M0
M00M
00M0
M002
00M0
M000
0303
,
0110
0000
0100
0001
0000
0101
0000
0011
,
1001
0000
0000
0000
;

//---------------dance-single - C. Picardy----------------
#NOTES:
     dance-single:
     C. Picardy:
     Challenge:
     11:
     1.082260,1.192043,1.015949,0.481700,1.234903,865.000000,749.000000,116.000000,55.000000,192.000000,1.000000,1.082260,1.192043,1.015949,0.481700,1.234903,865.000000,749.000000,116.000000,55.000000,192.000000,1.000000:
0000
0000
0000
0000
,
0000
0000
0000
0000
0000
0000
0000
0000
1000
0000
0100
1000
0100
0000
0100
0000
,
0020
0100
1000
0031
,
1000
0000
0000
0100
0000
0000
0010
0000
0000
0000
0000
0000
0001
0000
0000
0000
0000
0000
0000
0000
1000
0000
0000
0000
0000
0000
0000
0000
0010
0000
0000
0000
0000
0000
0000
0000
0100
0000
0000
0000
0000
0000
0010
0000
0000
0000
0000
0000
,
0100
0001
0100
0000
0110
0000
1000
0000
0100
1000
0100
0000
0110
0000
0010
0000
,
0001
1000
0100
0000
0110
0000
0011
0000
1001
0000
0001
0000
0101
0000
0100
0000
,
0010
1000
0100
0000
1001
0000
0000
1000
0001
1000
0001
0000
0101
0000
0000
0000
,
0010
0001
0100
0000
0110
0000
0MM0
0000
1010
0000
M0M0
0100
0001
0000
0101
0000
,
0010
1000
0100
0000
1100
0000
1000
0000
0010
0100
0001
0000
0011
0000
0100
0000
,
0010
1000
0100
0000
1001
0000
0101
0000
1001
0000
0000
1000
0100
0000
1001
0000
,
1000
0010
0100
0000
0011
0000
1000
0000
0001
1000
0100
0000
1001
0000
0000
0000
,
0001
1000
0010
0000
1100
0000
0000
0000
0011
0000
0000
0001
0100
0000
0110
0000
,
1000
0010
0100
0000
0011
0000
0000
0000
0010
0100
1000
0000
0101
0000
0000
0000
,
0001
0100
0010
0100
0001
0000
0101
0000
1001
0000
0000
0000
1100
0000
0010
0000
,
0100
1000
0010
0000
0110
0000
0000
0000
0100
0010
1000
0000
0101
0000
0000
0000
,
0001
1000
0001
1000
0001
0000
0000
0100
0001
0000
0101
0000
0110
0000
1010
0M00
,
100M
01M0
100M
0MM0
100M
01M0
100M
0M00
M0M1
0100
M0M1
0M00
M0M1
0100
0001
0000
,
0001
0010
0100
1000
0001
0000
0100
0001
0010
0000
0100
0000
1000
0000
0001
0000
,
0M10
M001
0M10
M00M
0M10
M001
0M10
000M
0100
10M0
010M
M000
01M0
100M
0100
0000
,
0110
0000
0011
0000
1001
0101
0000
0110
,
1000
0001
0100
0010
1000
0000
0100
1000
0100
1000
0100
1000
0100
0000
0010
0001
,
0010
0001
0010
0001
0010
0000
0000
M0M0
0M0M
00M0
000M
MM00
00M0
0000
1001
0000
,
0001
0100
0001
0100
0001
0000
0001
0100
0010
1000
0010
0100
0001
0000
0001
0010
,
0100
1000
0100
0010
0001
0000
0MM0
0000
M00M
0000
0MM0
0000
0MM0
0000
MMMM
0000
,
0010
1000
010M
0000
1010
000M
00M0
0100
M001
0010
0100
M000
0011
0M00
M0M0
0000
,
00M1
1000
0100
000M
M110
0000
0011
0000
1M01
0000
00M0
M000
0001
00M0
0101
M000
,
00M1
0100
001M
0000
1M01
00M0
0000
M00M
0010
M100
0001
0000
M110
000M
0000
0M00
,
0010
100M
0100
0000
011M
M000
0000
0M00
0011
M000
0M00
0001
M010
000M
M110
0000
,
0001
10M0
0100
100M
0010
0000
M100
0001
0M10
M000
0001
0000
M1M0
0000
01M1
0000
,
M0M1
0100
M001
0100
0010
000M
1000
0M0M
1000
00M0
M10M
0000
1000
0M00
001M
M000
,
0100
001M
0100
001M
1M00
0000
0001
M100
0010
000M
1000
00M0
0100
M00M
0010
M000
,
0100
0010
MM01
0010
0100
M000
0010
0M0M
1000
0000
0000
M010
0M01
0000
MM11
0000
,
0001
1000
0100
0000
0010
0100
1000
0000
0001
0100
0010
0000
1000
0010
0100
0000
,
0001
1000
0001
1000
0100
0000
0010
0100
0010
0000
0001
0000
0100
0000
0001
0000
,
0010
0001
0100
0000
0010
0001
0010
0000
0010
1000
0100
0000
0010
0100
1000
0000
,
1000
0100
0001
0100
1000
0000
0010
0100
0001
0000
1000
0000
0010
0000
0100
0000
,
0001
0010
0100
0010
0001
0000
1000
0100
0010
0001
0010
0100
1000
0000
0010
0100
,
1000
0100
0010
0001
1000
0000
0001
1000
0100
0010
0001
1000
0100
0000
0100
0010
,
0001
1000
0100
0010
0001
0000
0010
0100
1000
0001
0100
0010
1000
0100
0010
0001
,
2000
0000
0000
0000
0000
0000
0000
0000
0000
3000
0000
0000
0010
0000
0000
0000
0000
0000
2020
0000
0000
0000
0000
0000
0000
0000
0000
3030
M0M0
0000
2020
0000
0000
0000
0000
0000
0000
0000
0000
3030
M0M0
0000
0020
0000
0000
0030
0000
0000
,
0202
0003
0020
0030
2000
3000
2000
3300
,
0220
0000
0030
0000
2000
0000
3000
0000
0002
0303
0001
0100
1000
0000
0200
0000
,
0002
0000
0300
0003
0020
0000
0000
0030
2000
0000
0000
3000
0020
0000
0000
0030
,
0001
1000
0200
0000
2000
0000
0000
0000
0000
0000
0000
0000
0010
0000
3300
0000
,
0010
1000
0100
0000
0110
0000
0010
0001
1000
0000
0010
0000
0110
0000
0101
0000
,
0001
1000
0100
0000
1100
0000
1100
0000
0110
0000
0010
0001
0010
0000
0011
0000
,
0001
0100
0010
0000
0101
0000
0010
0000
0100
0010
1000
0000
1100
0000
0010
0000
,
0100
0001
0010
0000
1100
0000
0000
0100
0010
0000
0001
0000
1001
0000
0101
0000
,
0001
1000
0010
0000
0101
0000
0000
0000
0010
0100
0001
0000
0110
0000
0000
0000
,
0010
1000
0100
0000
0110
0000
0011
0000
1001
0000
0000
0000
0001
0000
0100
0000
,
0010
1000
0100
0000
1000
0001
0100
0000
0010
1000
0100
0000
0010
0001
1000
0000
,
0010
0100
0001
0100
0010
0000
0010
1000
0100
0000
0100
0000
0110
0000
0011
0000
,
1000
0100
0010
0100
1000
0000
0001
0010
0100
0010
0001
0010
0100
0000
1000
0001
,
0100
0010
1000
0000
0100
0010
0100
0000
0011
0000
0001
0000
1000
0000
0101
0000
,
0001
0100
0010
1000
0100
0000
0010
0100
1000
0001
0010
0100
1000
0000
0001
1000
,
0100
0010
0100
1000
0001
0000
0100
0001
0010
0001
0100
0010
1000
0000
0001
0000
,
0001
0100
0010
0100
1000
0100
0010
0000
0001
0000
1000
0000
0001
0000
0100
0000
,
0010
1000
0100
0010
0001
0000
1001
0000
0101
0000
0000
0000
0100
0000
0010
0000
,
1000
0001
0100
0010
1000
0100
0010
0001
0010
0100
0010
0001
0010
0100
1000
0010
,
2002
0000
0000
3003
2200
0000
0000
3300
0220
0330
0022
0000
0000
0033
1001
0000
,
0000
0000
0000
0000
0000
0000
M000
0000
0200
00M0
0000
0000
000M
0000
0000
0000
0000
0000
000M
0000
0320
0000
0000
0000
0M0M
0000
0000
0000
0000
0000
0M00
0000
2030
000M
0000
0000
00M0
0000
0000
0M00
0000
0000
00M0
0000
3002
0M00
0000
0000
,
00M0
0000
0000
MM00
0000
0000
00M0
0000
2003
0000
0000
0000
0000
0000
0000
0M0M
3000
0000
M0M0
0000
2000
0000
0000
0000
00M0
0000
0000
000M
0000
0000
0000
0000
32M0
0000
0000
0000
000M
0000
0000
0000
M000
0000
0001
0000
03M0
0000
0000
0000
,
1001
0M00
M0M2
0M00
00M0
M203
M0M0
000M
23M0
0M0M
0000
3M2M
,
M000
0000
000M
0000
0M32
0000
M000
0000
00M0
0000
M203
0000
0000
0000
0000
0000
2300
0000
0000
0000
0000
0001
3000
0000
,
M101
0000
0100
0000
0010
0000
1010
0000
0100
0001
0010
0000
0011
0000
1000
0000
,
0010
0100
0001
0000
0011
0000
0110
0000
1100
0000
0000
0000
0100
0000
0110
0000
,
0010
0100
1000
0000
1001
0000
0000
0000
0001
0100
0010
0000
0110
0000
0000
0000
,
0010
1000
0100
0000
0220
0000
0000
0330
2002
0000
0000
3003
0001
0000
0101
0000
,
0010
1000
0100
0000
1001
0000
0100
0000
0010
1000
0001
0000
0011
0000
1000
0000
,
0010
1000
0100
0010
0001
0000
0100
0000
0101
0000
0010
0000
1000
0000
0001
0000
,
0100
0010
1000
0000
1100
0000
0010
0000
0100
1000
0010
0000
0101
0000
1001
0000
,
0001
1000
0100
0000
0011
0000
0001
1000
0100
0000
0011
0000
1100
0000
0010
0000
,
0100
0001
0010
0100
1000
0100
0010
0000
0010
0100
0010
0001
0010
1000
0010
0000
,
0010
0001
0100
0010
1000
0000
1001
0000
0101
0000
0010
0000
1000
0000
0010
0000
,
0100
0010
1000
0010
0100
0001
0010
0000
0100
1000
0010
0100
0010
1000
0100
0000
,
0010
0001
0010
0000
0022
0000
0000
0033
2020
0000
0000
3030
0220
0000
0000
0330
,
0001
1000
0100
0010
0001
0010
0100
0010
0001
0010
0100
1000
0100
0010
0100
1000
,
0010
0100
0001
0100
0010
0100
0001
0010
0100
1000
0100
0010
0100
1000
0010
0100
,
0001
0010
0100
1000
0100
0010
0100
1000
0001
0100
0010
1000
0001
0100
0010
1000
,
0101
0000
0M0M
0000
1010
M0M0
0110
0000
0MM0
0000
0011
0000
00MM
M00M
0110
0000
,
1001
M00M
0000
0000
0000
0000
0000
0000
0000
0000
0000
0000
0000
0000
0000
0000
;
