#TITLE:Spin on the Bridge;
#SUBTITLE:;
#ARTIST:Yuzo Koshiro feat. BGM1401;
#TITLETRANSLIT:;
#SUBTITLETRANSLIT:;
#ARTISTTRANSLIT:;
#GENRE:;
#CREDIT:;
#BANNER:spinonthebridgebn.png;
#BACKGROUND:spinonthebridgebg.png;
#LYRICSPATH:;
#CDTITLE:;
#MUSIC:spinonthebridge.ogg;
#OFFSET:-0.236035;
#SAMPLESTART:6.617998;
#SAMPLELENGTH:12.000000;
#SELECTABLE:YES;
#BPMS:0.000000=150.000000
;
#STOPS:
;
#BGCHANGES:16.000=flash=1.600=0=0=1=====,
16.250=geometricworld.mp4=1.000=0=1=1=StretchRewind====,
48.000=flash=1.600=0=0=1=====,
48.250=geometricworld.mp4=1.000=0=0=1=====,
80.000=flash=1.600=0=0=1=====,
80.250=classicnet.mp4=1.000=0=1=1=StretchRewind====,
112.000=flash=1.600=0=0=1=====,
112.250=purpletriangletunnel.mp4=1.000=0=1=1=StretchRewind====,
144.000=flash=1.600=0=0=1=====,
144.250=purpletriangletunnel.mp4=1.000=0=0=1=====,
176.000=flash=1.600=0=0=1=====,
176.250=purpletriangletunnel.mp4=1.000=0=0=1=====,
208.000=electricwave.mp4=1.000=0=1=1=StretchRewind==CrossFade_Fastest==,
236.000=spinonthebridgebg.png=1.000=1=0=1===CrossFade==,
240.000=flash=1.600=0=0=1=====,
240.250=geometricworld.mp4=1.000=0=0=1=====,
272.000=flash=1.600=0=0=1=====,
272.250=purpletriangletunnel.mp4=1.000=0=0=1=====,
304.000=flash=1.600=0=0=1=====,
304.250=spinonthebridgebg.png=1.000=1=0=1===CrossFade==,
99999=-nosongbg-=1.000=0=0=0 // don't automatically add -songbackground-
;
#KEYSOUNDS:;
#ATTACKS:;

//---------------dance-single - C. Picardy----------------
#NOTES:
     dance-single:
     :
     Beginner:
     1:
     0.100653,0.153872,0.080985,0.000000,0.000000,87.000000,77.000000,10.000000,0.000000,0.000000,0.000000,0.100653,0.153872,0.080985,0.000000,0.000000,87.000000,77.000000,10.000000,0.000000,0.000000,0.000000:
0000
0000
0000
0000
,
0000
0000
0000
0000
,
0000
0000
0000
0000
,
0000
0000
0000
0000
,
1000
0000
0000
0000
,
0001
0000
0000
0000
,
1000
0000
0000
0000
,
0001
0000
0000
0000
,
0100
0000
0000
0000
,
0010
0000
0000
0000
,
0100
0000
0000
0000
,
0010
0000
0000
0000
,
1001
0000
0000
0000
,
0100
0000
0000
0000
,
0010
0000
0000
0000
,
0100
0000
0000
0000
,
1001
0000
0000
0000
,
0001
0000
0000
0000
,
1000
0000
0000
0000
,
0001
0000
0000
0000
,
0010
0000
0000
0000
,
0000
0000
0000
0000
,
0100
0000
0000
0000
,
0000
0000
0000
0000
,
1000
0000
0000
0000
,
0000
0000
0000
0000
,
0001
0000
0000
0000
,
0000
0000
0000
0000
,
1001
0000
0000
0000
,
0010
0000
0000
0000
,
0100
0000
0000
0000
,
0010
0000
0000
0000
,
1000
0000
0000
0000
,
0100
0000
0000
0000
,
0010
0000
0000
0000
,
0001
0000
0000
0000
,
1001
0000
0000
0000
,
0100
0000
0000
0000
,
1001
0000
0000
0000
,
0010
0000
0000
0000
,
0110
0000
0000
0000
,
1000
0000
0000
0000
,
0110
0000
0000
0000
,
0001
0000
0000
0000
,
1000
0000
0000
0000
,
0010
0000
0000
0000
,
0001
0000
0000
0000
,
0100
0000
0000
0000
,
1000
0000
0000
0000
,
0100
0000
0000
0000
,
0001
0000
0000
0000
,
0010
0000
0000
0000
,
1000
0000
1000
0000
,
1000
0000
0000
0000
,
0001
0000
0001
0000
,
0001
0000
0000
0000
,
0100
0000
0100
0000
,
0100
0000
0000
0000
,
0010
0000
0010
0000
,
0010
0000
0000
0000
,
1001
0000
0000
0000
,
1000
0000
0000
0000
,
0001
0000
0000
0000
,
0100
0000
0000
0000
,
0010
0000
0000
0000
,
1000
0000
0000
0000
,
0001
0000
0000
0000
,
0100
0000
0000
0000
,
1001
0000
0000
0000
,
0001
0000
0001
0000
,
0001
0000
0000
0000
,
1000
0000
1000
0000
,
1000
0000
0000
0000
,
0100
0000
0100
0000
,
0100
0000
0000
0000
,
0010
0000
0010
0000
,
1001
0000
0000
0000
;

//---------------dance-single - C. Picardy----------------
#NOTES:
     dance-single:
     :
     Challenge:
     11:
     0.891997,0.899799,0.186266,0.202464,1.595413,771.000000,748.000000,23.000000,25.000000,40.000000,0.000000,0.891997,0.899799,0.186266,0.202464,1.595413,771.000000,748.000000,23.000000,25.000000,40.000000,0.000000:
0000
0000
0000
0000
,
0000
0000
0000
0000
,
0000
0000
0000
0000
,
0000
0000
0000
0000
,
1000
0000
0100
1000
0100
1000
0000
0001
0000
0100
0000
0100
0010
0100
0000
0001
,
0100
0000
0001
0010
0001
0010
0000
0100
0000
0010
0000
0100
1000
0100
0000
1000
,
0100
0000
1000
0001
1000
0001
0000
0100
0000
0010
0000
1000
0010
1000
0000
0001
,
0010
0000
0100
0010
0100
0010
0000
0001
0000
0100
0000
0001
1000
0001
0000
0100
,
0010
0000
1000
0001
0100
0010
0000
1000
0000
0001
0000
1000
0100
0010
0000
0100
,
1000
0000
0001
0100
0010
1000
0000
0010
0000
0100
0000
0001
0010
0100
0000
0010
,
0001
0000
0100
0010
1000
0001
0000
1000
0000
0100
0000
0010
0100
1000
0000
0001
,
0100
0000
0010
1000
0100
0010
0000
0001
0000
1000
0000
0010
0100
0001
0000
1000
,
0100
0000
1000
0010
0000
0010
0000
0010
0000
0100
0000
0100
0010
1000
0000
1000
,
0001
0000
0100
0001
0100
0001
0000
0010
0000
0100
0000
0010
0001
1000
0000
0010
,
0100
0000
0100
0001
0000
0001
0000
0001
0000
0010
0000
0010
0100
0010
0000
0100
,
1000
0000
0100
0010
0100
0010
0000
0001
0000
1000
0000
0010
1000
0100
0000
0010
,
0001
0000
1000
0010
0000
0100
0000
0010
0000
1000
0000
0001
0100
0010
0000
1000
,
0100
0000
0010
0100
1000
0001
0000
1000
0000
0100
0000
0010
0001
0100
0000
0001
,
0010
0000
0100
1000
0000
0001
0000
0100
0000
0010
0000
1000
0001
0100
0000
0100
,
0010
0000
0010
1000
0001
1000
0000
0100
0000
0100
0000
0010
0001
0010
0001
0010
,
0001
0000
M000
0000
0M00
0000
00M0
1000
000M
0100
0000
0010
0001
0010
0000
0100
,
1000
000M
0000
00M0
0000
0M00
0000
M001
0000
0100
0000
0010
1000
0001
0000
0010
,
0100
0000
M000
0000
00M0
0000
0M00
1000
000M
0010
0000
0100
0001
1000
0000
0010
,
0100
0000
000M
0000
00M0
0000
0M00
0001
M000
0010
0000
M100
0010
0001
M000
0100
,
0010
M000
0000
0M00
0000
00M0
0000
100M
0000
0100
0000
0001
0100
1000
0000
0001
,
0010
M000
0000
0M00
0000
00M0
0000
010M
0000
0001
0000
0100
0010
1000
0000
0010
,
0002
0000
0000
0100
0000
1000
0000
0100
0000
0100
0000
0000
0010
0000
0000
0000
,
2003
0000
0000
0100
0000
0100
0000
0010
0000
0001
0000
0000
3100
0000
0000
0000
,
1000
0100
1000
0100
0000
1000
0000
0001
1000
0001
0000
0100
0010
0100
0010
0100
,
0010
1000
0010
0000
1000
0000
0001
0010
0001
0010
0001
0010
0001
1000
0000
0001
,
0100
0001
0100
0001
0000
1000
0000
0100
1000
0100
0000
0010
0100
0010
0100
0010
,
0100
1000
0100
0000
1000
0000
0010
1000
0010
1000
0010
1000
0010
0100
0000
0001
,
0010
0001
1000
0001
0000
1000
0000
0010
1000
0001
0000
1000
0010
1000
0001
1000
,
0100
0010
0100
0000
1000
0000
0001
0100
0001
0100
0010
1000
0010
1000
0000
0010
,
0100
0010
1000
0010
0000
0100
0000
0001
0010
0100
0000
1000
0100
0010
0001
0010
,
0001
1000
0001
0000
0100
0000
0010
0100
0010
0100
0001
1000
0001
1000
0000
0010
,
1000
0001
0100
0010
0000
1000
0000
0001
0100
0010
0000
1000
0001
0100
0010
1000
,
0100
0010
0001
0000
1000
0000
0001
0100
0010
0100
0001
0100
0010
1000
0000
0001
,
0010
0100
1000
0001
0000
1000
0000
0001
0100
0010
0000
1000
0100
0010
0100
1000
,
0100
0010
0001
0000
0100
0000
0001
0010
0100
1000
0001
0100
0010
1000
0000
0100
,
0010
1000
0010
0100
0000
0001
0000
0100
0010
0001
0000
1000
0100
0010
0100
0001
,
0100
1000
0010
0000
0100
0000
0001
0100
1000
0100
0010
1000
0100
0010
0000
0001
,
0010
1000
0010
0001
0000
0100
0000
1000
0100
0010
0000
1000
0010
0100
0010
0001
,
0010
1000
0100
0000
0001
0000
0100
0010
0001
0100
1000
0100
0010
1000
0100
0010
,
0110
0000
0100
0000
1000
0000
0010
0000
0100
0001
0000
0001
0010
0000
0100
0000
,
1100
0000
1000
0000
0010
0000
0100
0000
0001
0010
0001
0010
0001
0000
00MM
0000
,
0101
0000
0100
0000
0010
0000
1000
0000
0100
1000
0000
1000
0010
0000
0100
0000
,
0110
0000
0010
0000
1000
0000
0001
0000
1000
0100
1000
0100
1000
0000
MM01
0000
,
0101
0000
1000
0000
0010
0000
0100
0000
0001
0010
0000
0010
0100
0000
0010
0000
,
0011
0000
1000
0000
0010
0000
0100
0000
0010
1000
0100
0010
0001
0000
00MM
0000
,
1100
0000
1000
0000
0001
0000
0100
0000
0010
1000
0000
1000
0001
0000
0100
0000
,
1001
0000
0100
0000
0010
1000
0001
0000
1000
0100
0010
0001
0010
0100
1000
0000
,
0022
0000
0000
0000
0000
0000
0000
0000
0000
0000
0000
0000
0000
0000
0000
0000
0000
0000
0000
0000
0000
0000
0000
0000
0000
0000
0000
0000
0000
0000
0000
0000
0000
0000
0000
0000
0033
0000
0000
0000
0000
0000
0000
0000
0000
0000
0000
0000
0202
0000
0000
0000
0000
0000
0000
0000
0000
0000
0000
0000
0000
0000
0000
0000
0000
0000
0000
0000
0000
0000
0000
0000
0000
0000
0000
0000
0000
0000
0000
0000
0000
0000
0300
0000
0103
0000
0000
0000
0000
0000
0000
0000
0000
0000
0000
0000
0010
0000
0000
0000
0000
0000
0000
0000
0000
0000
0000
0000
0000
0000
0000
0000
0000
0000
0000
0000
0000
0000
0000
0000
1000
0000
0000
0000
0000
0000
0000
0000
0000
0000
0000
0000
0000
0000
0000
0000
0000
0000
0000
0000
0000
0000
0000
0000
1100
0000
0000
0000
0000
0000
0000
0000
0000
0000
0000
0000
0000
0000
0000
0000
0000
0000
0000
0000
0000
0000
0000
0000
0010
0000
0000
0000
0000
0000
0000
0000
0000
0000
0000
0000
0000
0000
0000
0000
0000
0000
0000
0000
0000
0000
0000
0000
,
0220
0000
0000
0000
0000
0000
0000
0000
0000
0000
0000
0000
0330
0000
0000
0000
2200
0000
0000
0000
0000
0000
0000
0000
0000
0000
0000
0300
3100
0000
0000
0000
0010
0000
0000
0000
0000
0000
0000
0000
0001
0000
0000
0000
0000
0000
0000
0000
0011
0000
0000
0000
0000
0000
0000
0000
1000
0000
0000
0000
0000
0000
0000
0000
,
2020
0000
0000
0000
0000
0000
0000
0000
0000
0000
0000
0000
0000
0000
0000
0000
0000
0000
0000
0000
0000
0000
0000
0000
0000
0000
0000
0000
0000
0000
0000
0000
0000
0000
0000
0000
3030
0000
0000
0000
0000
0000
0000
0000
0000
0000
0000
0000
0220
0000
0000
0000
0000
0000
0000
0000
0000
0000
0000
0000
0000
0000
0000
0000
0000
0000
0000
0000
0000
0000
0000
0000
0000
0000
0000
0000
0000
0000
0000
0000
0000
0000
0030
0000
0310
0000
0000
0000
0000
0000
0000
0000
0000
0000
0000
0000
1000
0000
0000
0000
0000
0000
0000
0000
0000
0000
0000
0000
0000
0000
0000
0000
0000
0000
0000
0000
0000
0000
0000
0000
0001
0000
0000
0000
0000
0000
0000
0000
0000
0000
0000
0000
0000
0000
0000
0000
0000
0000
0000
0000
0000
0000
0000
0000
1001
0000
0000
0000
0000
0000
0000
0000
0000
0000
0000
0000
0000
0000
0000
0000
0000
0000
0000
0000
0000
0000
0000
0000
0100
0000
0000
0000
0000
0000
0000
0000
0000
0000
0000
0000
0000
0000
0000
0000
0000
0000
0000
0000
0000
0000
0000
0000
,
0220
0000
0000
0000
0000
0000
0000
0000
0000
0000
0000
0000
0000
0000
0000
0000
0000
0000
0000
0000
0000
0000
0000
0000
0000
0000
0000
0000
0000
0000
0000
0000
0000
0000
0000
0000
0330
0000
0000
0000
0000
0000
0000
0000
0000
0000
0000
0000
2002
0000
0000
0000
0000
0000
0000
0000
0000
0000
0000
0000
0000
0000
0000
0000
0000
0000
0000
0000
0000
0000
0000
0000
0000
0000
0000
0000
0000
0000
0000
0000
0000
0000
3003
0000
0100
0000
0000
0000
0000
0000
0000
0000
0000
0000
0000
0000
0010
0000
0000
0000
0000
0000
0000
0000
0000
0000
0000
0000
0000
0000
0000
0000
0000
0000
0000
0000
0000
0000
0000
0000
0100
0000
0000
0000
0000
0000
0000
0000
0000
0000
0000
0000
0000
0000
0000
0000
0000
0000
0000
0000
0000
0000
0000
0000
2002
0000
0000
0000
0000
0000
0000
0000
0000
0000
0000
0000
0000
0000
0000
0000
0000
0000
0000
0000
0000
0000
0000
0000
0000
0000
0000
0000
0000
0000
0000
0000
0000
0000
0000
0000
3003
0000
0000
0000
0000
0000
0000
0000
0000
0000
0000
0000
,
0201
0000
0000
0000
0010
0000
0300
0100
0001
0010
0100
0000
1000
0000
0100
0000
,
0012
0000
0000
0000
1000
0000
0003
0100
0001
0100
0010
0000
1000
0000
0100
0000
,
1200
0000
0000
0000
0001
0000
0300
1000
0100
0010
0001
0000
0100
0000
0010
0000
,
0100
0010
0100
0010
0000
1000
0MM0
0001
1000
0001
0MM0
1000
0001
1000
0MM1
0000
,
1000
0000
0100
0000
0010
0001
0010
0001
0000
0001
1000
0000
0010
0000
0100
0000
,
0010
1000
0010
1000
0000
0001
0000
1000
0000
0100
0010
0100
0000
0010
0000
0010
,
0100
0000
0100
0000
1000
0001
1000
0001
0000
0001
0100
0000
0010
0000
1000
0000
,
0100
1000
0100
1000
0000
0010
0000
0100
0000
0001
0100
0001
0000
0001
0000
0010
,
0100
0000
0100
0000
1000
0100
0010
0001
0000
0001
0100
0000
0010
0000
1000
0000
,
0010
0100
0010
1000
0000
0001
0000
0010
0000
0100
1000
0010
0000
0010
0000
0100
,
0010
0000
1000
0000
0001
1000
0100
0010
0000
0010
0100
0000
1000
0000
0001
0000
,
0100
0010
1000
0001
0000
0010
0000
0100
0000
1000
0001
0100
0010
1000
0001
0100
,
0010
0000
1000
0000
0001
0100
1000
0100
0000
0010
1000
0000
0100
0000
0001
0000
,
0100
0010
0001
0100
0000
1000
0000
1000
0000
0100
0010
1000
0000
0001
0000
0100
,
0010
0000
0001
0000
0010
0100
0010
0100
0000
0001
0010
0000
0100
0000
0001
0000
,
0100
1000
0100
0010
0000
0100
0000
1000
0000
0100
0010
1000
0000
0010
0000
0001
,
0100
0000
1000
0000
0100
0010
1000
0100
0000
0100
0010
0000
1000
0000
0010
0000
,
0001
0010
0100
1000
0000
0100
0000
0001
0000
0100
0010
0001
0000
0100
0000
1000
,
0100
0000
0010
0000
1000
0001
0100
0010
0000
1000
0100
0000
0001
0000
0100
0000
,
0010
0001
0100
0010
0000
1000
0000
0001
0000
1000
0001
0100
0010
1000
0001
0200
,
0020
0000
0000
0000
0330
0MM0
0000
0000
;

//---------------dance-single - C. Picardy----------------
#NOTES:
     dance-single:
     :
     Easy:
     4:
     0.279978,0.372938,0.218661,0.259153,0.000000,242.000000,215.000000,27.000000,32.000000,0.000000,0.000000,0.279978,0.372938,0.218661,0.259153,0.000000,242.000000,215.000000,27.000000,32.000000,0.000000,0.000000:
0000
0000
0000
0000
,
0000
0000
0000
0000
,
0000
0000
0000
0000
,
0000
0000
0000
0000
,
1000
0000
0001
0000
,
0100
0100
0010
1000
,
0001
0000
0010
0000
,
0100
0100
1000
0100
,
0010
0000
0100
0000
,
1000
0001
0100
0100
,
0010
0000
1000
0000
,
0001
1000
0100
0010
,
1001
0100
0100
0000
,
0001
0000
1000
0100
,
0010
0010
0010
0000
,
0001
0000
1000
0001
,
0100
0100
0100
0000
,
0010
0000
1000
0001
,
1000
1000
1000
0000
,
0010
0000
0100
0001
,
2001
0000
0000
3000
,
0200
0000
0000
0300
,
0020
0000
0000
0030
,
0002
0000
0000
0003
,
2000
0000
0000
0000
,
3020
0000
0000
0000
,
0230
0000
0000
0000
,
0302
0000
0000
0000
,
1003
0010
1000
0100
,
0220
0330
2002
3003
,
0001
0100
0001
0010
,
2002
3003
0220
0330
,
1000
0001
0100
0010
,
2020
3030
0022
0033
,
1000
0010
0100
0010
,
0202
0303
2200
3300
,
0001
1000
0100
0010
,
0002
0000
0010
0010
,
0103
0010
1000
0100
,
2000
0000
0100
0100
,
3010
0100
0001
1000
,
0020
0000
1000
0100
,
1030
0001
0010
0100
,
0020
0000
0001
0100
,
0031
0000
1000
0100
,
0001
0000
0001
0100
,
1000
0000
0010
1000
,
0100
0000
0010
0001
,
1001
0000
0100
0010
,
1001
0000
0001
1000
,
0110
0000
1000
0001
,
0110
0000
1000
0100
,
1001
1000
0001
1000
,
0010
0100
0010
0100
,
0001
0010
0001
0010
,
0100
1000
0100
1000
,
0011
0100
0010
1000
,
0101
0010
1000
0100
,
0110
0100
1000
0010
,
2002
0000
0000
3003
,
1000
0001
0100
0000
,
0010
1000
0001
0100
,
0010
0000
1001
0000
,
0100
0001
0010
0100
,
1000
0000
0011
0000
,
0100
0010
1000
0001
,
0010
0000
1100
0000
,
0001
0010
0100
1000
,
0010
0100
1001
0000
,
0100
0010
1000
0001
,
0100
0100
1001
0000
,
0010
1000
0100
0010
,
0001
0100
1010
0000
,
0001
1000
0010
0100
,
0001
1000
0110
0000
,
1000
0001
0100
0010
,
2002
0000
0000
3003
;

//---------------dance-single - C. Picardy----------------
#NOTES:
     dance-single:
     :
     Hard:
     9:
     0.590037,0.615489,0.186266,0.194365,0.757214,510.000000,487.000000,23.000000,24.000000,10.000000,0.000000,0.590037,0.615489,0.186266,0.194365,0.757214,510.000000,487.000000,23.000000,24.000000,10.000000,0.000000:
0000
0000
0000
0000
,
0000
0000
0000
0000
,
0000
0000
0000
0000
,
0000
0000
0000
0000
,
0001
0000
0000
1000
0000
0100
0000
0010
0000
0000
0000
0100
1000
0000
0000
0000
,
0001
0000
0000
0100
0000
0010
0000
0100
0000
0000
0000
0001
0010
0000
0000
0000
,
0100
0000
0000
0010
0000
0100
0000
1000
0000
0000
0000
0100
0010
0000
0000
0000
,
0001
0000
0000
1000
0000
0010
0000
0100
0000
0000
0000
0010
1000
0000
0000
0000
,
1001
0000
0000
1000
0000
0001
0000
0100
0000
0000
0000
0010
0100
0000
0000
0000
,
0010
0000
0000
1000
0000
0100
0000
0010
0000
0000
0000
0001
0010
0000
0000
0000
,
0110
0000
0000
0100
0000
0010
0000
0001
0000
0000
0000
0100
0010
0000
0000
0000
,
1000
0000
0000
0001
0000
0100
0000
1000
0000
0000
0000
0100
0001
0000
0000
0000
,
1010
0000
1000
0010
0000
1000
0000
0010
0000
0000
0000
0100
0010
0000
0000
0000
,
0100
0000
0001
0100
0000
0001
0000
0100
0000
0001
0000
0010
0100
0000
0000
0000
,
1000
0000
0100
1000
0000
0100
0000
1000
0000
0000
0000
0001
0100
0000
0000
0000
,
0001
0000
0010
0001
0000
1000
0000
0001
0000
0100
0000
0001
1000
0000
0000
0000
,
0110
0000
0100
0010
0000
0010
0000
0010
0000
1000
0000
0001
0100
0000
0000
0000
,
0011
0000
0010
0100
0000
0010
0000
0001
0000
0010
0000
0100
1000
0000
0000
0000
,
1001
0000
0100
0001
0000
0001
0000
0001
0000
1000
0000
0001
0100
0000
0000
0000
,
1001
0000
0100
0010
0000
1000
0000
0001
0000
0100
0000
0010
1000
0000
0100
0000
,
0020
0000
0000
0000
0000
0000
0M00
0001
0000
0000
0000
0000
0100
0000
0000
0000
,
0032
0000
0000
0000
0000
0000
00M0
1000
0000
0000
0000
0000
0100
0000
0000
0000
,
0023
0000
0000
0000
0000
0000
000M
0100
0000
0000
0000
0000
1000
0000
0000
0000
,
0230
0000
0000
0000
0000
0000
M000
0001
0000
0000
0000
0000
1000
0000
0000
0000
,
0320
0000
0000
0100
0000
0100
M000
0100
0000
0000
0000
0000
0001
0000
0000
0000
,
0230
0000
0000
1000
0000
1000
00M0
1000
0000
0000
0000
0000
0010
0000
0000
0000
,
2300
0000
0000
0100
0000
0100
00M0
0100
0000
0000
0000
0000
0010
0000
0000
0000
,
3002
0000
0000
0010
0000
0010
0M00
0010
0000
0000
0000
0000
1003
0000
M00M
0000
,
0010
0000
0000
0100
0000
0001
0000
1000
0000
0100
0000
0000
1000
0000
0100
0000
,
0010
0100
1000
0000
0010
0000
0101
0000
,
1000
0000
0000
0001
0000
0100
0000
0010
0000
1000
0000
0000
0001
0000
0010
0000
,
0100
0010
0001
0000
1000
0000
1100
0000
,
0010
0000
0000
0100
0000
0001
0000
0010
0000
0100
0000
0000
0010
0000
0100
0000
,
1000
0001
0100
0000
0001
0000
1010
0000
,
0100
0000
0000
0001
0000
1000
0000
0100
0000
1000
0000
0000
0010
0000
0100
0000
,
0001
0100
0010
0000
0100
0000
1001
0000
,
0010
0000
0000
0001
0000
0010
0000
0100
0000
1000
0000
0000
0001
0000
0100
0000
,
0010
0100
0001
0010
0100
1000
1010
0000
,
0001
0000
0000
1000
0000
0100
0000
0001
0000
0100
0000
0000
1000
0000
0100
0000
,
0010
0100
1000
0010
0100
0001
0011
0000
,
1000
0001
0000
0100
0000
0010
0000
1000
0000
0001
0000
0000
0010
0000
0100
0000
,
1000
0001
0100
0010
1000
0001
0101
0000
,
1000
0100
0000
0001
0000
0100
0000
1000
0000
0001
0000
0000
0100
0000
0001
0000
,
0010
0100
1000
0100
0001
0100
0110
0000
,
1000
0000
1000
0000
0010
0000
0000
0000
0100
0001
0000
0001
0100
0000
0000
0000
,
0010
0000
0010
0000
0100
0000
0000
0000
0001
1000
0000
1000
0001
0000
0000
0000
,
0010
0000
0010
0000
0100
0000
0000
0000
1000
0100
0000
0100
1000
0000
0000
0000
,
0100
0000
0100
0000
0010
0000
0000
0000
0001
0100
0000
0100
0010
0000
0000
0000
,
1000
0000
0100
0000
0010
0000
0001
0000
0000
1000
0000
0100
1000
0000
0000
0000
,
0001
0000
0001
0000
0100
0000
0010
0000
1000
0100
0000
0000
1001
0000
0000
0000
,
0100
0000
0100
0000
0001
0000
1000
0000
0000
0010
0000
0100
0001
0000
0000
0000
,
1000
0000
1000
0000
0100
0000
0100
0000
0010
0001
0000
0000
0110
0000
0000
0000
,
2000
0000
0000
0000
3200
0000
0000
1300
0100
0000
0010
0000
0001
0000
0010
0000
,
0200
0000
0000
0000
0320
0000
0000
0031
0010
0000
0001
0000
0100
0000
0010
0000
,
2000
0000
0000
0000
3002
0000
0000
0103
1000
0000
0100
0000
0001
0000
0010
0000
,
0200
0000
0000
0000
0320
0000
0000
0130
1000
0000
0001
0000
0100
0000
0000
0000
,
2001
0000
0000
0000
3200
0000
0000
0301
0100
0000
1000
0000
0010
0000
0001
0000
,
0020
0000
0000
0030
1020
0000
0000
0130
0001
0000
0010
0000
1000
0000
0010
0000
,
0002
0000
0000
0003
2100
0000
0000
3010
0100
0000
0001
0000
0010
0000
0000
0000
,
2002
0000
0000
3003
,
1000
0000
0100
0000
0010
0000
0100
1000
0000
0000
0100
0000
0010
0000
0001
0000
,
0010
0100
0000
1000
0000
0001
0000
0100
0000
0010
0100
0000
0010
0000
0000
0000
,
1000
0000
0001
0000
0100
0000
0001
1000
0000
0000
0010
0000
0100
0000
0001
0000
,
0100
0010
0000
1000
0000
0001
0000
1000
0000
0010
1000
0000
0100
0000
0000
0000
,
0010
0000
0001
0000
0100
0000
0001
0010
0000
0000
0100
0000
0010
0000
0001
0000
,
1000
0000
0100
0010
0000
0100
0000
1000
0000
0001
0100
0000
0001
0000
0000
0000
,
1000
0000
0001
0000
0100
0000
0001
1000
0000
0000
0010
0000
1000
0000
0100
0000
,
0010
0000
0001
0010
0000
0100
0000
0010
0000
0100
1000
0000
1001
0000
0000
0000
,
0001
0000
0100
0000
0010
0000
0010
1000
0000
0100
1000
0000
0010
0000
0100
0000
,
0001
0000
0001
1000
0000
1000
0000
1000
0000
0100
0010
0000
0100
0000
0000
0000
,
0010
0000
0010
0000
0001
0000
0001
0100
0000
0001
0010
0000
0100
0000
1000
0000
,
0010
0000
0100
0001
0000
0001
0000
0001
0000
1000
0100
0000
1000
0000
0000
0000
,
0010
0000
0010
0000
0100
0000
0100
0010
0000
1000
0001
0000
1000
0000
0100
0000
,
0010
0000
0100
0010
0000
0010
0000
0010
0000
0001
1000
0000
0010
0000
0000
0000
,
0100
0000
0100
0000
0001
0000
0001
0010
0000
0010
0100
0000
1000
0000
0001
0000
,
0100
0000
0010
0100
0000
0100
0000
0100
0000
0010
1000
0000
0001
0000
0100
0000
,
1001
0000
0000
0000
;

//---------------dance-single - C. Picardy----------------
#NOTES:
     dance-single:
     :
     Medium:
     6:
     0.395672,0.430842,0.137675,0.170069,0.000000,342.000000,325.000000,17.000000,21.000000,0.000000,0.000000,0.395672,0.430842,0.137675,0.170069,0.000000,342.000000,325.000000,17.000000,21.000000,0.000000,0.000000:
// measure 0
0000
0000
0000
0000
,  // measure 1
0000
0000
0000
0000
,  // measure 2
0000
0000
0000
0000
,  // measure 3
0000
0000
0000
0000
,  // measure 4
1001
0100
0010
1000
,  // measure 5
0100
0000
1000
0000
0010
0000
1000
0100
,  // measure 6
0001
0100
1000
0010
,  // measure 7
0100
0000
0001
0000
0010
0000
0100
0010
,  // measure 8
0001
0100
1000
0100
,  // measure 9
0010
0000
1000
0000
0100
0000
0010
0100
,  // measure 10
1000
0001
0100
0010
,  // measure 11
1000
0000
0001
0000
0100
0010
0100
0000
,  // measure 12
1001
0000
0100
0100
0100
0000
0010
0000
,  // measure 13
1000
0000
0001
0000
0010
0100
1000
0000
,  // measure 14
0001
0000
1000
1000
1000
0000
0010
0000
,  // measure 15
0100
0000
0001
0000
1000
0100
0010
0000
,  // measure 16
1100
0000
0010
0010
0010
0000
0100
0000
,  // measure 17
0001
0000
1000
0000
0001
0100
1000
0000
,  // measure 18
0110
0000
0001
0001
0001
0000
1000
0000
,  // measure 19
0100
0000
0010
0000
0001
0010
0100
1000
,  // measure 20
0002
0000
0203
0000
,  // measure 21
0302
0000
2003
0000
,  // measure 22
3200
0000
2300
0000
,  // measure 23
3020
0000
0230
0000
,  // measure 24
0302
0000
0203
0000
,  // measure 25
2300
0000
3200
0000
,  // measure 26
0302
0000
0023
0000
,  // measure 27
0230
0000
2300
0000
,  // measure 28
3001
0100
0010
1000
,  // measure 29
0001
0100
1000
0000
1000
0100
0001
0000
,  // measure 30
1000
0100
0010
0100
,  // measure 31
1000
0100
0001
0000
0001
0100
1000
0000
,  // measure 32
0010
0100
0001
0010
,  // measure 33
0100
0010
0001
0000
0001
0010
0100
0000
,  // measure 34
1000
0010
0100
0010
,  // measure 35
1000
0100
0010
0000
0010
0100
1000
0000
,  // measure 36
1001
0100
0010
1000
,  // measure 37
0010
1000
0100
0000
0010
0001
0100
0000
,  // measure 38
1001
0100
0010
1000
,  // measure 39
0001
0100
0010
0000
1000
0100
0010
0000
,  // measure 40
0110
0001
1000
0010
,  // measure 41
1000
0010
0100
0000
0001
0010
0100
0000
,  // measure 42
0011
1000
0010
0100
,  // measure 43
0010
0100
0001
0000
0010
0100
1000
0000
,  // measure 44
0110
0001
1000
0010
,  // measure 45
0100
0000
0001
0000
1000
1000
1000
0000
,  // measure 46
0010
0100
0001
1000
,  // measure 47
0100
0000
0010
0000
0001
0001
0001
0000
,  // measure 48
1100
0010
0100
0001
,  // measure 49
1000
0000
0010
0000
0100
0100
0100
0000
,  // measure 50
0001
0100
1000
0100
,  // measure 51
0001
0000
1000
0000
0010
0010
0010
0000
,  // measure 52
2001
0000
0010
0000
0100
0000
3001
0100
,  // measure 53
0020
0000
1000
0000
0100
0000
1030
0100
,  // measure 54
0020
0000
0001
0000
1000
0000
0130
0010
,  // measure 55
0002
0000
0100
0000
1000
1000
1003
0000
,  // measure 56
0101
0000
0010
0000
1000
0100
0010
0000
,  // measure 57
1100
0000
0010
0000
0100
0001
0010
0000
,  // measure 58
1100
0000
0010
0000
0100
0001
0010
0000
,  // measure 59
0200
0000
0000
0300
,  // measure 60
1000
0100
0010
0100
,  // measure 61
1000
0000
0010
0000
0100
0000
0001
0001
,  // measure 62
0010
0100
0010
0001
,  // measure 63
1000
0000
0010
0000
0100
0000
0010
0010
,  // measure 64
1000
0000
0001
0000
0100
0000
0010
1000
,  // measure 65
0001
0000
0010
0000
0100
0000
0010
0010
,  // measure 66
0001
0000
1000
0000
0010
0000
0100
0001
,  // measure 67
1000
0000
0010
0000
1000
1000
0100
0100
,  // measure 68
0010
0000
0001
0000
0100
0010
1000
0000
,  // measure 69
0100
0000
0010
0000
0001
0001
1000
0000
,  // measure 70
0010
0000
0100
0001
1000
0000
0010
0000
,  // measure 71
1000
0000
0100
0000
1000
1000
0010
0000
,  // measure 72
0110
0000
0001
0000
1000
0100
0001
0000
,  // measure 73
0100
0000
1000
0000
0010
0010
0100
0000
,  // measure 74
1010
0000
0001
0000
0001
0100
1000
0000
,  // measure 75
0100
0000
0010
0000
1000
1000
0001
0000
,  // measure 76
0110
0000
0000
0000
;
