#TITLE:Solid Gold;
#SUBTITLE:;
#ARTIST:DUSTY;
#TITLETRANSLIT:;
#SUBTITLETRANSLIT:;
#ARTISTTRANSLIT:;
#GENRE:;
#CREDIT:;
#BANNER:solidgoldbn.png;
#BACKGROUND:solidgoldbg.png;
#LYRICSPATH:;
#CDTITLE:;
#MUSIC:solidgold.ogg;
#OFFSET:-0.127571;
#SAMPLESTART:45.649036;
#SAMPLELENGTH:12.000000;
#SELECTABLE:YES;
#BPMS:0.000000=158.080002
;
#STOPS:117.500000=0.765000,
213.000000=0.010000
;
#BGCHANGES:8.000=goldfragments.mp4=1.000=1=0=1=SongBgWithMovieViz==CrossFade==,
20.000=flash=1.600=0=0=1=====,
20.250=solidgoldbg.png=1.000=0=0=1=====,
24.000=goldensphere.mp4=1.000=0=0=0=StretchNoLoop==CrossFade_Fastest==,
56.000=orangestreak.mp4=1.000=0=0=0=StretchNoLoop==CrossFade_Fastest==,
88.000=goldfragments.mp4=1.000=0=0=0=StretchNoLoop==FadeCenterHorizontal==,
117.500=solidgoldbg.png=1.000=0=0=1===CrossFade_Fastest==,
118.000=flash=1.600=0=0=1=====,
118.250=orangestreak.mp4=1.000=0=0=0=StretchNoLoop====,
150.000=goldfragments.mp4=1.000=0=0=0=StretchNoLoop==CrossFade_Fastest==,
180.500=solidgoldbg.png=1.000=0=0=1=====,
182.000=flash=1.600=0=0=1=====,
182.250=goldensphere.mp4=1.000=0=0=0=StretchNoLoop====,
213.000=solidgoldbg.png=1.000=0=0=1=====,
214.000=flash=1.600=0=0=1=====,
214.250=goldensphere.mp4=1.000=0=0=1=====,
246.000=flash=1.800=0=0=1=====,
246.250=solidgoldbg.png=1.000=0=0=1=====,
99999=-nosongbg-=1.000=0=0=0 // don't automatically add -songbackground-
;
#KEYSOUNDS:;
#ATTACKS:;

//---------------dance-single - C. Picardy----------------
#NOTES:
     dance-single:
     :
     Beginner:
     1:
     0.107213,0.162518,0.063422,0.000000,0.000000,71.000000,65.000000,6.000000,0.000000,0.000000,0.000000,0.107213,0.162518,0.063422,0.000000,0.000000,71.000000,65.000000,6.000000,0.000000,0.000000,0.000000:
0000
0000
0000
0000
,
0000
0000
0000
0000
,
0000
0000
0000
0000
,
0000
0000
0000
0000
,
1001
0000
0000
0000
,
0000
0000
0000
0000
,
0010
0000
0000
0000
,
0100
0000
0000
0000
,
0001
0000
0000
0000
,
1000
0000
0000
0000
,
0010
0000
0000
0000
,
0100
0000
0000
0000
,
0001
0000
0000
0000
,
1000
0000
0000
0000
,
1001
0000
0000
0000
,
0100
0000
0000
0000
,
0100
0000
0000
0000
,
0010
0000
0000
0000
,
0010
0000
0000
0000
,
1000
0000
0000
0000
,
1000
0000
0000
0000
,
0001
0000
0000
0000
,
0001
0000
0000
0000
,
0100
0000
0000
0000
,
0010
0000
0000
0000
,
1000
0000
0000
0000
,
0100
0000
0000
0000
,
0100
0000
0000
0000
,
0010
0000
0000
0000
,
0010
0000
1001
0000
,
0000
0000
0010
0000
,
0000
0000
0100
0000
,
0000
0000
0001
0000
,
0000
0000
1000
0000
,
0000
0000
0100
0000
,
0000
0000
0010
0000
,
0000
0000
0001
0000
,
0000
0000
0110
0000
,
0000
0000
1000
0000
,
0000
0000
0001
0000
,
0000
0000
0100
0000
,
0000
0000
0010
0000
,
0000
0000
1000
0000
,
0000
0000
0010
0000
,
0000
0000
1001
0000
,
0000
0000
0100
0000
,
0000
0000
0010
0000
,
0000
0000
1000
0000
,
0000
0000
0001
0000
,
0000
0000
0100
0000
,
0000
0000
0100
0000
,
0000
0000
0010
0000
,
0000
0000
0010
0000
,
0000
0000
1000
0000
,
1000
0000
0001
0000
,
0001
0000
0100
0000
,
0100
0000
0010
0000
,
0010
0000
1000
0000
,
1000
0000
0001
0000
,
0001
0000
0100
0000
,
0100
0000
0010
0000
,
0000
0000
1001
0000
;

//---------------dance-single - C. Picardy----------------
#NOTES:
     dance-single:
     :
     Easy:
     4:
     0.327678,0.455050,0.306538,0.105703,0.000000,217.000000,188.000000,29.000000,10.000000,0.000000,0.000000,0.327678,0.455050,0.306538,0.105703,0.000000,217.000000,188.000000,29.000000,10.000000,0.000000,0.000000:
0000
0000
0000
0000
,
0000
0000
0000
0000
,
1000
0000
0100
0000
,
1000
0000
0010
0000
,
0100
0000
0001
0000
,
1000
0000
0000
0000
,
0002
0000
0103
0010
,
0200
0000
0310
1000
,
0020
0030
2000
3000
,
0001
0010
0100
1000
,
0010
0100
1001
0000
,
0100
0010
1001
0000
,
0110
0000
1001
0000
,
0100
0100
0100
0000
,
0010
1000
0010
0000
,
0100
0001
0100
0000
,
0001
0001
0001
0000
,
1000
0100
0010
0001
,
1001
0000
0100
0000
,
0010
0000
0110
0000
,
1000
1000
0001
0001
,
0010
0010
0100
1000
,
0001
0000
0100
0100
,
0001
0000
1000
0100
,
0010
0100
1000
0010
,
0100
0001
1000
1000
,
0010
0000
1001
0000
,
0100
0000
0110
0000
,
1010
0101
0011
1100
,
0110
0000
1001
0000
,
0100
0010
0001
0000
,
1001
1001
0100
0010
,
0100
0010
1000
0001
,
1000
0001
0110
0000
,
1000
0010
0001
0010
,
1000
0100
0110
0000
,
1001
0000
0001
0010
,
0100
1000
0110
0000
,
0100
0001
1000
0001
,
0110
0110
0100
0010
,
1000
0100
0010
0010
,
0001
0001
1001
0000
,
0100
0010
1000
0100
,
0010
0010
0002
0003
,
2000
3000
0010
0010
,
0010
0000
0200
0000
,
0310
1000
0002
0000
,
0013
0100
1001
0000
,
0110
0000
1000
0001
,
0100
0010
2000
0000
,
3100
0010
0002
0000
,
0013
0100
1000
0000
,
0001
0001
1000
1000
,
0000
0110
1000
0001
,
1000
0001
0010
0100
,
0010
0100
1000
0100
,
1000
0100
0001
0100
,
1000
0010
0001
0001
,
0010
0010
1000
1000
,
0001
0001
0100
0110
,
1000
1001
0100
0010
,
0000
0010
1001
0000
;

//---------------dance-single - C. Picardy----------------
#NOTES:
     dance-single:
     :
     Medium:
     6:
     0.453011,0.487554,0.443951,0.095132,0.015855,300.000000,258.000000,42.000000,9.000000,0.000000,0.000000,0.453011,0.487554,0.443951,0.095132,0.015855,300.000000,258.000000,42.000000,9.000000,0.000000,0.000000:
0000
0000
0000
0000
,
0000
0000
0000
0000
,
1000
0100
1000
0010
,
0100
0001
0010
0001
,
0100
0000
0010
0000
1000
0000
0001
0001
,
0000
0000
0000
0000
,
1000
0000
0100
0010
0000
0010
0100
0000
,
0001
0000
0010
0100
0000
0100
0010
0000
,
0001
1000
0000
1000
0001
0000
1100
0000
,
0001
0010
0100
1000
,
0100
0000
0010
0001
0000
0001
0010
0000
,
0100
0000
1000
0100
0000
0100
1000
0000
,
0011
0100
0011
0100
,
0010
0000
0000
0010
0000
0000
0010
0000
0000
0000
0000
0000
2000
0000
0000
0000
,
3001
0100
0010
1000
,
0200
0000
0000
0310
0000
0001
0000
0000
,
1000
0000
1000
0100
0000
0000
0010
0000
,
0001
0000
0100
0000
0010
0000
1000
0001
,
0100
0010
1010
0100
,
0102
0000
0000
1003
0000
0000
0000
0000
,
0010
1000
0100
0010
,
0001
0000
0010
0000
0100
0010
0100
0010
,
0100
1000
0010
0100
,
0010
1000
0100
0010
,
0001
0100
0001
0010
,
0100
0000
1000
0000
0010
0010
1000
0000
,
0002
0000
0010
0000
1000
0000
0013
0010
,
0200
0010
1000
0310
,
0011
0101
1010
1100
,
0000
1001
0000
1001
0100
0000
1000
0000
,
0010
0000
1000
0000
0100
0010
0100
0000
,
1001
0000
0110
0000
1000
0100
0010
0000
,
0001
0000
0010
0000
0100
1000
0010
0000
,
0101
1010
0100
0001
,
0010
0100
0011
0100
,
1010
0000
1100
0000
0110
0000
0000
0022
,
0000
0033
0000
0010
0001
0100
0000
0010
,
0000
1000
0000
0000
0100
0000
0010
0000
,
0001
0000
0100
0000
0010
1000
0100
0000
,
0110
0000
1001
0000
0001
0100
0010
0000
,
1000
0000
0100
0000
0010
0001
0100
0000
,
0011
1100
0010
0001
,
0100
0010
1000
0001
,
0100
0000
0010
0000
1010
0000
0000
2002
,
0000
3003
0000
0100
0010
0100
0000
0110
,
0000
1001
0000
0000
1000
0000
0100
0000
,
0010
0001
0100
0000
0010
0000
1000
0000
,
0100
0010
0001
0000
1000
0000
1000
0000
,
0001
0001
0110
1001
,
1000
0001
1000
0001
1000
0000
0010
0000
,
0100
1000
0010
0000
0100
0000
0001
0000
,
0010
1000
0100
0000
0010
0010
0000
0001
,
0001
0000
0000
0000
0100
0000
0000
0000
0001
0000
0000
0001
0000
0000
0001
0000
,
0000
0000
1001
0000
1000
0100
1000
0000
,
0100
0000
0110
0000
0001
0010
0001
0000
,
0100
0110
1000
0101
,
0010
0101
0010
0100
,
1100
0000
0011
0000
1000
0100
0001
0000
,
0100
0000
1010
0000
0001
0100
1000
0000
,
0100
0011
0100
0010
,
0110
0000
0000
0000
1001
0000
0000
0000
0100
0000
0000
0010
0000
0000
0100
0000
,
0000
0010
1001
0000
;

//---------------dance-single - C. Picardy----------------
#NOTES:
     dance-single:
     :
     Hard:
     8:
     0.625156,0.617568,0.539084,0.190265,0.158554,414.000000,363.000000,51.000000,18.000000,0.000000,0.000000,0.625156,0.617568,0.539084,0.190265,0.158554,414.000000,363.000000,51.000000,18.000000,0.000000,0.000000:
// measure 0
0000
0000
0000
0000
,  // measure 1
0000
0000
0000
0000
,  // measure 2
1000
0100
0010
0000
0001
0000
0100
0000
,  // measure 3
0010
1000
0100
0000
0011
0000
0101
0000
,  // measure 4
2002
0000
3003
2200
0000
3300
0000
0001
,  // measure 5
0010
0000
0000
0000
,  // measure 6
1000
0100
0010
0001
0000
1000
1001
0000
,  // measure 7
0001
0100
0010
1000
0000
0010
0110
0000
,  // measure 8
1000
0010
1000
0000
0000
0000
0001
0100
0001
0000
0000
0000
1001
0000
0000
0000
,  // measure 9
1000
0100
0010
0001
0010
0100
1000
0100
,  // measure 10
0010
0000
0100
0000
1000
0000
0100
0010
0000
0000
0001
0000
0010
0100
0000
0000
,  // measure 11
0010
0000
0001
0000
0010
0000
0100
1000
0000
0000
0001
0000
1000
0100
0000
0000
,  // measure 12
0010
0001
0010
0000
0000
0000
0001
1000
0001
0000
0000
0000
0010
0100
0000
0000
,  // measure 13
0011
0000
0000
0101
0000
0000
1010
0000
0000
0000
0000
0000
2002
0000
0000
3003
,  // measure 14
1000
0100
0001
0100
1000
0000
1100
0000
,  // measure 15
0010
0000
0010
0200
0000
0010
0310
0000
,  // measure 16
0001
0010
0100
0010
0001
0000
1000
0100
,  // measure 17
0010
0000
0000
0000
1100
0000
0000
0000
0001
0000
1000
0000
0100
0000
1000
0100
,  // measure 18
0010
0001
0011
0100
,  // measure 19
0101
0000
0010
1000
0100
0010
0001
0000
,  // measure 20
1100
0000
0001
0101
0000
0100
0000
0110
,  // measure 21
0000
2010
0000
0000
3100
0100
0010
0001
,  // measure 22
0010
0000
0001
0000
1000
0100
0001
0000
,  // measure 23
0100
0000
1000
0000
0010
0001
0010
0000
,  // measure 24
1000
0000
0001
0000
0100
1000
0100
0000
,  // measure 25
0010
0000
1000
0000
0100
0010
0001
0100
,  // measure 26
0010
0000
1000
0000
0100
0010
0001
1000
,  // measure 27
1000
0000
0100
0000
0010
0100
1000
0000
,  // measure 28
0100
0010
0001
0010
0100
1000
0100
0010
,  // measure 29
0001
0100
0000
1001
0001
0100
1000
0100
,  // measure 30
0001
0100
1000
0100
0010
0000
1000
0000
,  // measure 31
1100
0000
0011
0000
1000
0100
0001
0100
,  // measure 32
1000
0100
0001
0100
0010
0100
1000
0000
,  // measure 33
0101
0000
1010
0000
1000
0010
0100
0010
,  // measure 34
1000
0010
0100
0010
1000
0000
0100
0000
,  // measure 35
0011
0000
1000
0000
0022
0000
0033
2200
,  // measure 36
0000
3300
0000
0010
0001
1000
0001
1000
,  // measure 37
0100
0010
0100
0010
0001
0100
0010
1000
,  // measure 38
0100
0010
0001
0100
0010
0000
1000
0000
,  // measure 39
0110
0000
1001
0000
1000
0100
0001
0100
,  // measure 40
1000
0100
0001
0100
1000
0100
0010
0001
,  // measure 41
0011
0000
1100
0000
0001
0100
0010
0100
,  // measure 42
0001
0100
0010
0100
0001
0100
0010
1000
,  // measure 43
0100
0000
1010
0000
0202
0000
0303
2020
,  // measure 44
0000
3030
0000
0001
0100
0010
1000
1001
,  // measure 45
0000
2002
0000
3003
0001
0100
0010
1000
,  // measure 46
0000
0100
1100
0000
0010
0100
1000
0001
,  // measure 47
0000
0000
0100
0000
0101
0000
0000
0000
0100
0010
0100
0000
0000
0000
0010
1000
,  // measure 48
0010
0000
1001
0000
0001
0010
0100
1000
,  // measure 49
0010
0100
0010
0100
0001
1000
0100
0010
,  // measure 50
0000
0001
1001
0000
0100
0010
1000
0001
,  // measure 51
0000
0000
1000
0000
1100
0000
0000
0000
0100
0010
0100
0000
0000
0000
0010
0001
,  // measure 52
0010
0000
0000
0000
0100
0000
0000
0000
1010
0000
0000
1001
0000
0000
0101
0000
,  // measure 53
0000
0000
0000
0000
0110
0000
0000
0000
0001
0000
0010
0000
0100
0000
1000
0100
,  // measure 54
0000
0000
0010
0000
0001
0010
0000
0000
0100
0000
0010
0000
0001
0000
0010
0100
,  // measure 55
0000
0000
1000
0000
0100
0010
0000
0000
0001
1000
0001
0000
0000
0000
0100
0001
,  // measure 56
0100
0000
0110
0000
1000
0100
0010
0001
,  // measure 57
0100
0000
0010
0000
1000
0000
0001
0000
0010
0000
0100
0000
1000
0000
0100
0010
,  // measure 58
0000
0000
0100
0000
0100
1000
0000
0000
1000
0000
0100
0000
0010
0000
0010
0001
,  // measure 59
0000
0000
0100
0000
0001
0010
0000
0000
0100
0010
0100
0000
0000
0000
1000
0001
,  // measure 60
1000
0000
0000
0000
0100
0010
0000
0000
0011
0000
0000
0101
0000
0000
1100
0000
,  // measure 61
0000
0110
1001
0000
;

//---------------dance-single - C. Picardy----------------
#NOTES:
     dance-single:
     :
     Challenge:
     11:
     0.976995,0.975107,0.591935,0.221976,0.882617,647.000000,591.000000,56.000000,21.000000,24.000000,0.000000,0.976995,0.975107,0.591935,0.221976,0.882617,647.000000,591.000000,56.000000,21.000000,24.000000,0.000000:
0000
0000
0000
0000
,
0000
0000
0000
0000
,
1000
0100
1000
0100
0010
0001
0010
0001
,
1000
0001
0100
0010
1010
0100
0101
1000
,
1001
0100
0010
1010
1000
0001
0100
0110
,
0000
0000
MMMM
M000
M0MM
M00M
MMMM
0000
,
1000
0001
1000
0001
0100
0010
0100
0010
0000
0000
1000
0000
0100
0010
0000
0000
,
0001
0010
0001
0010
0001
0100
0001
0100
0000
0000
0010
0000
1000
0001
0000
0000
,
1000
0100
0010
0000
0000
0000
0001
0010
0100
0000
1000
0100
0010
0001
0000
0000
,
0010
0100
0010
0100
1000
0100
1000
0100
0010
0001
0010
0001
1000
0001
1000
0001
,
1000
0001
0100
0010
1000
0100
0010
0001
0000
0000
0010
0000
0100
1000
0000
0000
,
0100
0010
0001
1000
0010
0100
0001
1000
0000
0000
0100
0000
0010
0001
0000
0000
,
0010
0100
1000
0000
0000
0000
0001
0100
0010
0000
1000
0001
0100
0010
0000
0000
,
1000
0100
0010
0011
0000
1000
1100
0000
0000
0000
0000
0000
0220
0000
0000
0330
,
0001
0100
0010
0000
1000
0000
0001
0000
0100
0010
1000
0000
0100
0000
0010
0000
,
0012
0100
0103
2010
0100
3200
1000
1300
,
0001
0100
0010
0000
1000
0000
1000
0001
0100
0000
0010
0000
1000
0000
0100
0000
,
0010
0000
0010
0000
0001
0000
0001
0000
1000
0000
0100
0000
0001
0000
0100
1000
,
0001
0100
0010
1000
0002
0013
0020
0130
,
0021
0001
0130
0201
0010
0310
1000
0001
,
1000
0100
1000
0000
0001
0000
0100
0010
1000
0000
0100
0000
0010
0000
0001
0000
,
0010
0000
0010
0000
0100
0000
0100
0000
1000
0010
0100
0001
1000
0010
0100
0001
,
1000
0100
0011
0100
0010
1000
0001
0100
,
1010
0100
0010
0001
0101
0010
1001
1000
,
1100
0001
0100
0010
1000
0001
0100
0010
,
0101
1000
0010
0100
1001
1000
1100
0001
,
0101
1000
0010
0100
0010
1000
0100
0110
,
1100
0001
0100
0010
1000
0100
0010
0011
,
1000
0001
1000
0001
0100
0001
0100
0001
1000
0010
1000
0010
1000
0100
0010
0000
,
1100
0000
1010
0000
0000
0000
2002
3003
M11M
0000
1000
0000
0001
0000
0010
0100
,
1000
0000
0100
0000
0010
0000
0001
0100
0010
0000
1000
0000
0001
0000
1001
0000
,
1000
0001
1MM0
0000
0001
1000
0MM1
0000
1001
0000
0100
0000
0010
0000
0001
0000
,
0100
0000
0010
0000
1000
0000
0001
0000
0010
0001
0010
0001
1000
0001
1000
0001
,
0100
0000
0110
0000
1000
0000
1010
0000
0001
0000
0100
0000
0010
0000
1000
0100
,
0010
0000
0001
0000
1000
0000
0100
1000
0001
0000
0100
0010
1000
0000
0100
0000
,
0120
0000
0100
0030
0012
0000
0010
0003
1002
0000
1000
0000
0103
0000
2100
0000
,
0010
0000
0001
0000
3001
0000
1000
0000
0010
0100
0010
0100
0001
1000
0001
1000
,
0100
0010
0100
0010
0001
0010
0001
0010
0001
0000
1000
0000
0100
0000
0010
0100
,
1000
0000
0100
0000
0010
0000
0001
0100
0010
0000
1000
0000
0001
0000
1100
0000
,
1000
0100
10MM
0000
0100
1000
01MM
0000
0011
0000
1000
0000
0100
0000
0010
0000
,
0001
0000
1000
0000
0010
0000
1010
0000
0100
0010
0100
0010
1000
0010
1000
0010
,
0100
0001
0100
0001
0010
0001
0010
0000
1001
0000
0100
0000
0001
0000
0100
0000
,
0110
0000
1000
0000
0001
0000
0100
0000
0010
1000
0001
0000
0010
0001
1000
0000
,
0011
1000
0101
0100
1020
1000
0130
0201
,
0010
0010
0301
1000
1100
0100
0110
0011
,
0000
0000
1001
0000
0000
0000
0000
0000
1000
0001
0100
0001
1000
0010
1000
0100
,
0000
0000
0010
0000
0001
1000
0000
0000
0010
0100
0001
0100
0010
1000
0100
0010
,
0000
0000
0001
0000
0100
0010
0000
0000
1000
0001
0100
0000
0000
0000
0010
1000
,
0001
0000
0010
0001
1000
0100
0000
0000
1000
0100
1000
0100
0010
0001
0010
0001
,
1000
0001
0100
0010
1000
0001
0100
0010
1000
0100
0010
0001
0010
0100
1000
0001
,
0000
0000
1000
0000
0100
0010
0000
0000
0001
0010
0100
1000
0100
0010
0001
1000
,
0000
0000
0010
0000
0100
0001
0000
0000
1000
0100
0010
0000
0000
0000
0001
0100
,
0010
0000
1000
0100
0010
0001
0000
0000
0100
0010
1000
1010
0000
0001
0101
0000
,
0000
0000
0000
0000
2002
0000
0000
3003
0001
0100
0010
1000
0010
0100
0001
0100
,
0010
0000
1000
0000
0001
0100
0000
0000
0010
1000
0100
0010
0001
0100
0010
1000
,
0100
0000
0010
0000
0001
1000
0000
0000
0010
0100
0010
0000
1000
0000
0001
0100
,
0001
0000
1000
0100
0010
0001
0000
0000
1000
0100
0010
0100
0001
0100
0010
0100
,
1000
0010
0100
0010
0001
0010
1000
0100
0010
0001
0010
0100
1000
0100
0010
0001
,
1000
0000
0010
0000
0100
0001
0000
0000
1000
0001
0100
0010
1000
0100
0010
0001
,
0100
0000
0010
0000
1000
0100
0000
0000
0010
0100
1000
0000
0001
0000
0100
0010
,
1000
0000
0100
0010
0001
1000
0000
0000
0001
0010
0100
1100
1000
0001
0101
0000
,
0000
0000
0000
0000
0022
0000
0000
0033
1100
0000
0000
0000
0000
0000
0000
0000
;
