#TITLE:So Wie ein Wunder;
#SUBTITLE:;
#ARTIST:Blümchen;
#TITLETRANSLIT:;
#SUBTITLETRANSLIT:;
#ARTISTTRANSLIT:;
#GENRE:;
#CREDIT:;
#BANNER:sowieenwunderbn.png;
#BACKGROUND:sowieenwunderbg.png;
#LYRICSPATH:;
#CDTITLE:;
#MUSIC:sowieeinwunder.ogg;
#OFFSET:-0.233110;
#SAMPLESTART:68.229347;
#SAMPLELENGTH:12.000000;
#SELECTABLE:YES;
#BPMS:0.000000=141.009995
;
#STOPS:
;
#BGCHANGES:32.000=blueflarevoid.mp4=1.000=1=0=1=SongBgWithMovieViz==CrossFade==,
64.000=bluebars.mp4=1.000=1=0=0=StretchNoLoop==CrossFade==,
96.000=flash=1.600=0=0=1=====,
96.250=blueflarevoid.mp4=1.000=0=0=0=StretchNoLoop====,
127.000=bluebars.mp4=1.000=0=0=1=SongBgWithMovieViz==CrossFade_Fastest==,
128.000=flash=1.600=0=0=1=====,
128.250=blueflarevoid.mp4=1.000=0=0=0=StretchNoLoop====,
136.000=flash=1.600=0=0=1=====,
136.250=blueflarevoid.mp4=1.000=0=0=1=====,
144.000=flash=1.600=0=0=1=====,
144.250=blueflarevoid.mp4=1.000=0=0=1=====,
152.000=flash=1.600=0=0=1=====,
152.250=blueflarevoid.mp4=1.000=0=0=1=====,
158.000=blueflarevoid.mp4=1.000=0=0=1=SongBgWithMovieViz==CrossFade_Faster==,
160.000=flash=1.600=0=0=1=====,
160.250=worldofwonder.mp4=1.000=0=0=0=StretchNoLoop====,
220.000=worldofwonder.mp4=1.000=1=0=1=SongBgWithMovieViz==CrossFade==,
224.000=flash=1.600=0=0=1=====,
224.250=bluebars.mp4=1.000=0=0=0=StretchNoLoop====,
256.000=blueflarevoid.mp4=1.000=0=0=0=StretchNoLoop==CrossFade_Fastest==,
272.000=flash=1.600=0=0=1=====,
272.250=blueflarevoid.mp4=1.000=0=0=1=====,
288.000=flash=1.600=0=0=1=====,
288.250=blueflarevoid.mp4=1.000=0=0=1=SongBgWithMovieViz====,
291.000=sowieenwunderbg.png=1.000=0=0=1===CrossFade_Fastest==,
99999=-nosongbg-=1.000=0=0=0 // don't automatically add -songbackground-
;
#KEYSOUNDS:;
#ATTACKS:;

//---------------dance-single - C. Picardy----------------
#NOTES:
     dance-single:
     :
     Beginner:
     1:
     0.091713,0.144448,0.048149,0.000000,0.000000,80.000000,74.000000,6.000000,0.000000,0.000000,0.000000,0.091713,0.144448,0.048149,0.000000,0.000000,80.000000,74.000000,6.000000,0.000000,0.000000,0.000000:
0000
0000
0000
0000
,
0000
0000
0000
0000
,
0000
0000
0000
0000
,
0000
0000
0000
0000
,
1001
0000
0000
0000
,
0000
0000
0000
0000
,
0000
0000
0000
0000
,
0000
0000
0000
0000
,
1001
0000
0000
0000
,
0100
0000
0000
0000
,
0100
0000
0000
0000
,
0000
0000
0000
0000
,
1001
0000
0000
0000
,
0010
0000
0000
0000
,
0010
0000
0000
0000
,
0000
0000
0000
0000
,
0100
0000
0100
0000
,
0000
0000
0000
0000
,
0010
0000
0010
0000
,
0000
0000
0000
0000
,
1000
0000
1000
0000
,
0000
0000
0000
0000
,
0001
0000
0001
0000
,
0000
0000
0000
0000
,
1000
0000
1000
0000
,
1000
0000
0000
0000
,
0001
0000
0001
0000
,
0001
0000
0000
0000
,
0100
0000
0100
0000
,
0100
0000
0000
0000
,
0010
0000
0010
0000
,
0010
0000
0000
0000
,
1001
0000
0000
0000
,
0100
0000
0000
0000
,
0010
0000
0000
0000
,
0100
0000
0000
0000
,
0010
0000
0000
0000
,
1000
0000
0000
0000
,
0001
0000
0000
0000
,
1000
0000
0000
0000
,
1001
0000
0000
0000
,
0100
0000
0000
0000
,
0010
0000
0000
0000
,
0100
0000
0000
0000
,
0001
0000
0000
0000
,
1000
0000
0000
0000
,
0001
0000
0000
0000
,
1000
0000
0000
0000
,
0110
0000
0000
0000
,
0010
0000
0000
0000
,
0100
0000
0000
0000
,
0001
0000
0000
0000
,
1000
0000
0000
0000
,
1000
0000
0000
0000
,
0001
0000
0000
0000
,
0001
0000
0000
0000
,
1000
0000
1000
0000
,
0001
0000
0001
0000
,
1000
0000
1000
0000
,
0001
0000
0000
0000
,
0100
0000
0100
0000
,
0010
0000
0010
0000
,
0100
0000
0100
0000
,
0010
0000
0000
0000
,
1000
0000
0000
0000
,
0001
0000
0000
0000
,
1000
0000
0000
0000
,
0001
0000
0000
0000
,
0100
0000
0000
0000
,
0010
0000
0000
0000
,
0100
0000
0000
0000
,
0010
0000
0000
0000
,
0100
0000
0000
0000
;

//---------------dance-single - C. Picardy----------------
#NOTES:
     dance-single:
     :
     Easy:
     3:
     0.198330,0.291906,0.096299,0.144448,0.000000,173.000000,161.000000,12.000000,18.000000,0.000000,0.000000,0.198330,0.291906,0.096299,0.144448,0.000000,173.000000,161.000000,12.000000,18.000000,0.000000,0.000000:
0000
0000
0000
0000
,
0000
0000
0000
0000
,
0000
0000
0000
0000
,
0000
0000
0000
0010
,
2002
0000
0000
0000
,
3003
0000
0000
0000
,
0100
0000
0000
0000
,
0010
0000
0000
1000
,
0110
0000
1000
0000
,
1000
0000
0001
0000
,
0001
0000
1000
0000
,
1000
0000
0001
0000
,
1001
0000
0100
0000
,
0100
0000
0010
0000
,
0020
0000
0000
0030
,
0200
0000
0000
0300
,
0001
0000
0001
0000
,
0001
0000
0000
0000
,
1000
0000
1000
0000
,
1000
0000
0000
0000
,
0010
0000
0010
0000
,
0010
0000
0000
0000
,
0100
0000
0100
0000
,
0100
0000
0000
0000
,
1001
0000
0100
0000
,
0010
0000
1000
0000
,
0001
0000
0100
0000
,
0010
0000
1000
0000
,
0100
0100
0100
0000
,
0010
0010
0010
0000
,
1000
1000
0001
0000
,
0001
1000
0001
1000
,
0220
0330
0100
0100
,
0010
0010
1000
0001
,
2002
3003
0010
0010
,
0001
0001
1000
0100
,
0220
0330
0001
0001
,
1000
1000
0010
0100
,
2002
3003
0010
0100
,
0010
1000
0001
1000
,
2002
0000
0000
3003
,
0100
0000
0010
0000
,
1000
0000
0001
0000
,
0100
0000
0010
0000
,
0220
0000
0000
0330
,
1000
0000
0001
0000
,
0100
0000
0010
0000
,
1000
0000
0001
0000
,
1001
1000
1000
0000
,
0001
0001
0001
0000
,
0100
0100
0100
0000
,
0010
0010
0010
0000
,
1001
1000
0001
0000
,
0100
0010
0100
0000
,
0002
0000
1003
0000
,
0010
0000
0100
0000
,
0001
0001
0001
0000
,
1000
1000
1000
0000
,
0010
0010
0010
0000
,
0100
0000
0100
0000
,
0010
0010
1000
0000
,
0001
0001
0010
0000
,
0100
0100
1000
0000
,
0001
0000
0100
0000
,
0010
0100
0010
0000
,
1000
0001
1000
0000
,
0100
0010
0100
0000
,
0001
0000
0100
0000
,
0010
1000
0001
0000
,
0100
0001
1000
0000
,
0010
1000
0100
0000
,
0010
0000
0001
0000
,
0020
0000
0000
0030
;

//---------------dance-single - C. Picardy----------------
#NOTES:
     dance-single:
     :
     Medium:
     5:
     0.332461,0.350287,0.176548,0.120374,0.004012,290.000000,268.000000,22.000000,15.000000,0.000000,0.000000,0.332461,0.350287,0.176548,0.120374,0.004012,290.000000,268.000000,22.000000,15.000000,0.000000,0.000000:
0000
0000
0000
0000
,
0000
0000
0000
0000
,
0000
0000
0000
0000
,
0000
0000
0000
1000
,
0202
0000
0000
0303
,
1000
0000
0010
0000
,
0100
0100
0001
0000
,
1000
0100
1000
0010
,
0100
0100
0000
0000
0001
0000
0000
0000
,
1000
1000
0000
0000
0010
0000
0000
0000
,
0001
0001
0000
0000
1000
0000
0000
0000
,
1000
1000
0000
0000
0010
0000
0000
0000
,
0110
0100
0100
0000
,
0001
0001
0000
0000
1000
0000
0100
0000
,
1000
1000
0000
0000
0001
0000
0000
0001
,
0000
1000
0100
0010
0000
0010
0000
0000
,
1001
0001
1000
0000
,
0100
0100
0010
0000
,
0001
1000
0010
0000
,
0100
0100
0010
0000
,
1000
0001
0100
0000
,
0010
1000
0100
0000
,
2002
3003
1000
1000
,
0001
0100
0010
1000
,
1001
1000
0001
1000
,
0100
0010
0100
0010
,
0001
1000
0001
0100
,
0001
0010
0001
1000
,
0110
1000
0001
0100
,
0010
1000
0010
0001
,
0010
1000
0100
0010
,
0001
0100
0010
1000
,
0220
0330
0001
0001
,
1000
0000
0100
0000
0010
0001
0010
0000
,
2002
3003
0100
0100
,
1000
0000
0010
0000
0100
0001
0100
0000
,
2020
3030
0001
1000
,
0100
0000
1000
0000
0010
1000
0001
0000
,
0220
0330
0100
1000
,
0001
0000
0100
0000
0100
0010
0100
0000
,
1001
0000
0100
0000
0010
0000
1000
0100
,
0010
0001
1000
0010
,
0100
0100
0001
1000
,
0100
0100
0010
0101
,
1001
0000
0010
0000
0001
0000
0100
0001
,
0010
0000
1000
0000
0001
0000
1000
0001
,
0100
0010
1000
1000
,
0001
1000
0100
0010
,
1001
0000
0001
0000
1000
0100
1000
0100
,
0000
0000
0010
0000
0001
0010
0001
0010
,
0000
0100
1000
0001
,
0100
0010
1000
0001
,
1100
0000
0010
0000
1000
0001
1000
0001
,
0000
0000
0100
0000
0010
0100
0010
0200
,
0000
0010
0310
0000
,
0100
0010
1000
0001
,
0010
0100
0010
0000
1001
0000
0000
0000
,
0100
0010
0100
0000
1001
0000
0000
0000
,
1000
0001
1000
0000
0110
0000
0000
0000
,
0010
1000
0100
0010
,
0001
0100
0010
0000
0101
0000
0000
0000
,
1000
0100
0010
0000
1100
0000
0000
0000
,
0001
1000
0010
0000
1010
0000
0000
0000
,
0100
0001
1000
0110
,
1000
0001
1000
0000
0100
0000
0010
0000
,
0001
1000
0001
0000
0100
0000
0010
0000
,
0100
0010
0100
0000
0001
0000
1000
0000
,
0100
1000
0010
0100
,
0001
0100
1000
0000
0100
0000
0001
0000
,
1000
0100
0001
0000
0100
0000
1000
0000
,
0001
0010
1000
0000
0010
0000
0001
0000
,
0200
0000
0310
0000
,
0020
0000
0000
0000
0000
0000
0000
0100
0000
0000
0000
0000
0130
0000
0000
0000
;

//---------------dance-single - C. Picardy----------------
#NOTES:
     dance-single:
     :
     Challenge:
     9:
     0.606454,0.700575,0.176548,0.288897,0.429333,529.000000,507.000000,22.000000,36.000000,12.000000,0.000000,0.606454,0.700575,0.176548,0.288897,0.429333,529.000000,507.000000,22.000000,36.000000,12.000000,0.000000:
// measure 0
0000
0000
0000
0000
,  // measure 1
0000
0000
0000
0000
,  // measure 2
0000
0000
0000
0000
,  // measure 3
0000
0000
0000
0100
,  // measure 4
0022
0000
0000
0000
0033
1000
0100
0020
,  // measure 5
0000
0031
0000
1000
0000
0000
0010
0100
,  // measure 6
0002
0000
1003
0200
0000
0301
0100
2000
,  // measure 7
0000
3020
0000
0230
0000
0001
0301
0000
,  // measure 8
1100
0000
0010
0000
0100
1000
0010
1000
,  // measure 9
0000
0000
0001
0000
1000
0010
0010
0100
,  // measure 10
0001
0001
0000
0001
0010
0100
0000
2000
,  // measure 11
0000
0000
0001
0001
0000
3100
0000
0000
,  // measure 12
0101
0000
0010
0000
1000
0001
0100
0010
,  // measure 13
0010
0000
1000
0000
0100
1000
0001
0002
,  // measure 14
1000
1000
0000
0100
0000
0013
0000
1000
,  // measure 15
0000
0001
0100
0010
0000
1001
0000
0000
,  // measure 16
1000
0000
0001
0000
1000
0000
0000
0100
0000
0100
0000
1000
0000
0000
0001
0000
,  // measure 17
0010
0000
0010
0000
0001
0000
0000
1000
0000
1000
0000
0001
0000
0000
1000
0000
,  // measure 18
0001
0000
0100
0000
0010
0000
0000
1000
0000
0100
0000
0010
0000
0000
0001
0000
,  // measure 19
1000
0000
1000
0000
0010
0000
0000
0100
0000
0001
0000
0001
0000
0000
1000
0000
,  // measure 20
0010
0000
0010
0000
1000
0000
0000
0001
0000
0001
0000
0010
0000
0000
0100
0000
,  // measure 21
1000
0000
1000
0000
0001
0000
0000
0100
0000
0100
0000
0010
0000
0000
1000
0000
,  // measure 22
MM02
0000
0000
0000
0013
0000
0000
0000
0100
0000
1000
0000
0100
0010
0000
0100
,  // measure 23
0010
0000
0001
0000
0100
0000
0000
0010
1000
0000
0001
0000
0100
0000
0010
0000
,  // measure 24
1001
0000
1000
0000
0100
0010
0000
0100
0000
1000
0000
0001
0000
1000
0001
0100
,  // measure 25
0001
0000
0001
0000
1000
0010
0000
0100
0000
0010
0000
1000
0000
0010
1000
0001
,  // measure 26
1000
0000
0010
0000
0100
0001
0000
1000
0000
0100
0000
0010
0000
0100
1000
0100
,  // measure 27
0010
0000
0010
0000
0001
0100
0000
0010
0000
1000
0000
0001
0000
1000
0100
1000
,  // measure 28
0001
0000
0010
0000
0100
1000
0000
0100
0000
0010
0000
0001
0000
0010
0100
1000
,  // measure 29
0001
0000
0001
0000
0010
0100
0000
1000
0000
0001
0000
0100
0000
0010
1000
0001
,  // measure 30
0100
0000
0010
0000
1000
0001
0000
1000
0000
0010
0000
0100
0000
0001
0010
0100
,  // measure 31
1000
0000
0001
0000
1000
0100
0000
0010
0000
0001
0000
0100
0000
0000
0000
0000
,  // measure 32
2MM2
0000
0000
3003
1100
0000
0000
0000
0001
0000
0001
0000
0010
0100
0000
1000
,  // measure 33
0100
0000
0010
0000
0100
0000
0000
1000
0001
0000
0100
0000
0010
0000
0100
0000
,  // measure 34
2MM2
0000
0000
3003
0110
0000
0000
0000
1000
0000
0001
0000
0100
0010
0000
1000
,  // measure 35
0001
0000
0100
0000
0010
0000
0000
1000
0100
0000
0010
0000
0100
0000
1000
0000
,  // measure 36
M2M2
0000
0000
0303
1010
0000
0000
0000
0001
0000
0001
0000
1000
0010
0000
0100
,  // measure 37
0001
0000
0100
0000
0010
0000
0000
1000
0001
0000
1000
0000
0010
0000
0100
0000
,  // measure 38
2M2M
0000
0000
0000
3M3M
0000
0000
0001
1000
0001
1000
0001
1000
0000
0100
0000
,  // measure 39
0010
0001
0010
0001
0010
0000
0100
0000
1000
0001
1000
0001
0100
0001
0100
0001
,  // measure 40
2000
0000
3010
0000
0001
0010
0100
1000
,  // measure 41
0001
0000
0100
0000
0010
0000
0100
0000
0001
0100
0001
0000
0100
0001
0100
0000
,  // measure 42
0020
0000
1030
0100
1000
0100
0010
0001
,  // measure 43
0010
0000
0001
0000
0100
0000
0001
0000
0100
0001
1000
0000
0010
0000
0000
0000
,  // measure 44
0201
0000
0310
0000
0001
0010
0100
1000
,  // measure 45
0100
0000
0010
0000
0100
0000
1000
0000
0100
1000
0100
0000
1000
0100
1000
0000
,  // measure 46
0020
0000
0130
0001
0010
0001
1000
0010
,  // measure 47
0100
0000
0001
0000
0010
0000
0100
0000
0010
0100
0010
0100
0010
0100
0010
0100
,  // measure 48
0010
0000
0002
0000
1003
1000
0010
0100
,  // measure 49
0010
0010
2000
0000
3001
0100
0010
1000
,  // measure 50
0100
0100
0010
0001
0001
0010
0000
0200
,  // measure 51
0000
0000
1000
1300
0000
0010
0001
0100
,  // measure 52
1001
0001
0100
0000
0010
1000
0100
0010
,  // measure 53
0001
0001
2000
0000
3010
0100
0001
2000
,  // measure 54
0010
0000
0100
0000
0001
0000
3001
1000
,  // measure 55
0000
0000
0010
0000
0100
0000
0001
0000
0000
0000
0110
0000
0000
0000
1000
0001
,  // measure 56
1000
0000
0100
0000
0010
0000
0010
0000
0001
0000
0000
0000
1000
0000
0010
0100
,  // measure 57
0010
0000
1000
0000
0001
0000
0001
0000
0100
0000
0000
0000
0010
0000
1000
0100
,  // measure 58
1000
0001
0100
0100
0010
0000
1000
0001
,  // measure 59
0000
0000
0100
0000
0010
0000
0100
0000
0000
0000
0001
0000
0001
0000
1000
0100
,  // measure 60
1000
0000
0001
0000
0010
0000
0010
0000
0100
0000
0000
0000
1000
0000
0001
0010
,  // measure 61
0001
0000
0100
0000
1000
0000
0100
0000
0001
0000
0000
0000
1000
0000
0001
0010
,  // measure 62
0001
0010
1000
0010
0001
0000
0100
0010
,  // measure 63
0000
0000
1000
0000
0001
0000
1001
0000
0000
0000
0100
0000
0110
0000
0100
0001
,  // measure 64
1000
0000
0100
0000
0010
0000
0100
0000
1000
0000
1000
0000
0001
0000
0010
0100
,  // measure 65
1000
0000
0001
0000
1000
0000
0100
0000
0010
0000
0010
0000
0100
0000
1000
0001
,  // measure 66
0100
0010
1000
0001
0010
0000
0100
0100
,  // measure 67
0010
0000
0001
0000
0010
0000
0100
0000
0010
0000
0000
0000
0001
0000
1000
0010
,  // measure 68
0100
0000
0001
0000
1000
0000
0100
0000
0010
0000
0100
0000
1000
0000
0001
0100
,  // measure 69
0010
0000
0100
0000
0001
0000
0100
0000
0010
0000
1000
0000
0001
0000
0010
0100
,  // measure 70
1000
0001
1000
0100
0110
0010
0001
0100
,  // measure 71
2002
0000
0000
3003
2020
0000
0000
3030
0220
0000
0000
0330
0202
0000
0000
0303
,  // measure 72
0001
0000
1000
0000
0100
0000
1000
0010
0000
0000
0010
0000
1000
0000
0000
0000
;

//---------------dance-single - C. Picardy----------------
#NOTES:
     dance-single:
     :
     Hard:
     7:
     0.450541,0.525431,0.200623,0.144448,0.036112,393.000000,368.000000,25.000000,18.000000,0.000000,0.000000,0.450541,0.525431,0.200623,0.144448,0.036112,393.000000,368.000000,25.000000,18.000000,0.000000,0.000000:
0000
0000
0000
0000
,
0000
0000
0000
0000
,
0000
0000
0000
0000
,
0000
0000
0000
0001
,
2002
0000
0000
0000
3003
0001
0100
0010
,
0000
1000
0000
0001
0000
0000
1000
0100
,
1000
0000
0001
0010
0000
0100
0000
0010
,
0000
0001
0000
0100
0000
0010
0100
0000
,
1001
0000
1000
0000
0100
0100
0010
0001
,
0000
0000
0100
0000
0010
0010
1000
0001
,
0000
0000
0000
0010
0001
1000
0000
0200
,
0000
0000
0010
0310
0000
0001
0000
0000
,
0101
0100
0010
0000
1000
0001
0100
0010
,
0000
0000
1000
0000
0001
0010
0100
2000
,
0000
0000
0000
0000
0000
0000
0000
3001
,
0000
0100
0010
1000
0000
0001
0000
0000
,
1000
0000
1000
0000
0001
0000
0100
0010
,
1000
0001
0010
0000
,
0100
0000
0100
0000
1000
0000
0001
0010
,
0100
1000
0010
0000
,
0100
0000
0100
0000
0010
0000
1000
0001
,
0100
0010
1000
0000
,
2002
0000
0000
0000
3003
0000
0000
0000
0010
0000
0100
0000
0010
0000
0000
1000
,
0001
0000
0100
0000
0010
0000
0000
0100
0001
0000
0010
0000
0100
0000
0000
0000
,
1000
1100
0001
0101
,
1000
0001
0100
0010
1000
0100
0100
0000
,
0010
0011
1000
1010
,
0001
0010
0100
1000
0001
0001
0100
0000
,
0001
0110
1000
0101
,
0010
0001
0100
0001
1000
1000
0100
0000
,
0010
1100
0001
0110
,
1000
0100
0010
0000
0001
0100
0010
0000
,
2002
0000
0000
0000
3003
0000
0000
0000
0010
0000
0100
0000
0010
0000
0000
1000
,
0001
0000
0100
0000
0010
0000
0000
0100
0010
0000
1000
0000
0001
0000
0000
0000
,
0220
0000
0000
0000
0330
0000
0000
0000
0001
0000
1000
0000
0001
0000
0000
1000
,
0100
0000
0010
0000
0001
0000
0000
0010
0100
0000
1000
0000
0001
0000
0000
0000
,
2200
0000
0000
0000
3300
0000
0000
0000
0001
0000
0001
0000
0010
0000
0000
0100
,
0010
0000
0001
0000
0100
0000
0000
0100
0010
0000
1000
0000
0100
0000
0000
0000
,
0022
0000
0033
0000
1000
0100
0010
0001
,
0100
0010
1000
0100
0010
0010
0010
0000
,
0012
0000
1003
0000
0010
0100
0001
0000
,
1000
0000
1100
0000
0010
0100
0001
0000
,
1000
0001
0100
0010
,
1000
0000
0100
0000
0010
0100
1000
0000
,
0120
0000
1030
0000
0001
0100
1000
0000
,
1000
0000
0100
0000
0010
0000
1000
0100
,
0010
0001
0010
0100
,
0010
0001
0100
0000
0010
1000
0100
0000
,
1001
0000
0100
0000
0100
0010
0100
0001
,
1000
0000
0001
0000
0001
1000
0100
0010
,
0100
0000
0100
1000
0001
0010
0000
0200
,
0000
0000
1000
1300
0000
0001
1001
0000
,
0010
0010
0100
0000
0001
0100
0010
1000
,
0001
0000
1000
0000
0100
0010
0001
0020
,
0100
0000
0100
0000
0001
0000
0130
1000
,
0000
0001
0100
0010
0000
1001
0000
0001
,
0010
0010
0100
0010
0100
0000
0000
1000
,
0001
0001
0100
0010
0100
0000
0000
0010
,
1000
1000
0001
0100
0001
0000
1000
0100
,
0000
0000
0010
0001
0000
0000
0000
1000
,
0001
0001
1000
0100
0010
0000
0000
0100
,
1000
1000
0001
0010
0100
0000
0000
0010
,
0001
0001
1000
0100
0001
0000
0100
1000
,
0000
0000
0001
0010
0000
0000
0100
1000
,
0001
0100
0010
1000
0100
0000
0010
0100
,
1000
0001
0010
0100
1000
0000
0001
0100
,
0010
0100
0001
1000
0100
0000
0010
0100
,
0000
1000
0001
0100
0000
0010
0010
1000
,
0001
0010
0100
0010
0110
0000
0001
1000
,
0100
0100
1000
0010
1010
0000
0100
0001
,
0010
0010
0001
0100
0101
0000
0100
0010
,
0000
0010
1000
0001
0000
1000
1000
0000
,
0100
0000
1000
0000
0001
0000
0000
0100
0000
0000
0100
0000
0010
0000
0000
0000
;
