#TITLE:Silicon World;
#SUBTITLE:;
#ARTIST:Eiffel 65;
#TITLETRANSLIT:;
#SUBTITLETRANSLIT:;
#ARTISTTRANSLIT:;
#GENRE:;
#CREDIT:;
#BANNER:siliconworldbn.png;
#BACKGROUND:siliconworldbg.png;
#LYRICSPATH:;
#CDTITLE:;
#MUSIC:siliconworld.ogg;
#OFFSET:0.639531;
#SAMPLESTART:67.953163;
#SAMPLELENGTH:14.000008;
#SELECTABLE:YES;
#BPMS:0.000000=131.990005
;
#STOPS:
;
#BGCHANGES:20.000=galaxyvoid.mp4=1.000=1=0=1=SongBgWithMovieViz==CrossFade==,
24.000=flash=1.600=0=0=1=====,
24.250=galaxyvoid.mp4=1.000=0=0=1=====,
56.000=worldofwonder.mp4=1.000=0=0=0=StretchNoLoop==CrossFade_Fastest==,
84.000=worldofwonder.mp4=1.000=1=0=1=SongBgWithMovieViz==CrossFade==,
88.000=flash=1.600=0=0=1=====,
88.250=worldofwonder.mp4=1.000=0=0=1=====,
120.000=flash=1.600=0=0=1=====,
120.250=galaxyvoid.mp4=1.000=0=0=0=StretchNoLoop====,
148.000=siliconworldbg.png=1.000=0=0=1===FadeCenterHorizontal==,
152.000=brightearth.mp4=1.000=0=0=0=StretchNoLoop==CrossFade_Fastest==,
180.000=brightearth.mp4=1.000=1=0=1=SongBgWithMovieViz==CrossFade==,
184.000=flash=1.600=0=0=1=====,
184.250=brightearth.mp4=1.000=0=0=0=StretchNoLoop====,
212.000=brightearth.mp4=1.000=1=0=1=SongBgWithMovieViz==CrossFade==,
216.000=flash=1.600=0=0=1=====,
216.250=worldofwonder.mp4=1.000=0=0=0=StretchNoLoop====,
248.000=galaxyvoid.mp4=1.000=0=0=0=StretchNoLoop==CrossFade_Fastest==,
263.500=flash=1.800=0=0=1=====,
263.750=siliconworldbg.png=1.000=0=0=1=====,
99999=-nosongbg-=1.000=0=0=0 // don't automatically add -songbackground-
;
#KEYSOUNDS:;
#ATTACKS:;

//---------------dance-single - C. Picardy----------------
#NOTES:
     dance-single:
     :
     Beginner:
     1:
     0.089773,0.137989,0.041894,0.016758,0.000000,75.000000,70.000000,5.000000,2.000000,0.000000,0.000000,0.089773,0.137989,0.041894,0.016758,0.000000,75.000000,70.000000,5.000000,2.000000,0.000000,0.000000:
0000
0000
0000
0000
,
0000
0000
0000
0000
,
0000
0000
0000
0000
,
0000
0000
0000
0000
,
0000
0000
0000
0000
,
0000
0000
0000
0000
,
1000
0000
0000
0000
,
0001
0000
0000
0000
,
1000
0000
0000
0000
,
0001
0000
0000
0000
,
0100
0000
0000
0000
,
0010
0000
0000
0000
,
0100
0000
0000
0000
,
0010
0000
0000
0000
,
1000
0000
1000
0000
,
1000
0000
0000
0000
,
0010
0000
0000
0000
,
0100
0000
0000
0000
,
0001
0000
0001
0000
,
0001
0000
0000
0000
,
1000
0000
0000
0000
,
0200
0000
0000
0000
,
0300
0000
0000
0000
,
0010
0000
0000
0000
,
0001
0000
0000
0000
,
1000
0000
0000
0000
,
0100
0000
0000
0000
,
0010
0000
0000
0000
,
0001
0000
0000
0000
,
1000
0000
0000
0000
,
1001
0000
0000
0000
,
0100
0000
0000
0000
,
0010
0000
0000
0000
,
1000
0000
0000
0000
,
0001
0000
0000
0000
,
0001
0000
0000
0000
,
1000
0000
0000
0000
,
1000
0000
0000
0000
,
0010
0000
0010
0000
,
0010
0000
0000
0000
,
0100
0000
0100
0000
,
0100
0000
0000
0000
,
0001
0000
0001
0000
,
0001
0000
0000
0000
,
1000
0000
0000
0000
,
1001
0000
0000
0000
,
0100
0000
0100
0000
,
0100
0000
0000
0000
,
0010
0000
0010
0000
,
0010
0000
0000
0000
,
1000
0000
1000
0000
,
1000
0000
0000
0000
,
0001
0000
0000
0000
,
1001
0000
0000
0000
,
0100
0000
0010
0000
,
0100
0000
0000
0000
,
0001
0000
1000
0000
,
0001
0000
0000
0000
,
0010
0000
0100
0000
,
0010
0000
0000
0000
,
0110
0000
0000
0000
,
0110
0000
0000
0000
,
0001
0000
0000
0000
,
1000
0000
0000
0000
,
0100
0000
0000
0000
,
0020
0000
0000
0000
0000
0000
0000
0030
;

//---------------dance-single - C. Picardy----------------
#NOTES:
     dance-single:
     :
     Easy:
     3:
     0.210668,0.247909,0.050273,0.142441,0.000000,176.000000,170.000000,6.000000,17.000000,0.000000,0.000000,0.210668,0.247909,0.050273,0.142441,0.000000,176.000000,170.000000,6.000000,17.000000,0.000000,0.000000:
// measure 0
0000
0000
0000
0000
,  // measure 1
0000
0000
0000
0000
,  // measure 2
0000
0000
0000
0000
,  // measure 3
0000
0000
0000
0000
,  // measure 4
0000
0000
0000
0000
,  // measure 5
0000
0000
0000
0000
,  // measure 6
0010
0010
0000
0000
,  // measure 7
0100
0100
0000
0000
,  // measure 8
1000
1000
0000
0000
,  // measure 9
0001
0001
0000
0000
,  // measure 10
1000
0000
0010
0000
,  // measure 11
0100
0000
0010
0000
,  // measure 12
1000
0000
0001
0000
,  // measure 13
0100
0000
0010
0000
,  // measure 14
1001
1000
0100
0000
,  // measure 15
0010
0001
1000
0000
,  // measure 16
0010
0100
0001
0000
,  // measure 17
1000
0100
0010
0000
,  // measure 18
0001
0100
0010
0000
,  // measure 19
0100
0010
1000
0000
,  // measure 20
0010
0100
0001
0000
,  // measure 21
0200
0000
0000
0000
,  // measure 22
0310
0000
1000
0001
,  // measure 23
0100
0000
0010
1000
,  // measure 24
0001
0000
1000
1000
,  // measure 25
0010
0100
0000
0001
,  // measure 26
0010
0010
0100
1000
,  // measure 27
0000
0100
0010
0010
,  // measure 28
0000
0100
0010
1000
,  // measure 29
0001
0000
0010
0000
,  // measure 30
1001
0000
0100
0010
,  // measure 31
0100
0000
0001
1000
,  // measure 32
0001
0000
1000
0100
,  // measure 33
1000
0000
0001
0010
,  // measure 34
0001
0000
0100
0100
,  // measure 35
0010
0000
1000
1000
,  // measure 36
0001
0000
0100
0010
,  // measure 37
2002
0000
3003
0000
,  // measure 38
0100
0010
0010
1000
,  // measure 39
0001
0001
0000
1000
,  // measure 40
0100
0010
0010
0100
,  // measure 41
1000
1000
0000
0001
,  // measure 42
1000
0001
1000
0100
,  // measure 43
0010
0010
0000
0001
,  // measure 44
0100
0010
1000
0100
,  // measure 45
0220
0000
0330
0010
,  // measure 46
1001
0001
1000
0001
,  // measure 47
0100
0010
0100
0000
,  // measure 48
0001
0010
0001
0010
,  // measure 49
0100
0010
0000
1000
,  // measure 50
1000
0001
0001
0100
,  // measure 51
0010
0100
0000
0001
,  // measure 52
1000
0100
0010
0100
,  // measure 53
2002
0000
3003
1000
,  // measure 54
0002
0003
2000
3000
,  // measure 55
0100
0200
0300
0010
,  // measure 56
0200
0300
0020
0030
,  // measure 57
0001
0002
0003
1000
,  // measure 58
0002
1003
0002
1003
,  // measure 59
0100
0200
0300
0010
,  // measure 60
0100
1000
0001
0010
,  // measure 61
0200
0000
0300
0000
,  // measure 62
1000
0000
0001
0000
,  // measure 63
0010
0000
0100
0000
,  // measure 64
1000
0000
0100
0000
,  // measure 65
0010
0100
1000
0001
;

//---------------dance-single - C. Picardy----------------
#NOTES:
     dance-single:
     :
     Hard:
     7:
     0.380640,0.413968,0.100546,0.192714,0.000000,318.000000,306.000000,12.000000,23.000000,0.000000,0.000000,0.380640,0.413968,0.100546,0.192714,0.000000,318.000000,306.000000,12.000000,23.000000,0.000000,0.000000:
0000
0000
0000
0000
,
0000
0000
0000
0000
,
0000
0000
0000
0000
,
0000
0000
0000
0000
,
0000
0000
0000
0000
,
0200
0000
0000
0000
,
0310
1000
0001
1000
,
0100
0010
0100
0010
,
0001
0100
1000
0100
,
0001
0100
0010
1000
,
0000
0001
1000
0001
0000
0100
0000
0010
,
0000
1000
0001
1000
0000
0100
0000
0010
,
0000
0100
0010
0100
0000
0010
0000
0001
,
0000
0100
0010
0100
0000
0010
0000
0010
,
1000
0100
0001
0000
0001
0100
1000
0000
,
1000
0100
0010
0001
0000
0001
0000
0001
,
0010
0100
1000
0000
1000
0100
0010
0000
,
0010
0100
1000
1000
0000
1000
0000
1000
,
0001
0100
0010
0000
0010
0100
0001
0000
,
0001
0100
0010
0100
0000
0100
0000
0100
,
0001
0010
0100
0000
0100
0010
0001
0000
,
2200
0000
0000
3300
,
0011
0000
1000
0000
0100
0010
0001
0010
,
0100
1000
0001
0100
,
0010
0010
0010
0000
1000
0000
0001
0000
,
0100
0010
0010
1000
,
0100
0000
0010
0100
1000
0100
0010
0000
,
0001
0000
0100
0001
0010
0001
0100
0000
,
0010
0000
1000
0001
0100
0010
1000
0001
,
0001
0001
0001
0001
,
1100
0000
0010
0000
0100
1000
0010
1000
,
0100
0010
0001
1000
,
0100
0100
0100
0000
0010
0000
0001
0000
,
1000
0010
0100
0100
,
0101
1000
0100
0010
,
0011
0100
0010
1000
,
1100
0010
0100
0001
,
2002
0000
3003
0010
,
1001
0000
0001
0100
1000
0000
1000
0100
,
0001
0100
0010
1000
0000
0000
0100
0000
,
0010
0000
0001
0100
0010
0000
1000
0000
,
0100
0010
0100
0010
0000
0000
0001
0001
,
0001
0000
1000
1000
1000
0000
0001
0100
,
0010
1000
0100
0010
0000
0000
0100
0000
,
0010
0100
1000
0001
0010
0100
1000
0000
,
0101
0000
1000
0001
0000
0000
0110
0000
,
1000
0001
0100
0001
1000
0001
0100
0001
,
1000
0100
0010
0001
0000
0000
1000
0000
,
0001
0010
0100
0010
0001
0010
0100
0010
,
0001
0010
0100
1000
0000
0000
0001
0100
,
0010
0000
0010
1000
0100
0000
0100
1000
,
0010
0100
0001
1000
0000
0000
0010
0000
,
0100
0010
1000
0100
0010
0001
0100
0000
,
1001
0000
0010
0100
0000
0000
1000
0100
,
0020
0000
0031
0100
0020
0000
1030
0100
,
0010
0100
1000
0002
0000
0000
0023
0000
,
0230
0000
0310
0001
0200
0000
0320
0000
,
1030
0100
0010
0002
0000
0000
0013
0100
,
2000
0000
3010
0100
0002
0000
0013
0100
,
1000
0001
0100
0020
0000
0000
2030
0000
,
3200
0000
0310
0100
2000
0000
3002
0000
,
0103
0010
2000
0002
0000
0000
3003
0000
,
0110
1000
0100
0010
,
0001
0100
0001
1000
,
0100
0010
0100
1000
,
0020
0000
0000
0000
0000
0000
1030
0001
;

//---------------dance-single - C. Picardy----------------
#NOTES:
     dance-single:
     :
     Challenge:
     9:
     0.526671,0.524359,0.511110,0.444079,0.230419,440.000000,379.000000,61.000000,53.000000,54.000000,0.000000,0.526671,0.524359,0.511110,0.444079,0.230419,440.000000,379.000000,61.000000,53.000000,54.000000,0.000000:
0000
0000
0000
0000
,
0000
0000
0000
0000
,
0000
0000
0000
0000
,
0000
0000
0000
0000
,
0000
0000
0000
0000
,
0100
0010
0200
0000
0010
0000
0010
0000
0020
0000
0000
0000
0000
0000
0330
0000
,
1001
01M0
0010
M001
0000
M1M1
0000
1MM1
,
0000
0M10
1000
010M
0000
MM11
0000
11MM
,
0000
M010
0100
M001
0000
11MM
0000
M1M1
,
0000
10M0
0100
00M1
0000
11MM
0000
MM11
,
0000
M001
0100
10M0
0000
M1M1
0000
1M1M
,
0000
M100
0010
100M
0000
MM11
0000
M11M
,
0000
10M0
0001
01M0
0000
1MM1
0000
M11M
,
0000
M010
1000
0M01
0000
1M1M
0000
M1M1
,
1001
0010
1000
0100
1000
0010
0100
0001
,
0010
0001
1000
0001
0100
1000
0100
0010
,
0001
1000
0100
1000
0100
0001
0010
0100
,
0001
0100
0010
0100
0001
0100
1000
0010
,
0110
0100
1000
0100
0001
0010
1000
0010
,
0001
0100
1000
0100
0001
0010
1000
0010
,
0100
0010
1000
0010
0001
0100
0010
1000
,
0001
2000
0002
0000
0000
0000
0000
0000
0000
0000
0000
0000
0000
0000
3003
0000
,
0110
0000
0000
0000
1000
0100
0000
0010
0000
0100
0000
0000
1000
0000
1000
0000
,
0002
0000
0000
0000
0013
0100
0000
0010
0000
0001
0000
0000
0100
0000
0100
0000
,
0010
1000
0000
0010
0000
1000
0000
1000
0000
0001
0000
0000
1000
0000
0100
0000
,
1000
0000
0000
0000
0110
0000
0000
0000
0001
0000
0000
1000
0200
0000
0000
0000
,
1300
0001
0000
1000
0000
0001
0000
0100
0000
0010
0000
0000
1000
0000
1000
0000
,
0000
0000
0000
0000
0001
0100
0000
0010
0000
0100
0000
0000
0001
0000
0001
0000
,
1000
0010
0000
0010
0000
1000
0000
0001
0000
0100
0000
0000
0010
0000
0010
0000
,
0201
0000
0000
0301
2000
0000
0000
3001
2000
0000
0000
3100
2000
0000
0000
3000
,
0011
0000
0010
0000
0100
1000
0000
0001
0000
0010
0000
0100
0000
0000
1000
0000
,
0100
0000
0000
0000
0010
0100
0000
0010
0000
0001
0000
0000
0010
0000
0010
0000
,
0001
0010
0000
0001
0000
1000
0000
0100
0000
0001
0000
0100
0000
0010
0000
0000
,
0001
0000
0000
0000
0020
0000
0000
0031
0020
0000
0000
0031
0200
0000
0000
0300
,
0110
0000
0000
0000
1000
0001
0000
1000
0000
0100
0000
0000
0010
0000
0010
0000
,
0000
0000
0000
0000
0001
1000
0000
0100
0000
1000
0000
0000
0010
0000
0010
0000
,
0000
0000
0000
0000
0100
0001
0000
0000
0010
0000
0001
0000
0100
0000
0010
0000
,
2002
0000
0000
0000
0000
3003
0010
0000
,
1001
0000
0100
0010
1001
0000
0010
0100
,
1000
0001
0100
1001
0000
0000
0010
0000
,
1001
0000
0100
0010
1001
0000
0010
0000
,
1000
0100
0010
1001
0000
0000
0001
0100
,
0101
0000
1000
0100
1100
0000
0001
0010
,
0100
1000
0001
1001
0000
0000
0110
0000
,
1000
0100
0010
0001
0010
0100
1000
0000
,
0101
0000
2000
0200
0000
3300
0010
0000
,
0102
0000
1003
0100
2100
0000
3010
0100
,
0001
1000
0100
0110
0000
0MM0
0001
0000
,
1020
0000
1030
0001
0201
0000
0310
0000
,
1000
0010
0100
0110
0000
0MM0
0010
1000
,
2010
0000
3001
0010
0012
0000
1003
0100
,
0010
0100
1000
1001
0000
M00M
0100
0000
,
0010
1000
0001
0100
0010
1000
0100
0000
,
1001
0000
0200
0020
0000
0330
1000
0100
,
2200
0000
0000
3300
0001
0000
0100
0000
0202
0000
0000
0303
1000
0000
0001
0000
,
0100
0010
0100
0220
0000
0330
0001
0000
,
2020
0000
0000
3030
0100
0000
0010
0000
0022
0000
0000
0033
0202
0000
0000
0303
,
0100
0001
1000
2002
0000
3003
0010
0100
,
2002
0000
0000
3003
0100
0000
0010
0000
2002
0000
0000
3003
0010
0000
0100
0000
,
1000
0001
0100
2002
0000
3003
0010
0000
,
0220
0000
0000
0330
0100
0000
0010
0000
0220
0000
0000
0330
2002
0000
0000
3003
,
1000
0000
0100
0000
0010
0000
0220
0000
0000
0000
0330
0000
0100
0010
0100
0000
,
0110
1000
0001
1000
0100
1000
0010
1000
,
0001
0100
0010
0100
0001
0100
0010
1000
,
0100
0010
0001
1000
0010
0100
0001
0001
,
0100
0010
0100
0000
0001
0000
0001
0000
1000
0000
1000
0000
0010
0000
1000
0000
;

//---------------dance-single - C. Picardy----------------
#NOTES:
     dance-single:
     :
     Medium:
     5:
     0.333957,0.358772,0.142441,0.083789,0.000000,279.000000,262.000000,17.000000,10.000000,0.000000,0.000000,0.333957,0.358772,0.142441,0.083789,0.000000,279.000000,262.000000,17.000000,10.000000,0.000000,0.000000:
0000
0000
0000
0000
,
0000
0000
0000
0000
,
0000
0000
0000
0000
,
0000
0000
0000
0000
,
0000
0000
0000
0000
,
0200
0000
0000
0000
,
1300
0001
0100
0001
,
1000
0001
0010
0001
,
0100
0010
1000
0010
,
0100
0010
1000
0001
,
0000
1000
0000
0001
0000
0100
0000
0001
,
0000
1000
0000
0001
0000
0010
0000
0001
,
0000
0100
0000
0010
0000
1000
0000
0010
,
0000
0100
0000
0010
0000
1000
0000
0001
,
1000
0100
0010
0000
0001
0000
0100
0000
,
0010
0100
0001
1000
,
0100
0010
0001
0000
0100
0000
0010
0000
,
1000
0100
0010
0100
,
0000
1000
0100
0010
0000
0001
0000
0100
,
0000
0010
0000
0100
0000
0001
0000
1000
,
0000
0100
0010
0001
0000
0100
0000
0010
,
0000
1000
0000
0100
0000
0010
0000
0000
,
1001
0000
0100
0000
0010
0000
1000
0010
,
1000
0001
0100
0100
,
0020
0000
1030
0001
0100
0000
0010
0000
,
1000
1000
0100
0100
,
0020
0000
0031
0010
0100
0000
0010
0000
,
0001
1000
0010
0100
,
0002
0000
0013
0100
1000
0000
0002
0000
,
0100
0100
0103
0000
,
0110
0000
1000
0000
0001
0100
0010
0000
,
1000
0000
0100
0000
0010
0001
1000
0000
,
0020
0000
0130
0001
1000
0000
0100
0000
,
0010
0001
0001
0001
,
1100
0001
0100
0010
,
0101
0010
0100
1000
,
0101
1000
0100
0010
,
2002
0000
3003
0010
,
1001
0100
1001
0010
,
0100
0000
1000
0001
0000
0000
1000
0000
,
0110
0001
0110
1000
,
0001
0010
0100
1000
0000
0000
0001
0000
,
0101
1000
1100
0010
,
0100
0000
1000
0001
0000
0000
0100
0000
,
0010
0000
0100
0010
0100
0000
0100
0000
,
1001
0000
0100
0010
0000
0000
0100
0000
,
0001
0000
1000
0100
0010
0000
0010
0100
,
1000
0000
0001
1000
0000
0000
0100
0000
,
0010
0000
0100
0010
0100
0000
1000
0000
,
0001
0000
0100
0100
0000
0000
0001
0100
,
0001
0000
1000
0010
1000
0000
0001
0000
,
1000
0000
0100
0010
0000
0000
0001
0000
,
1000
0100
0010
0000
0001
0100
0010
0000
,
2002
0000
3003
0100
,
0010
0000
1000
0001
1000
0000
0100
0000
,
0010
0000
0100
0010
0000
0000
0100
0000
,
1000
0000
0001
1000
0001
0000
0100
0000
,
0010
0000
1000
0001
0000
0000
1000
1000
,
1000
0000
0001
0001
0001
0000
1000
1000
,
1000
0000
0001
0100
0000
0000
0010
0000
,
1000
0000
0001
1000
0001
0000
0010
0000
,
0001
0010
0100
1000
0000
0000
0000
0000
,
0101
0010
1000
0100
,
0110
1000
0001
0100
,
1010
0001
1000
1000
,
0010
0000
0100
0000
0010
0000
1000
0001
;
