#VERSION:0.83;
#TITLE:Shudder;
#SUBTITLE:;
#ARTIST:Kenichiro Fukui;
#TITLETRANSLIT:;
#SUBTITLETRANSLIT:;
#ARTISTTRANSLIT:;
#GENRE:;
#ORIGIN:;
#CREDIT:;
#BANNER:shudderbn.png;
#BACKGROUND:shudderbg.png;
#PREVIEWVID:;
#JACKET:;
#CDIMAGE:;
#DISCIMAGE:;
#LYRICSPATH:;
#CDTITLE:;
#MUSIC:shudder.ogg;
#OFFSET:-0.803949;
#SAMPLESTART:24.755844;
#SAMPLELENGTH:14.000008;
#SELECTABLE:YES;
#BPMS:0.000=150.000;
#STOPS:;
#DELAYS:;
#WARPS:;
#TIMESIGNATURES:0.000=4=4;
#TICKCOUNTS:0.000=4;
#COMBOS:0.000=1;
#SPEEDS:0.000=1.000=0.000=0;
#SCROLLS:0.000=1.000;
#FAKES:;
#LABELS:0.000=Song Start;
#BGCHANGES:12.000=flash=2.000=0=0=1=====,
12.250=abstract tunnel.mp4=1.000=0=0=1=====,
44.000=freebluetunnel.mp4=1.000=0=0=1===CrossFade_Fastest==,
72.000=shudderbg.png=1.000=0=0=1===CrossFade_Faster==,
74.000=shudderbg.png=1.000=0=0=1====#FF0000=,
74.500=shudderbg.png=1.000=0=0=1====#00FF00=,
75.000=shudderbg.png=1.000=0=0=1====#0000FF=,
75.500=shudderbg.png=1.000=0=0=1====#FF00FF=,
76.000=flash=2.000=0=0=1====#0000FF=,
76.250=sensorylighttunnel.mp4=1.000=0=0=1=====,
140.000=abstract tunnel.mp4=1.000=0=1=1=StretchRewind==CrossFade_Fastest==,
156.000=freebluetunnel.mp4=1.000=0=0=1===SlideUp==,
172.000=flash=2.000=0=0=1=====,
172.250=spiralsmoke.mp4=1.000=0=0=1=====,
236.000=tinetunnel.mp4=1.000=0=0=1===SlideUp==,
304.000=flash=1.000=0=0=1=====,
304.250=shudderbg.png=1.000=0=0=1=====,
99999=-nosongbg-=1.000=0=0=0 // don't automatically add -songbackground-
;
#KEYSOUNDS:;
#ATTACKS:
;

//---------------dance-single - C. Picardy----------------
#NOTEDATA:;
#CHARTNAME:;
#STEPSTYPE:dance-single;
#DESCRIPTION:C. Picardy;
#CHARTSTYLE:;
#DIFFICULTY:Beginner;
#METER:1;
#RADARVALUES:0.115614,0.184520,0.080930,0.000000,0.000000,100.000000,90.000000,10.000000,0.000000,0.000000,0.000000,0.000000,0.000000,0.000000,0.115614,0.184520,0.080930,0.000000,0.000000,100.000000,90.000000,10.000000,0.000000,0.000000,0.000000,0.000000,0.000000,0.000000;
#CREDIT:C. Picardy;
#NOTES:
0000
0000
0000
0000
,
0000
0000
0000
0000
,
0000
0000
0000
0000
,
1000
0000
0000
0000
,
1000
0000
0000
0000
,
0001
0000
0000
0000
,
0001
0000
0000
0000
,
0100
0000
0000
0000
,
0100
0000
0000
0000
,
0010
0000
0000
0000
,
0010
0000
0000
0000
,
1000
0000
0000
0000
,
0001
0000
0000
0000
,
1000
0000
0000
0000
,
0001
0000
0000
0000
,
0100
0000
0000
0000
,
0010
0000
0000
0000
,
0100
0000
0000
0000
,
0010
0000
0000
0000
,
1000
0000
1000
0000
,
1000
0000
0000
0000
,
0001
0000
0001
0000
,
0001
0000
0000
0000
,
0100
0000
0100
0000
,
0100
0000
0000
0000
,
0010
0000
0010
0000
,
0010
0000
0000
0000
,
1001
0000
0000
0000
,
0100
0000
0100
0000
,
0100
0000
0000
0000
,
1001
0000
0000
0000
,
0010
0000
0010
0000
,
0010
0000
0000
0000
,
1001
0000
0000
0000
,
0001
0000
0001
0000
,
0001
0000
0000
0000
,
1000
0000
0000
0000
,
0100
0000
0000
0000
,
0010
0000
0000
0000
,
0001
0000
0000
0000
,
1000
0000
0000
0000
,
0010
0000
0000
0000
,
0100
0000
0000
0000
,
0001
0000
1000
0000
,
0001
0000
0000
0000
,
1000
0000
0001
0000
,
1000
0000
0000
0000
,
0010
0000
0100
0000
,
0010
0000
0000
0000
,
0100
0000
0010
0000
,
0100
0000
0000
0000
,
1001
0000
1000
0000
,
0001
0000
0000
0000
,
1001
0000
0001
0000
,
1000
0000
0000
0000
,
0110
0000
0100
0000
,
0010
0000
0000
0000
,
0110
0000
0010
0000
,
0100
0000
0000
0000
,
1001
0000
0000
0000
,
1000
0000
0000
0000
,
0001
0000
0000
0000
,
1000
0000
0000
0000
,
0001
0000
0000
0000
,
0100
0000
0000
0000
,
0010
0000
0000
0000
,
0100
0000
0000
0000
,
1001
0000
0000
0000
,
0010
0000
0000
0000
,
0100
0000
0000
0000
,
0001
0000
0000
0000
,
1000
0000
0000
0000
,
0100
0000
0000
0000
,
0010
0000
0000
0000
,
0001
0000
0000
0000
,
0100
0000
0000
0010
,
1001
0000
0000
0000
;

//---------------dance-single - C. Picardy----------------
#NOTEDATA:;
#CHARTNAME:;
#STEPSTYPE:dance-single;
#DESCRIPTION:C. Picardy;
#CHARTSTYLE:;
#DIFFICULTY:Easy;
#METER:4;
#RADARVALUES:0.314470,0.430546,0.420835,0.461299,0.000000,272.000000,220.000000,52.000000,57.000000,0.000000,0.000000,0.000000,0.000000,0.000000,0.314470,0.430546,0.420835,0.461299,0.000000,272.000000,220.000000,52.000000,57.000000,0.000000,0.000000,0.000000,0.000000,0.000000;
#CREDIT:C. Picardy;
#NOTES:
0000
0000
0000
0000
,
0000
0000
0000
0000
,
0000
0000
0000
0000
,
1000
0000
0001
0000
,
1000
0000
0001
0100
,
0010
0000
0100
0000
,
0010
0000
1000
0100
,
0010
0000
0100
0000
,
1000
0000
0010
0100
,
0001
0000
1000
0000
,
0100
0000
0010
0100
,
1001
0001
0001
0000
,
1000
0100
1000
0000
,
0001
0010
0001
0000
,
0100
0010
0100
0000
,
0010
1000
0100
0000
,
0010
0100
1000
0000
,
0001
0100
0010
1000
,
2002
0000
0000
3003
,
0220
0330
0001
1000
,
0100
0000
0022
0033
,
2200
3300
0001
0100
,
2020
3030
0202
0303
,
1000
0100
0010
0000
,
0220
0330
2002
3003
,
0220
0000
0330
0010
,
1000
0100
0010
0001
,
2200
3300
0001
0010
,
0001
1000
2020
3030
,
0202
0303
0010
0100
,
0022
0033
0202
0303
,
2002
3003
1000
0100
,
0220
0330
0001
0100
,
2002
0000
0000
3003
,
0010
0010
0100
0010
,
0101
0000
1100
0000
,
0001
0010
0100
1000
,
0110
0000
0011
0000
,
1000
0010
0100
0001
,
1010
0000
0101
0000
,
0010
0100
1000
0001
,
0110
0000
1001
0000
,
0100
0100
0010
0100
,
1001
1000
0100
0010
,
1001
0010
0100
1000
,
0110
1000
0100
0010
,
0110
0001
0100
0010
,
1001
0010
0100
1000
,
0101
1000
0100
0010
,
0011
1000
0010
0100
,
1010
0100
0010
0100
,
1100
0001
0100
0110
,
0101
0010
0100
1100
,
0101
0010
1000
1010
,
0011
0100
1000
0110
,
0011
1000
0010
0110
,
1001
0010
0100
0011
,
1100
0010
0100
1001
,
0120
0000
1000
1030
,
0002
0000
2003
0000
,
3200
0000
0310
0010
,
0002
0000
0203
0000
,
0320
0000
1030
1000
,
0200
0000
2300
0000
,
3020
0000
0130
0001
,
0020
0000
0230
0000
,
0320
0000
0031
0100
,
0120
0000
1000
0130
,
2000
0000
0001
3010
,
0002
0000
0010
0103
,
2000
0000
0010
3100
,
0020
0000
0001
0130
,
0002
0000
0010
1003
,
0200
0000
0010
0301
,
0200
0000
0010
1300
,
0220
0000
0330
0100
,
1001
0000
0000
0000
;

//---------------dance-single - C. Picardy----------------
#NOTEDATA:;
#CHARTNAME:;
#STEPSTYPE:dance-single;
#DESCRIPTION:C. Picardy;
#CHARTSTYLE:;
#DIFFICULTY:Medium;
#METER:7;
#RADARVALUES:0.487891,0.492053,0.412742,0.153766,0.072837,422.000000,371.000000,51.000000,19.000000,0.000000,0.000000,0.000000,0.000000,0.000000,0.487891,0.492053,0.412742,0.153766,0.072837,422.000000,371.000000,51.000000,19.000000,0.000000,0.000000,0.000000,0.000000,0.000000;
#CREDIT:C. Picardy;
#NOTES:
0000
0000
0000
0000
,
0000
0000
0000
0000
,
0000
0000
0000
0000
0001
0010
0001
0010
,
0001
0000
0100
0001
0000
0001
0100
0000
,
0100
0010
0000
0010
1000
0010
1000
0010
,
1000
0000
0100
1000
0000
1000
0100
0000
,
0100
0010
0000
0010
0001
1000
0001
1000
,
0001
0000
1000
0100
0000
0010
0001
0000
,
1000
0010
0000
0100
0001
0100
0001
0100
,
0010
0000
0010
1000
0000
1000
0001
0000
,
0001
1000
0000
1000
0001
0010
0100
0000
,
1001
0000
0100
0000
0010
1000
0100
0000
,
0010
0000
0011
0000
1000
0100
1000
0100
,
1000
0101
0010
1010
,
0001
0000
0011
0000
0100
0010
0100
0010
,
0100
1001
1000
1100
,
0001
0000
0101
0000
1000
0100
0010
0001
,
0100
0110
1000
1001
,
0001
1000
0000
0000
0001
0010
0100
1000
,
0002
0010
1000
0103
,
0010
0000
0100
0020
0000
0000
1030
0000
,
0200
0000
1000
0000
0010
0000
1300
0002
,
0000
0000
0000
2000
0000
0000
3003
0000
,
0120
0000
0001
0000
0100
0000
0031
2000
,
0000
0000
0000
3020
0000
0230
0000
0000
,
0320
1000
0100
1030
,
0100
0000
0010
0000
0001
0100
0010
0000
,
2001
0010
0001
0100
,
3010
0000
0100
0002
0000
0000
0103
0000
,
0210
0000
0001
0000
0310
0000
1000
0200
,
0000
0000
0310
0002
0000
0000
0010
0010
,
0023
0000
0100
0000
0001
0000
0130
2000
,
0000
0000
0000
3002
0000
2003
0000
0000
,
3010
1010
0001
0011
,
0100
0000
1100
0000
0010
0100
0010
0100
,
0010
0000
0000
0010
0000
0000
0010
0000
0000
0010
0000
0000
1000
0000
0000
1000
,
0000
0000
1000
0000
0000
1000
0000
0000
0001
0000
1000
0000
0001
0000
1000
0000
,
0001
0000
0000
0001
0000
0000
0001
0000
0000
0001
0000
0000
0100
0000
0000
0100
,
0000
0000
0100
0000
0000
0100
0000
0000
0010
0000
0100
0000
0010
0000
0100
0000
,
0010
0000
0000
1000
0000
0000
0010
0000
0000
1000
0000
0000
0001
0000
0000
1000
,
0000
0000
0001
0000
0000
1000
0000
0000
0100
0000
0010
0000
0100
0000
0010
0000
,
0100
0000
0000
1000
0000
0000
0100
0000
0000
1000
0000
0000
0001
0000
0000
0100
,
0000
0000
0001
0000
0000
0100
0000
0000
0001
0000
0100
0000
0001
0000
0100
0000
,
0010
0000
1010
0000
0011
0000
0100
0100
,
0100
0000
1010
0000
1100
0000
0010
0010
,
0010
0000
0011
0000
1100
0000
0001
0001
,
0001
0000
0101
0000
0110
0000
1000
1000
,
1000
0000
0101
0000
1100
0000
0010
0010
,
0010
0000
0110
0000
1001
0000
0100
0100
,
0100
0000
0101
0000
1010
0000
0001
0001
,
0001
0000
1100
0000
0011
0000
1000
1000
,
1000
0000
1001
0000
0110
0000
1000
0100
,
0001
0000
0110
0000
0011
0000
0001
0100
,
1000
0000
0110
0000
1010
0000
1000
0010
,
0001
0000
0110
0000
1001
0000
0001
0010
,
1000
0000
0011
0000
1100
0000
0010
1000
,
0100
0000
0011
0000
0101
0000
0001
0100
,
0010
0000
1100
0000
0101
0000
1000
0100
,
0010
0010
0010
0000
0010
0010
0100
0010
,
0100
0000
0010
0000
0001
0000
0100
0001
,
0100
0000
0010
0000
1000
0000
0100
0010
,
0100
0000
1000
0000
0001
0000
1000
0100
,
1000
0000
0010
0000
0100
0000
0010
1000
,
0010
0000
0100
0000
0001
0000
0010
0001
,
0010
0000
0100
0000
1000
0000
0010
0100
,
0010
0000
1000
0000
0001
0000
1000
0010
,
1000
0000
0100
0000
0010
0000
0001
0100
,
0010
0000
1000
0000
0100
0000
0001
0100
,
1000
0000
0010
0000
0100
0000
0001
0100
,
1000
0000
0100
0000
0001
0000
1000
0010
,
0001
0000
0010
0000
1000
0000
0001
0010
,
1000
0000
0010
0000
0011
0000
1000
0010
,
0100
0000
0010
0000
1010
0000
1000
0100
,
0010
0000
0001
0000
0101
0000
0010
0100
,
1000
0000
0010
0000
1001
0000
1000
0001
,
0100
0000
0000
0100
0000
0000
0010
0000
0000
0010
0000
0000
0000
0000
0000
0000
,
1001
0000
0000
0000
;

//---------------dance-single - C. Picardy----------------
#NOTEDATA:;
#CHARTNAME:;
#STEPSTYPE:dance-single;
#DESCRIPTION:C. Picardy;
#CHARTSTYLE:;
#DIFFICULTY:Challenge;
#METER:11;
#RADARVALUES:0.966532,0.984105,0.720275,0.040465,1.088505,836.000000,747.000000,89.000000,5.000000,100.000000,0.000000,2.000000,0.000000,0.000000,0.966532,0.984105,0.720275,0.040465,1.088505,836.000000,747.000000,89.000000,5.000000,100.000000,0.000000,2.000000,0.000000,0.000000;
#CREDIT:C. Picardy;
#NOTES:
0000
0000
0000
0000
,
0000
0000
0000
0000
,
0000
0000
0000
0000
0000
0000
0000
0000
1000
0100
1000
0100
1000
0100
1000
0100
,
100M
0000
0000
1010
0000
0000
0100
0000
M000
0101
0000
0000
1000
0000
0000
1100
,
000M
0000
0001
0000
0000
0011
0000
0000
1M00
0000
1010
0000
0001
0000
0011
0000
,
01M0
0000
0000
1100
0000
0000
0010
0000
M000
0110
0000
0000
1000
0000
0000
1001
,
00M0
0000
0001
0000
0000
0101
0000
0000
100M
0000
1100
0000
1001
0000
0001
0100
,
M010
0000
0000
1100
000M
0000
0110
0000
M000
0011
0000
0000
01M1
0000
0000
1010
,
0M00
0000
1001
0000
00M0
1100
0000
0000
M010
0000
0011
0000
100M
0000
1001
0000
,
M1M1
0000
0000
0110
M00M
0000
1010
0000
MM00
0011
0000
0000
11MM
0000
0000
0101
,
M0M0
1000
0001
0000
0001
1000
0000
1000
0001
0010
0001
0010
0100
1000
0100
1000
,
0010
0000
0010
0100
0000
0100
0001
0000
0001
0010
0000
0010
1000
0000
1000
0010
,
0000
0010
0100
0000
0100
1000
0000
1000
0010
0000
1M1M
0000
M11M
0000
M1M1
0000
,
1000
0000
1000
0010
0000
0010
0001
0000
0001
0010
0000
0010
1000
0000
1000
0100
,
0000
0100
0001
0000
0001
1000
0000
1000
0010
0000
M11M
0000
MM11
0000
1000
0100
,
0010
0000
0010
0001
0000
0001
0100
0000
0100
1000
0000
1000
0001
0000
0001
0010
,
0000
0010
1000
0000
1000
0100
0000
0100
0010
0000
MM11
0000
M1M1
0000
1MM1
0000
,
0001
0000
0001
0010
0000
0010
1000
0000
1000
0010
0000
0010
0001
0000
0001
2000
,
0000
0000
0010
0000
0000
0100
0000
0000
0001
0000
0010
0000
0001
0000
3100
0000
,
1001
0000
0100
0000
0010
0000
1000
0100
0010
1000
0010
0000
0001
0000
0100
0010
,
0001
0010
0100
0000
0001
0000
0010
0100
0010
1000
0010
0000
0001
0100
0001
0100
,
0001
0000
0010
0000
0100
0000
0001
0100
0010
0100
0010
0000
0001
0000
0100
1000
,
0100
0010
0100
0000
0001
0000
0010
1000
0010
0100
0010
0000
0100
1000
0100
1000
,
0100
0000
0010
0000
0001
0000
1000
0100
0001
0100
1000
0000
0010
0000
0100
0010
,
0001
0010
0100
0000
0001
0000
1000
0010
0001
0010
1000
0000
0010
0100
0010
0100
,
0010
0000
1000
0000
0100
0000
0001
0100
0010
0100
0001
0000
0100
0000
1000
0010
,
0001
0010
1000
0000
0001
0000
0100
0010
0100
1000
0100
0000
0001
0100
0010
0000
,
1MM1
0000
0010
0000
0100
0000
0001
0100
1000
0000
0010
0000
0100
0000
0001
0010
,
1000
0000
0010
0000
0001
0000
0100
1000
0001
0000
0010
0000
1000
0000
0100
0010
,
1000
0000
0010
0000
0001
0000
1000
0100
0001
0000
0100
0000
1000
0000
0010
0001
,
1000
0000
0100
0000
0001
0000
0010
0100
1000
0000
0001
0000
1000
0010
1000
0010
,
1000
0000
0001
0000
0100
0000
0001
0100
1000
0000
0100
0000
0001
0000
0010
0100
,
1000
0000
0100
0000
0001
0000
0100
0010
0001
0000
0100
0000
1000
0000
0100
0001
,
0010
0000
0100
0000
1000
0000
0010
0001
0010
0000
1000
0000
0100
0000
0010
0001
,
0100
0000
0010
0000
0010
0000
1000
0001
1000
0000
0001
0100
0001
0010
0100
1000
,
001M
0000
0000
0110
0000
0000
0101
0000
M000
0110
0000
0000
1010
0000
0000
1100
,
000M
0000
0110
0000
0000
0011
0000
0000
1M00
0000
1100
0000
0001
0000
0101
0000
,
010M
0000
0000
0110
0000
0000
1010
0000
M000
0110
0000
0000
0101
0000
0000
0011
,
000M
0000
1100
0000
0000
0011
0000
1000
M001
0000
0001
0000
1000
0100
0010
0001
,
10M0
0000
0000
0101
M000
0000
1100
0000
000M
1100
0000
0000
M110
0000
0000
0011
,
000M
0000
0101
0000
00M0
0101
0000
0000
1M00
0000
1010
0000
M001
0000
0011
0000
,
10MM
0000
0000
1100
00MM
0000
0101
0000
0M0M
1010
0000
0000
11MM
0000
0000
0201
,
0000
0000
0010
0000
0000
1000
0000
0000
0010
0000
0001
0000
0310
0000
0100
0010
,
0120
0000
0000
0000
1030
0000
0001
0010
0100
1000
0100
0010
0000
0011
0000
1000
,
0100
0000
1000
0100
1000
0000
0001
0010
0100
1000
0100
0010
0001
0010
0100
1000
,
1100
0000
0001
0000
0101
0000
1000
0010
1000
0000
0001
0010
0100
1000
0100
0010
,
0001
0100
0010
0100
0001
0100
0010
1000
1MM1
0000
0000
0000
0100
0010
0100
0010
,
0100
0000
0010
1000
0100
0000
0000
0010
0001
1000
0001
0100
0001
1000
0001
0100
,
0010
0000
0010
1000
0000
1010
0000
M0M0
0001
1000
0100
1000
0010
0100
0001
0100
,
0010
1000
0100
0010
0000
0110
0000
0MM0
0001
1000
0100
0010
0100
1000
0001
0100
,
0010
1000
0100
0010
0000
0011
0000
00MM
0001
0010
0100
1000
0001
0010
0100
1000
,
1MM1
0000
0100
0010
0100
0000
0001
0000
1000
0001
0100
0010
1000
0001
0100
0010
,
0100
0001
1000
0100
0010
0000
MMMM
0000
0001
0010
0001
1000
0100
0010
0000
0001
,
0100
0000
0010
1000
0010
0000
MMMM
0000
1000
0001
1000
0100
1000
0010
0100
0001
,
0101
0000
1000
0100
1000
0000
MMMM
0000
0010
0100
0001
0100
0010
1000
0100
0010
,
0110
0000
0001
0010
0001
0000
0100
0000
0010
0000
MMMM
0000
1010
0000
1010
0000
,
1010
0000
0010
1000
0100
0010
0000
0010
0001
0010
0100
1000
0001
0100
0001
0100
,
0001
0010
0001
1000
0000
0100
0010
0100
1000
0100
0010
0001
0100
0000
0100
0000
,
MM04
0000
0000
0000
MM00
0000
0000
0000
MM40
0000
0000
0033
1000
0100
1000
0100
,
1000
0000
0010
0000
0100
0000
0001
0010
0100
0000
1000
0100
0010
0100
1000
0000
,
0001
0000
0100
0000
0010
0000
1000
0100
0010
0000
0001
0010
0100
0010
0001
0000
,
1000
0000
0010
0000
0100
0000
0010
1000
0100
0000
0010
0001
0010
0100
0010
0000
,
0100
0000
1000
0000
0010
0000
0100
0010
1000
0000
0100
0010
0001
0010
0100
0000
,
1000
0000
0010
0000
0100
0000
1000
0100
0010
0000
1000
0100
0010
1000
0010
0000
,
0001
0000
0010
0000
1000
0000
0010
0100
1000
0000
0001
0100
0010
0001
0010
0000
,
1000
0000
0100
0000
0010
0000
0100
0010
1000
0000
0001
0100
0010
0100
0001
0000
,
0100
0000
1000
0000
0010
0000
0100
0010
1000
0000
0001
0100
0010
1000
0010
0100
,
0001
0000
1000
0000
1100
0000
0010
0100
0010
0000
1000
0100
0010
0100
1000
0000
,
0010
0000
0100
0000
0101
0000
1000
0100
1000
0000
0001
0010
0100
0010
0001
0000
,
0100
0000
0010
0000
0110
0000
1000
0010
0100
0000
0001
0100
0010
0100
0001
0000
,
0010
0000
0100
0000
1100
0000
0001
0010
0100
0000
1000
0010
0100
0010
1000
0000
,
0100
0000
0010
0000
0011
0000
0010
0100
1000
0000
0001
0100
0010
1000
0100
0000
,
0010
0000
0001
0000
1001
0000
0010
0100
1000
0000
0001
0010
0100
1000
0010
0000
,
0100
0000
0001
0000
1010
0000
0100
0010
0001
0000
1000
0010
0100
0001
1000
0000
,
0100
0000
0010
0100
0010
0000
0100
0010
0001
0010
0100
1000
0001
0100
0010
1000
,
0002
0000
0000
1000
0000
0000
0010
0000
0000
0200
0000
0000
0303
0000
0000
0000
,
1100
0000
0000
0000
;

//---------------dance-single - C. Picardy----------------
#NOTEDATA:;
#CHARTNAME:;
#STEPSTYPE:dance-single;
#DESCRIPTION:C. Picardy;
#CHARTSTYLE:;
#DIFFICULTY:Hard;
#METER:9;
#RADARVALUES:0.658999,0.645819,0.477485,0.097116,0.485578,570.000000,511.000000,59.000000,12.000000,14.000000,0.000000,0.000000,0.000000,0.000000,0.658999,0.645819,0.477485,0.097116,0.485578,570.000000,511.000000,59.000000,12.000000,14.000000,0.000000,0.000000,0.000000,0.000000;
#CREDIT:C. Picardy;
#NOTES:
// measure 0
0000
0000
0000
0000
,  // measure 1
0000
0000
0000
0000
,  // measure 2
0000
0000
0000
0000
0000
0000
0000
0000
0001
0010
0001
0010
0001
0000
0100
0000
,  // measure 3
0001
0000
0000
0001
0000
0000
0100
0000
0000
0100
0000
0000
0010
0000
0000
0010
,  // measure 4
0000
0000
1000
0000
0000
1000
0000
0000
0001
0000
0010
0000
0100
0000
1000
0000
,  // measure 5
0010
0000
0000
0100
0000
0000
0010
0000
0000
1000
0000
0000
0001
0000
0000
1000
,  // measure 6
0000
0000
0100
0000
0000
0010
0000
0000
0001
0000
0010
0000
0100
0000
1000
0001
,  // measure 7
0100
0000
0000
0010
0000
0000
0001
0000
0000
0010
0000
0000
0100
0000
0000
1000
,  // measure 8
0000
0000
0100
0000
0000
0010
0000
0000
1000
0000
0100
0000
0010
0000
0100
0000
,  // measure 9
1000
0000
0000
0100
0000
0000
0001
0000
0000
0100
0000
0000
0010
0000
0000
0001
,  // measure 10
0000
0000
0100
0000
0000
0100
0000
0100
0010
0000
0010
0000
1000
0010
1000
0010
,  // measure 11
1000
0000
0000
0010
0000
0000
0100
0000
0000
0110
0000
0000
1000
0000
0000
0001
,  // measure 12
0000
0000
1100
0000
0000
1000
0000
0000
0001
0000
0100
0000
0010
0000
1000
0000
,  // measure 13
1001
0000
0000
0100
0000
0000
0010
0000
0000
1001
0000
0000
0010
0000
0000
0100
,  // measure 14
0000
0000
0011
0000
0000
1000
0000
1000
0010
0000
0010
0000
0100
0000
0001
0100
,  // measure 15
0010
0000
0000
0110
0000
0000
1000
0000
0000
1010
0000
0000
0001
0000
0000
0011
,  // measure 16
0000
0000
1000
0000
0000
1100
0000
0000
0100
0000
0010
0000
0001
0000
0100
0000
,  // measure 17
0101
0000
0000
0010
0000
0000
0110
0000
0000
1000
0000
0000
1001
0000
0000
0100
,  // measure 18
0000
0000
0010
0000
0000
0010
0000
0000
0010
0000
1000
0000
0100
0000
0010
0000
,  // measure 19
M12M
0000
0000
0000
0130
0000
0000
0100
0010
0000
0001
0000
0010
0000
0100
0000
,  // measure 20
0010
0000
0001
0000
0100
0000
0020
0000
0000
0000
1000
0000
1030
0000
0000
0001
,  // measure 21
1000
0100
0010
0100
1000
0100
0010
0001
,  // measure 22
0000
0001
0100
0000
0010
0000
1000
0000
0000
0100
1000
0000
0001
0100
0001
0100
,  // measure 23
0001
0000
0000
1000
0100
0000
1000
0000
0010
0000
1000
0000
0100
0000
0020
0000
,  // measure 24
0000
0000
0000
0000
0001
0000
0032
0000
0000
0000
0203
0000
0000
0000
0310
0100
,  // measure 25
0010
1000
0100
1000
0010
0100
0001
0010
,  // measure 26
0001
0000
1000
0000
0100
0000
0010
0000
0001
0000
0100
0000
0010
0100
0010
0000
,  // measure 27
0120
0000
0000
0000
1030
0000
0010
0000
0100
0000
0010
0000
1000
0000
0100
0010
,  // measure 28
0100
1000
0001
0200
0000
0001
0301
0000
,  // measure 29
0001
0000
0010
0000
0100
0000
0010
0001
0010
0000
0100
0000
1000
0000
2000
0000
,  // measure 30
0000
0000
0000
0000
0001
0000
3002
0000
0000
0000
1003
0000
1000
0100
1000
0100
,  // measure 31
1000
0010
0100
0010
0001
0010
1000
0200
,  // measure 32
0000
0000
0000
0000
0000
0000
0320
0000
0000
0000
0032
0000
0000
0000
0013
0100
,  // measure 33
0010
0100
0001
0100
1000
0010
0001
0010
,  // measure 34
1000
0000
0001
0000
0001
0000
0000
0100
0010
0000
0010
0000
1000
0010
0100
0010
,  // measure 35
1000
0000
0000
1000
0000
0000
0100
0000
0000
0100
0000
0000
0010
0000
0000
0010
,  // measure 36
0000
0000
0001
0000
0000
0001
0000
0000
1000
0000
0100
0000
0010
0000
0001
0000
,  // measure 37
0100
0000
0000
0100
0000
0000
0010
0000
0000
0010
0000
0000
1000
0000
0000
1000
,  // measure 38
0000
0000
0001
0000
0000
0001
0000
0000
1000
0000
0001
0000
0100
0000
0010
0100
,  // measure 39
0010
0000
0000
1000
0000
0000
0010
0000
0000
0100
0000
0000
0001
0000
0000
0010
,  // measure 40
0000
0000
0100
0000
0000
1000
0000
0000
0010
0000
0001
0000
0010
0000
0100
0000
,  // measure 41
0010
0000
0000
1000
0000
0000
0100
0000
0000
0010
0000
0000
0100
0000
0000
1000
,  // measure 42
0000
0000
0001
0000
0000
0001
0000
0000
0001
0000
0010
0000
0100
0000
1000
0100
,  // measure 43
1000
0000
1100
0000
0101
0000
0010
0010
,  // measure 44
0110
0000
1010
0000
0011
0000
1000
1000
,  // measure 45
1100
0000
0101
0000
0011
0000
1000
1000
,  // measure 46
1010
0000
0101
0000
0110
0000
1000
1000
,  // measure 47
1001
0000
1100
0000
0101
0000
1000
0010
,  // measure 48
1010
0000
0011
0000
1100
0000
0001
0100
,  // measure 49
0101
0000
1001
0000
0110
0000
1000
0001
,  // measure 50
1001
0000
1100
0000
0101
0000
0100
0010
,  // measure 51
0110
0000
0000
0000
1010
0000
0000
0000
1100
0000
0000
0100
0010
0000
0010
0000
,  // measure 52
0011
0000
0000
0000
1010
0000
0000
0000
0101
0000
0000
1000
0100
0000
0100
0000
,  // measure 53
0110
0000
0000
0000
1100
0000
0000
0000
0101
0000
0000
0010
1000
0000
1000
0000
,  // measure 54
1010
0000
0000
0000
0011
0000
0000
0000
0110
0000
0000
0100
1000
0000
1000
0000
,  // measure 55
1001
0000
0000
0000
0110
0000
0000
0000
1001
0000
0000
0100
0010
0000
1000
0000
,  // measure 56
1001
0000
0000
0000
1100
0000
0000
0000
0101
0000
0000
1000
0100
0000
0010
0000
,  // measure 57
1001
0000
0000
0000
0011
0000
0000
0000
1010
0000
0000
0100
0010
0000
1000
0000
,  // measure 58
M10M
0000
0010
0000
M10M
0000
0010
0000
M10M
0000
0010
0000
M10M
0010
0100
0010
,  // measure 59
M10M
0000
0100
0000
1000
0000
0000
1000
0001
0000
0000
0001
1000
0000
1000
0000
,  // measure 60
0100
0000
0010
0000
0001
0000
0000
0001
0100
0000
0000
0100
0001
0000
0001
0000
,  // measure 61
0100
0000
0010
0000
0100
0000
0000
0010
1000
0000
0000
1000
0010
0000
0010
0000
,  // measure 62
1000
0000
0100
0000
0010
0000
0000
0100
1000
0000
0000
1000
0100
0000
0100
0000
,  // measure 63
0010
0000
0001
0000
0010
0000
0000
0100
1000
0000
0000
0100
0010
0000
0001
0000
,  // measure 64
0010
0000
0100
0000
1000
0000
0000
0001
0100
0000
0000
0001
0100
0000
0010
0000
,  // measure 65
1000
0000
0100
0000
0010
0000
0000
0100
0010
0000
0000
0100
0010
0000
0001
0000
,  // measure 66
1000
0000
0010
0000
0100
0000
0010
0000
1000
0000
0001
0000
1000
0100
1000
0100
,  // measure 67
1000
0000
0010
0000
0100
0000
0000
0100
0010
0000
0000
0010
1000
0000
0100
0000
,  // measure 68
0001
0000
0100
0000
1000
0000
0000
1000
0010
0000
0000
0010
0001
0000
0010
0000
,  // measure 69
1000
0000
0100
0000
0010
0000
0000
0010
0001
0000
0000
0001
0100
0000
1000
0000
,  // measure 70
0100
0000
0001
0000
0010
0000
0000
0010
0100
0000
0000
0100
0001
0000
0100
0000
,  // measure 71
0010
0000
0100
0000
1000
0000
0000
1000
0010
0000
0000
0010
0100
0000
0001
0000
,  // measure 72
0010
0000
0001
0000
0100
0000
0000
0100
1000
0000
0000
1000
0100
0000
0010
0000
,  // measure 73
1000
0000
0100
0000
0010
0000
0000
0001
0010
0000
0000
1000
0010
0000
0001
0000
,  // measure 74
1000
0000
0001
0100
0001
0000
1000
0100
1000
0000
0001
0100
0001
0100
0001
0000
,  // measure 75
1000
0000
0000
1000
0000
0000
0001
0000
0000
0001
0000
0000
M00M
0000
0000
0000
,  // measure 76
0110
0000
0000
0000
;
