#TITLE:Shout;
#SUBTITLE:;
#ARTIST:Haddaway;
#TITLETRANSLIT:;
#SUBTITLETRANSLIT:;
#ARTISTTRANSLIT:;
#GENRE:;
#CREDIT:;
#BANNER:shoutbn.png;
#BACKGROUND:shoutbg.png;
#LYRICSPATH:;
#CDTITLE:;
#MUSIC:shout.ogg;
#OFFSET:-0.000443;
#SAMPLESTART:60.361408;
#SAMPLELENGTH:12.000000;
#SELECTABLE:YES;
#BPMS:0.000000=142.880005
;
#STOPS:
;
#BGCHANGES:16.000=redflare.mp4=1.000=1=0=1=SongBgWithMovieViz==CrossFade==,
48.000=flash=1.600=0=0=1=====,
48.250=redflare.mp4=1.000=0=0=1=====,
80.000=magicball.mp4=1.000=1=1=1=StretchRewind==CrossFade==,
140.000=shoutbg.png=1.000=1=0=1===CrossFade==,
144.000=flash=1.600=0=0=1=====,
144.250=rainbowlightbeams.mp4=1.000=0=1=1=StretchRewind====,
208.000=redflare.mp4=1.000=0=0=0=StretchNoLoop==CrossFade_Fastest==,
272.000=shoutbg.png=1.000=0=0=1===CrossFade_Fastest==,
99999=-nosongbg-=1.000=0=0=0 // don't automatically add -songbackground-
;
#KEYSOUNDS:;
#ATTACKS:;

//---------------dance-single - C. Picardy----------------
#NOTES:
     dance-single:
     :
     Beginner:
     1:
     0.085560,0.147559,0.043400,0.008680,0.000000,69.000000,64.000000,5.000000,1.000000,0.000000,0.000000,0.085560,0.147559,0.043400,0.008680,0.000000,69.000000,64.000000,5.000000,1.000000,0.000000,0.000000:
0000
0000
0000
0000
,
0000
0000
0000
0000
,
0000
0000
0000
0000
,
0000
0000
0000
0000
,
0000
0000
0000
0000
,
0000
0000
0000
0000
,
0000
0000
0000
0000
,
0000
0000
0000
0000
,
0200
0000
0000
0000
,
0000
0000
0000
0000
,
0000
0000
0000
0000
,
0300
0000
0000
0000
,
0010
0000
0000
0000
,
0100
0000
0000
0000
,
0010
0000
0000
0000
,
0100
0000
0000
0000
,
0001
0000
0000
0000
,
1000
0000
0000
0000
,
0001
0000
0000
0000
,
1000
0000
0000
0000
,
0110
0000
0000
0000
,
0100
0000
0000
0000
,
0010
0000
0000
0000
,
1000
0000
0000
0000
,
0001
0000
0000
0000
,
0010
0000
0000
0000
,
0100
0000
0000
0000
,
1000
0000
0000
0000
,
1001
0000
0000
0000
,
0001
0000
0000
0000
,
0100
0000
0000
0000
,
0010
0000
0000
0000
,
1000
0000
0000
0000
,
0100
0000
0000
0000
,
0001
0000
0000
0000
,
0100
0000
0000
0000
,
1001
0000
0000
0000
,
0100
0000
0100
0000
,
0100
0000
0000
0000
,
0010
0000
0000
0000
,
1001
0000
0000
0000
,
0010
0000
0010
0000
,
0010
0000
0000
0000
,
0100
0000
0000
0000
,
0001
0000
0000
0000
,
1000
0000
0000
0000
,
0001
0000
0000
0000
,
1000
0000
0000
0000
,
0100
0000
0000
0000
,
0010
0000
0000
0000
,
0100
0000
0000
0000
,
0010
0000
0000
0000
,
1000
0000
1000
0000
,
1000
0000
0000
0000
,
0001
0000
0001
0000
,
0001
0000
0000
0000
,
0100
0000
0100
0000
,
0100
0000
0000
0000
,
0010
0000
0010
0000
,
0010
0000
0000
0000
,
1001
0000
0000
0000
,
0100
0000
0000
0000
,
0010
0000
0000
0000
,
0100
0000
0000
0000
,
0010
0000
0000
0000
,
1000
0000
0000
0000
,
0001
0000
0000
0000
,
1000
0000
0000
0000
,
0001
0000
0000
0000
;

//---------------dance-single - C. Picardy----------------
#NOTES:
     dance-single:
     :
     Easy:
     3:
     0.238079,0.383654,0.156239,0.208319,0.000000,192.000000,174.000000,18.000000,24.000000,0.000000,0.000000,0.238079,0.383654,0.156239,0.208319,0.000000,192.000000,174.000000,18.000000,24.000000,0.000000,0.000000:
0000
0000
0000
0000
,
0000
0000
0000
0000
,
0000
0000
0000
0000
,
0000
0000
0000
0000
,
1000
0000
0000
0000
,
0001
0000
0000
0000
,
1000
0000
0000
0000
,
0001
0000
0000
0000
,
0100
0000
0100
0000
,
0100
0000
0000
0000
,
0010
0000
0010
0000
,
0010
0000
0000
0000
,
1000
0001
0000
0100
,
0100
0000
0010
1000
,
0001
1000
0000
0010
,
0010
0000
0100
0010
,
1000
0100
0000
0010
,
0010
0000
0001
1000
,
0010
0100
0000
0001
,
0001
0000
1000
0100
,
1001
0000
0100
0000
,
0010
0000
1000
0000
,
0001
0000
0100
0000
,
0010
0000
1000
0000
,
0001
0000
1000
0000
,
0100
0000
0010
0000
,
0001
0000
1000
0000
,
0010
0000
0100
0000
,
0001
0001
0001
0000
,
1000
0000
0010
0000
,
1000
1000
1000
0000
,
0100
0000
0010
0000
,
0100
0010
0100
0000
,
1000
0000
0001
0000
,
0010
0100
0010
0000
,
0001
0000
0100
0000
,
1001
1001
1001
1001
,
0010
0100
0010
0100
,
0001
0000
1000
0000
,
0100
0000
0010
0000
,
0110
0110
0110
0110
,
1000
0001
1000
0001
,
0100
0000
0010
0000
,
1000
0000
0001
0100
,
0020
0030
2000
3000
,
0002
0003
0100
0010
,
2000
3000
0001
1000
,
0100
0000
0010
0010
,
0002
0003
0020
0030
,
0200
0300
1000
0001
,
0200
0300
0010
1000
,
0001
0000
0100
0010
,
1000
1000
1000
0001
,
0100
0100
0100
0001
,
0010
0010
0010
0001
,
1000
1000
1000
0100
,
0010
0001
0010
0001
,
1000
0001
1000
0001
,
0100
0001
0100
0001
,
0100
0010
1000
0001
,
0220
0330
2002
3003
,
0010
0100
1000
0001
,
2002
3003
0220
0330
,
1000
0001
0100
0010
,
0220
0330
2002
3003
,
0100
0010
1000
0001
,
2002
3003
0220
0330
,
1000
0001
0100
0010
,
1001
0000
0000
0000
;

//---------------dance-single - C. Picardy----------------
#NOTES:
     dance-single:
     :
     Medium:
     5:
     0.368278,0.383654,0.260399,0.104159,0.000000,297.000000,267.000000,30.000000,12.000000,0.000000,0.000000,0.368278,0.383654,0.260399,0.104159,0.000000,297.000000,267.000000,30.000000,12.000000,0.000000,0.000000:
// measure 0
0000
0000
0000
0000
,  // measure 1
0000
0000
0000
0000
,  // measure 2
0000
0000
0000
0000
,  // measure 3
0000
0000
0000
0000
,  // measure 4
1000
1000
0000
0001
,  // measure 5
0100
0000
0010
0010
,  // measure 6
1000
0001
0000
0100
,  // measure 7
0100
0000
0010
1000
,  // measure 8
0002
0000
0023
0000
,  // measure 9
0032
0000
0203
0000
,  // measure 10
0320
0000
2030
0000
,  // measure 11
3200
0000
0000
0300
,  // measure 12
1001
0000
0100
0000
0010
0000
0100
0010
,  // measure 13
0100
0001
1000
1000
,  // measure 14
0100
0000
0010
0000
0001
0000
1000
0001
,  // measure 15
1000
0010
0100
0001
,  // measure 16
0110
0000
1000
0000
0001
0000
0100
0010
,  // measure 17
0100
0001
0010
0100
,  // measure 18
0110
0000
0001
0000
1000
0000
0100
0010
,  // measure 19
0100
1000
0010
0010
,  // measure 20
1001
0000
0010
0000
0100
0000
1000
0100
,  // measure 21
0010
0001
1000
0001
,  // measure 22
0100
0000
0101
0000
1000
0001
0000
0010
,  // measure 23
0000
0100
0000
0010
0000
0000
0100
0000
,  // measure 24
1100
0000
0010
0000
0100
0000
0001
0100
,  // measure 25
0010
1000
0001
0010
,  // measure 26
0010
0100
1000
0010
,  // measure 27
0120
0000
0000
1000
0000
1030
0000
0000
,  // measure 28
0101
0000
0010
0000
0100
0000
0010
0001
,  // measure 29
0100
0000
0010
0000
1000
0000
0100
1000
,  // measure 30
0010
0000
0100
0000
0001
0000
1000
0100
,  // measure 31
0000
0010
0000
0100
0000
0000
1000
0000
,  // measure 32
0110
1000
0001
0010
,  // measure 33
0100
0000
1000
0000
0001
0000
0100
0001
,  // measure 34
1000
0100
0010
0011
,  // measure 35
2000
0000
0000
0100
0000
0100
3000
0000
,  // measure 36
0011
0100
1010
0100
,  // measure 37
0001
0100
0010
0000
0010
0000
1000
0001
,  // measure 38
0100
0000
0010
0000
1000
0000
0001
0010
,  // measure 39
0001
0000
0100
0000
0010
1000
0100
0000
,  // measure 40
1010
0100
0011
1000
,  // measure 41
0001
0010
0100
0000
1000
0000
0001
1000
,  // measure 42
0100
0000
0010
0000
0001
0000
1000
0100
,  // measure 43
1000
0000
0010
0000
0100
0001
0100
0000
,  // measure 44
2001
0000
0000
0100
0000
0000
3010
0000
,  // measure 45
0100
0000
0001
0000
0010
0000
0100
0010
,  // measure 46
0001
0010
0100
0010
,  // measure 47
0001
0000
0100
0000
0010
1000
0100
0000
,  // measure 48
0012
0000
0000
1000
0000
0000
0103
0000
,  // measure 49
0010
0000
1000
0000
0001
0000
1000
0100
,  // measure 50
0000
0020
0000
0000
0001
0000
0000
0000
,  // measure 51
0130
0000
0001
0100
,  // measure 52
1010
0000
0100
0000
0001
0000
1000
0100
,  // measure 53
0010
0000
0010
0000
1001
0000
0001
0100
,  // measure 54
0010
0000
0010
0000
1001
0000
0100
0010
,  // measure 55
0100
0000
0100
0000
0001
0000
1000
0100
,  // measure 56
0010
0000
1100
0000
0010
0000
0100
0001
,  // measure 57
0010
0000
1100
0000
0001
0000
0010
0100
,  // measure 58
1000
0000
1000
0000
0101
0000
1000
0001
,  // measure 59
0100
0000
0100
0000
0010
1000
0001
0000
,  // measure 60
0100
0110
0100
0101
,  // measure 61
1000
0100
1000
0010
,  // measure 62
0100
1010
0100
1010
,  // measure 63
0001
0000
1000
0000
0010
0100
0001
0000
,  // measure 64
1000
0110
0001
0110
,  // measure 65
0001
0010
0001
0100
,  // measure 66
0010
0101
0010
0101
,  // measure 67
1000
0000
0010
0000
0100
0001
1000
0000
,  // measure 68
0001
0000
0000
0000
;

//---------------dance-single - C. Picardy----------------
#NOTES:
     dance-single:
     :
     Challenge:
     10:
     0.771276,0.737796,0.546837,0.433998,0.716096,622.000000,559.000000,63.000000,50.000000,18.000000,0.000000,0.771276,0.737796,0.546837,0.433998,0.716096,622.000000,559.000000,63.000000,50.000000,18.000000,0.000000:
0000
0000
0000
0000
,
0000
0000
0000
0000
,
0000
0000
0000
0000
,
0000
0000
0000
0000
,
1000
0001
0000
0000
1000
0001
0000
0100
0000
0000
0010
0000
1000
0010
0000
1000
,
0000
0010
0000
0000
0000
0000
0100
0000
0001
0010
0000
0000
0001
0100
0000
0000
,
0001
1000
0000
0000
0100
1000
0000
0100
0000
0000
0010
0000
0001
0010
0000
0001
,
0000
0010
0000
0000
0000
0000
0100
0000
0010
0100
0010
0100
1000
0001
1000
0001
,
1000
0100
0020
0M00
0001
0000
013M
0100
,
0010
0001
0200
000M
0010
0310
0001
0010
,
1M00
1000
0020
0000
0001
0000
100M
1030
,
0100
0000
M010
0000
0M02
0000
00M0
0000
0103
0010
0100
0010
1000
0001
1000
0001
,
1000
0000
0100
0000
1000
0010
0000
0100
0000
0000
0001
0100
0001
1000
0000
0001
,
0000
1001
0000
0000
0001
0000
1000
0100
0010
0001
0000
0010
0100
1000
0000
0001
,
0100
0000
0010
0000
1000
0100
0000
0010
0000
0000
0100
1000
0001
0010
0000
0100
,
0000
0110
0000
0000
0001
0000
0010
0100
1000
0001
0000
0001
0100
0010
0000
0010
,
1000
0000
0001
0000
0010
0001
0000
0100
0000
0000
0001
0010
0100
1000
0000
0100
,
0000
1001
0000
0000
0011
0000
1000
0100
0010
0001
0000
0100
0010
1000
0000
0001
,
0010
0000
0100
0000
0010
0001
0000
1000
0000
0000
0010
0100
0001
1000
0000
0001
,
0000
1010
0000
0000
0110
0000
1000
0010
0100
0001
0000
0010
0001
0100
0010
0000
,
0110
0000
0010
0000
0001
0000
0010
0000
1000
0000
0100
1000
0010
0000
0100
0000
,
0001
0000
0010
0000
1000
0000
0010
0000
0001
0000
0100
0000
0010
0100
0010
0000
,
1000
0000
0001
0000
0100
0000
0001
0000
1000
0000
0001
0100
0001
0000
0010
0000
,
0100
0000
1000
0000
0100
0000
0001
0000
0100
0000
1000
0000
0001
0010
0100
0000
,
0010
0000
0001
0000
0100
0000
0001
0000
0010
0000
0001
1000
0010
0000
0100
0000
,
0001
0000
0100
0000
1000
0000
0100
0000
0001
0000
0100
0000
0010
1000
0010
0000
,
1000
0000
0100
0000
0010
0000
0100
0000
1000
0000
0100
0010
0100
0000
1000
0000
,
1020
0000
0000
0000
0000
0000
M10M
0000
0000
0000
1030
0001
0100
0000
0001
0000
,
0010
0000
0100
0000
0010
0000
0001
0000
0100
0000
0001
0010
0001
0000
0100
0000
,
0010
0000
1000
0000
0100
0000
1000
0000
0001
0010
0001
0000
1000
0010
1000
0010
,
1000
0000
0001
0000
0100
0000
0010
0000
1000
0000
0010
1000
0010
0000
0100
0000
,
0001
0000
0010
0000
1000
0000
0010
0000
0001
0100
0001
0000
1000
0100
1000
0100
,
1000
0000
0100
0000
0001
0000
0100
0000
0010
0000
0100
1000
0100
0000
0010
0000
,
0001
0000
0100
0000
1000
0000
0100
0000
0010
0100
0010
0000
1000
0001
1000
0001
,
1000
0000
0100
0000
0010
0000
0001
0000
0010
0000
0100
1000
0001
0000
1000
0000
,
1002
0000
0000
MM10
0000
1MM3
0000
MMMM
,
0022
0000
0000
0000
0000
0000
0000
0000
0000
0033
0000
0000
2200
0000
0000
0000
0000
0000
0000
0000
0000
3300
0000
0000
0202
0000
0000
0000
0000
0000
0000
0000
0303
0010
0000
0000
1000
0000
0000
0000
0000
0000
1010
0000
0000
0000
0000
0000
,
1001
0000
0100
0000
1000
0000
0100
0000
0010
0000
0001
0000
0100
0010
0100
0000
,
1001
0000
0100
0000
0010
0000
0000
0000
0010
0000
0000
1000
0001
0000
0100
0000
,
0011
0000
0000
0000
1010
0000
0000
0000
0001
0000
1000
0000
0100
1000
0100
0000
,
2002
0000
0000
0000
0000
0000
0000
0000
0000
3003
0000
0000
0202
0000
0000
0000
0000
0000
0000
0000
0000
0303
0000
0000
2200
0000
0000
0000
0000
0000
0000
0000
3300
0001
0000
0000
1000
0000
0000
0000
0000
0000
1001
0000
0000
0000
0000
0000
,
0101
0000
0010
0000
1000
0000
0100
0000
0010
0000
0001
0000
0100
0010
0100
0000
,
1001
0000
0010
0000
0100
0000
0000
0000
0010
0000
0000
0001
0010
0000
0001
0000
,
0100
0000
0000
0000
1010
0000
0000
0000
1001
0000
1001
0000
0001
1000
0100
0000
,
0010
0000
0100
0000
1000
0000
0100
0000
0001
0000
0100
0010
0100
0000
0010
0000
,
0001
0000
0100
0000
1000
0000
0100
0000
0001
0000
1000
0000
0001
0010
0001
0010
,
0001
0000
1000
0000
0010
0000
1000
0000
0001
0000
0100
0010
0100
0000
0001
0000
,
0010
0000
0100
0000
1000
0000
0100
0000
0001
0000
0100
0000
1000
0010
1000
0000
,
1001
0000
0100
0000
0010
0000
1000
0000
0001
0000
0010
0100
1000
0000
0001
0000
,
0100
0000
0010
0000
1000
0000
0100
0000
0010
0001
0010
0000
0100
1000
0100
1000
,
0100
0000
0010
0000
0001
0000
1000
0000
0010
0000
0100
0001
1000
0000
0100
0000
,
0010
0000
0001
0000
0010
0000
0100
0000
1000
0000
0001
0000
0010
0001
0100
0000
,
2002
0000
0000
3003
0202
0000
0000
0303
0110
0000
0010
1000
0001
0000
0010
0000
,
0220
0000
0000
0330
2200
0000
0000
3300
1001
0000
0101
0000
0100
0010
1000
0000
,
0220
0000
0000
0330
2020
0000
0000
3030
1001
0000
0100
0010
0001
0000
0100
0000
,
0202
0000
0000
0303
2200
0000
0000
3300
1010
0000
1001
0000
0100
0010
0100
0000
,
0202
0000
0000
0303
0022
0000
0000
0033
1010
0000
1000
0001
0100
0000
0010
0000
,
2020
0000
0000
3030
2002
0000
0000
3003
0011
0000
1001
0000
0010
0100
1000
0000
,
2002
0000
0000
3003
0220
0000
0000
0330
1001
0000
0100
0010
0100
0000
0001
0000
,
0220
0000
0000
0330
2002
0000
0000
3003
0110
0000
1001
0000
0010
1000
0001
0000
,
0001
0010
0000
0100
0010
0100
0000
1000
0000
0000
0001
0100
0010
1000
0000
0001
,
0000
0101
0000
0000
1001
0000
1000
0100
0010
0001
0000
0010
0100
1000
0000
0001
,
0100
0010
0000
0100
0010
0100
0000
0001
0000
0000
1000
0100
0010
0001
0000
1000
,
0000
0011
0000
0000
1001
0000
0001
0100
0010
1000
0000
0100
0010
0001
0000
1000
,
0010
0100
0000
0001
1000
0001
0000
0010
0000
0000
0100
1000
0010
0100
0000
0001
,
0000
1010
0000
0000
0110
0000
1000
0001
0100
0010
0000
1000
0100
0010
0000
0001
,
0010
0100
0000
1000
0001
0100
0000
0001
0000
0000
0010
0100
1000
0001
0000
0100
,
0000
0011
0000
0000
0101
0000
0010
0100
1000
0001
0000
0010
0100
0010
0000
0001
,
1000
0000
0000
0000
;

//---------------dance-single - C. Picardy----------------
#NOTES:
     dance-single:
     :
     Hard:
     8:
     0.484837,0.503546,0.364558,0.112839,0.169259,391.000000,349.000000,42.000000,13.000000,0.000000,0.000000,0.484837,0.503546,0.364558,0.112839,0.169259,391.000000,349.000000,42.000000,13.000000,0.000000,0.000000:
0000
0000
0000
0000
,
0000
0000
0000
0000
,
0000
0000
0000
0000
,
0000
0000
0000
0000
,
1000
0000
0000
0000
0100
0000
0000
0000
1000
0000
0000
0000
0010
0000
0000
0010
,
0000
0000
0100
0001
,
0010
0000
0000
0000
0001
0000
0000
0000
1000
0000
0000
0000
0100
0000
0000
0100
,
0000
0000
0010
0100
,
1000
0100
1000
0000
0100
0000
0010
0001
,
0010
0001
0100
0010
,
1000
0010
1000
0000
0001
0000
0100
0010
,
0100
0000
0001
0000
1000
0100
0010
0001
,
0100
0000
0000
0000
1001
0000
0000
0000
0100
0000
0000
0100
0010
0000
0000
0000
,
1000
0000
0000
0000
0101
0000
0000
0000
0001
0000
0000
0001
1000
0000
0100
0000
,
0010
0000
0000
0000
1100
0000
0000
0000
0001
0000
0000
1000
0001
0000
0010
0000
,
0100
0000
0000
0000
0011
0000
0000
0000
0100
0000
0000
0100
0010
0000
0100
0000
,
0001
0000
0000
0000
0110
0000
0000
0000
0010
0000
0000
0010
1000
0000
0001
0000
,
0100
0000
0000
0000
1010
0000
0000
0000
0001
0000
0000
0001
0010
0000
0100
0000
,
0010
0000
0000
0000
0011
0000
0000
0000
1000
0000
0000
0001
0010
0000
0001
0000
,
0100
0000
0000
0000
1001
0000
0000
0000
0100
0010
0000
0010
0100
0000
0001
0000
,
1000
0000
0000
0000
0100
0000
0000
0000
0010
0000
0000
0001
0010
0000
0100
0000
,
1000
0000
0000
0000
0001
0000
0000
0000
0100
0000
0000
0000
0010
0100
0010
0000
,
1000
0000
0000
0000
0001
0000
0000
0000
1000
0000
0000
0001
1000
0000
0000
0000
,
0100
0000
0000
0000
0010
0000
0000
0000
0100
0000
0000
0000
1000
0100
1000
0000
,
0001
0000
0000
0000
0100
0000
0000
0000
0001
0000
0000
0001
0010
0000
0000
0000
,
0100
0000
0000
0000
0010
0000
0000
0000
0001
0000
0000
0000
0100
0001
0100
0000
,
0010
0000
0000
0000
1000
0000
0000
0000
0001
0000
0000
1000
0010
0000
0000
0000
,
0200
0000
0000
0000
0000
0000
0302
0000
0000
0000
1003
0000
0010
1000
0010
0000
,
0100
0000
0000
0000
0101
0000
0000
0000
1000
0000
0000
0001
1000
0000
0000
0000
,
0100
0000
0000
0000
0011
0000
0000
0000
1000
0000
0000
0000
0100
1000
0100
0000
,
0010
0000
0000
0000
0011
0000
0000
0000
0010
0000
0000
0010
0100
0000
0000
0000
,
1000
0000
0000
0000
0101
0000
0000
0000
0010
0000
0000
0000
0100
0010
0100
0000
,
0001
0000
0000
0000
0110
0000
0000
0000
1000
0000
0000
0001
0010
0000
0000
0000
,
0100
0000
0000
0000
1100
0000
0000
0000
0010
0000
0000
0000
0010
0100
0010
0000
,
1000
0110
0001
1001
,
0201
0000
0000
0001
0000
0301
0000
0000
,
0101
0010
1100
0001
,
1000
0000
0100
0000
0010
0000
0001
0000
0010
0000
0100
0000
1000
0100
1000
0000
,
0010
1001
0100
1001
,
0010
0000
0110
0000
1000
0001
0100
0010
,
1000
1010
0011
0100
,
0001
0000
0100
0000
0010
0000
1000
0000
0100
0000
0010
0000
0001
0100
0001
0000
,
0010
1100
0010
0101
,
1000
0000
0110
0000
0001
0100
0010
0000
,
1002
0000
0000
0010
0000
0000
0103
0100
,
0020
0000
1000
0000
0100
0000
0031
0010
,
2000
0000
0100
0000
0010
0000
3001
1000
,
0200
0000
0310
0000
0001
0010
0100
1000
,
2100
0000
0000
0010
0000
0000
3001
0001
,
0200
0000
1000
0000
0310
1000
0010
0100
,
0020
0000
1000
0000
0100
0000
1030
0100
,
0020
0000
0001
0000
0130
1000
0001
0100
,
0010
0000
1001
0000
0010
0100
1000
0001
,
0100
0000
1010
0000
0001
0100
1000
0100
,
0001
0000
0011
0000
0100
0010
0001
0010
,
0100
0000
0011
0000
1000
0100
0010
0100
,
1000
0000
0101
0000
1000
0010
0100
0010
,
1000
0000
0110
0000
0001
0010
0100
1000
,
0010
0000
1001
0000
0100
0010
1000
0100
,
0010
0000
1001
0000
0001
0100
0010
1000
,
0001
0000
0000
0001
0100
0000
0000
0000
0100
0000
0000
0100
0010
0000
0000
0000
,
0010
0000
0000
0010
1000
0000
0000
0000
1000
0000
0000
1000
0001
0000
0000
0000
,
0010
0000
0000
0010
0100
0000
0000
0000
1000
0000
0000
1000
0010
0000
0000
0000
,
0100
0000
0000
0100
0001
0000
0000
0000
0001
0000
0000
0001
0010
0000
0000
0000
,
0100
0000
0000
0000
0011
0000
0000
0000
1000
0000
0000
0100
1000
0000
0000
0000
,
0010
0000
0000
0000
0101
0000
0000
0000
1000
0000
0000
0010
1000
0000
0000
0000
,
0001
0000
0000
0000
0110
0000
0000
0000
1000
0000
0000
0010
0100
0000
0000
0000
,
0001
0000
0000
0000
1100
0000
0000
0000
0010
0000
0000
0010
0100
0000
0001
0000
,
2002
3003
0000
0000
;
