#TITLE:Shadow Raver;
#SUBTITLE:;
#ARTIST:Lee Jackson;
#TITLETRANSLIT:;
#SUBTITLETRANSLIT:;
#ARTISTTRANSLIT:;
#GENRE:;
#CREDIT:;
#BANNER:shadowraverbn.png;
#BACKGROUND:shadowraverbg.png;
#LYRICSPATH:;
#CDTITLE:;
#MUSIC:shadowraver.ogg;
#OFFSET:-0.000927;
#SAMPLESTART:51.163860;
#SAMPLELENGTH:12.000000;
#SELECTABLE:YES;
#BPMS:0.000000=150.009995
;
#STOPS:
;
#BGCHANGES:12.000=slowredstreaks.mp4=1.000=1=0=1=SongBgWithMovieViz==CrossFade==,
16.000=slowredstreaks.mp4=1.000=0=1=1=StretchRewind==CrossFade_Fastest==,
64.000=lightninghell.mp4=1.000=1=0=0=StretchNoLoop==CrossFade==,
96.000=flash=1.400=0=0=1=====,
96.250=redstars.mp4=1.000=0=1=1=StretchRewind====,
128.000=flash=1.800=0=0=1=====,
128.250=spinningflares.mp4=2.000=0=1=1=StretchRewind====,
160.000=slowredstreaks.mp4=1.000=1=0=1=SongBgWithMovieViz==CrossFade==,
192.000=slowredstreaks.mp4=1.000=0=1=1=StretchRewind==CrossFade_Fastest==,
224.000=lightninghell.mp4=1.000=0=0=0=StretchNoLoop==CrossFade_Fastest==,
256.000=redstars.mp4=1.000=0=1=1=StretchRewind==CrossFade_Fastest==,
288.000=shadowraverbg.png=1.000=1=0=1===CrossFade==,
99999=-nosongbg-=1.000=0=0=0 // don't automatically add -songbackground-
;
#KEYSOUNDS:;
#ATTACKS:;

//---------------dance-single - C. Picardy----------------
#NOTES:
     dance-single:
     :
     Beginner:
     1:
     0.085403,0.122980,0.025621,0.051242,0.000000,70.000000,67.000000,3.000000,6.000000,0.000000,0.000000,0.085403,0.122980,0.025621,0.051242,0.000000,70.000000,67.000000,3.000000,6.000000,0.000000,0.000000:
0000
0000
0000
0000
,
0000
0000
0000
0000
,
0000
0000
0000
0000
,
0000
0000
0000
0000
,
2000
0000
0000
0000
,
3000
0000
0000
0000
,
0002
0000
0000
0000
,
0003
0000
0000
0000
,
0100
0000
0000
0100
,
0000
0000
0000
0000
,
0010
0000
0000
0010
,
0000
0000
0000
0000
,
1000
0000
0000
1000
,
0000
0000
0000
0000
,
0001
0000
0000
0001
,
0000
0000
0000
0000
,
1001
0000
0000
0100
,
0000
0000
0000
0000
,
0010
0000
0000
0100
,
0000
0000
0000
0000
,
1000
0000
0000
0001
,
0000
0000
0000
0000
,
0010
0000
0000
1000
,
0000
0000
0000
0000
,
0001
0000
0000
0000
,
0001
0000
0000
0000
,
1000
0000
0000
0000
,
1000
0000
0000
0000
,
0010
0000
0000
0000
,
0010
0000
0000
0000
,
0100
0000
0000
0000
,
0100
0000
0000
0000
,
0001
0000
0001
0000
,
0001
0000
0000
0000
,
1000
0000
1000
0000
,
1000
0000
0000
0000
,
0100
0000
0100
0000
,
0100
0000
0000
0000
,
0010
0000
0010
0000
,
0010
0000
0000
0000
,
0200
0000
0000
0300
,
0000
0000
0000
0000
,
0020
0000
0000
0030
,
0000
0000
0000
0000
,
2000
0000
0000
3000
,
0000
0000
0000
0000
,
0002
0000
0000
0003
,
0000
0000
0000
0000
,
1000
0000
0000
0000
,
0001
0000
0000
0000
,
1000
0000
0000
0000
,
0001
0000
0000
0000
,
0100
0000
0000
0000
,
0010
0000
0000
0000
,
0100
0000
0000
0000
,
0010
0000
0000
0000
,
1001
0000
0000
0000
,
0010
0000
0000
0000
,
0100
0000
0000
0000
,
0010
0000
0000
0000
,
0001
0000
0000
0000
,
1000
0000
0000
0000
,
0001
0000
0000
0000
,
1000
0000
0000
0000
,
0110
0000
0000
0000
,
0100
0000
0000
0000
,
0010
0000
0000
0000
,
1000
0000
0000
0000
,
0001
0000
0000
0000
,
1000
0000
0000
0000
,
0001
0000
0000
0000
,
0100
0000
0000
0000
,
0010
0000
0000
0000
;

//---------------dance-single - C. Picardy----------------
#NOTES:
     dance-single:
     :
     Easy:
     3:
     0.237908,0.342893,0.136645,0.128104,0.000000,195.000000,179.000000,16.000000,15.000000,0.000000,0.000000,0.237908,0.342893,0.136645,0.128104,0.000000,195.000000,179.000000,16.000000,15.000000,0.000000,0.000000:
// measure 0
0000
0000
0000
0000
,  // measure 1
0000
0000
0000
0000
,  // measure 2
0000
0000
0000
0000
,  // measure 3
0000
0000
0000
0000
,  // measure 4
1000
0000
0001
0000
,  // measure 5
0100
0000
0001
0000
,  // measure 6
1000
0000
0100
0000
,  // measure 7
1000
0000
0010
0000
,  // measure 8
0100
0000
0000
1001
,  // measure 9
0001
0000
0100
0000
,  // measure 10
0010
0000
0000
1001
,  // measure 11
0100
0000
0010
0000
,  // measure 12
1000
0000
0000
0110
,  // measure 13
0100
0000
0001
0000
,  // measure 14
1000
0000
0000
1001
,  // measure 15
0001
0001
0000
0010
,  // measure 16
1001
0000
0100
0000
,  // measure 17
0010
0000
1000
0000
,  // measure 18
0001
0000
0001
0000
,  // measure 19
0100
0000
0010
0000
,  // measure 20
1000
0000
1000
0000
,  // measure 21
0100
0000
0010
0000
,  // measure 22
0100
0000
0100
0000
,  // measure 23
1000
0100
0010
0001
,  // measure 24
2002
0000
0000
0000
,  // measure 25
3003
0000
0000
0100
,  // measure 26
2002
0000
0000
0000
,  // measure 27
3003
0000
1000
0001
,  // measure 28
0220
0000
0000
0000
,  // measure 29
0330
0000
0010
0100
,  // measure 30
0220
0000
0000
0000
,  // measure 31
0330
0000
1001
0010
,  // measure 32
1001
0100
0010
0100
,  // measure 33
0010
0100
0010
0100
,  // measure 34
0001
1000
0001
1000
,  // measure 35
0001
1000
0001
1000
,  // measure 36
0110
1000
0001
0100
,  // measure 37
0010
1000
0100
0010
,  // measure 38
0001
0100
0010
1000
,  // measure 39
0100
0010
0001
0100
,  // measure 40
0020
0000
0000
0130
,  // measure 41
0000
0000
0000
0000
,  // measure 42
2000
0000
0000
3001
,  // measure 43
0000
0000
0000
0001
,  // measure 44
0200
0000
0000
0310
,  // measure 45
0000
0000
0000
1000
,  // measure 46
0002
0000
0000
1000
,  // measure 47
1003
0000
0100
0010
,  // measure 48
1001
0100
0010
1000
,  // measure 49
0000
0001
1000
0100
,  // measure 50
0010
0000
0100
1000
,  // measure 51
0001
0100
0000
0010
,  // measure 52
1000
0001
0100
0010
,  // measure 53
0000
1000
0001
0000
,  // measure 54
1000
0100
1000
0020
,  // measure 55
0000
0100
0100
0130
,  // measure 56
1001
0100
0010
1000
,  // measure 57
0000
0001
0000
1000
,  // measure 58
0100
0010
0001
0100
,  // measure 59
0000
0010
0000
1000
,  // measure 60
0001
0100
0010
1000
,  // measure 61
0000
0001
0000
0010
,  // measure 62
0100
0010
0001
0100
,  // measure 63
0010
0010
0000
0010
,  // measure 64
1001
0001
0100
0010
,  // measure 65
1000
0000
1000
0001
,  // measure 66
1000
0100
0010
0001
,  // measure 67
0000
1000
1000
0001
,  // measure 68
0100
0010
1000
0100
,  // measure 69
0000
0010
0010
0010
,  // measure 70
0001
1000
0010
0100
,  // measure 71
0000
0001
0010
0100
,  // measure 72
2002
0000
0000
0000
,  // measure 73
3003
0000
0000
0000
;

//---------------dance-single - C. Picardy----------------
#NOTES:
     dance-single:
     :
     Medium:
     5:
     0.339172,0.374065,0.179346,0.042701,0.000000,278.000000,257.000000,21.000000,5.000000,0.000000,0.000000,0.339172,0.374065,0.179346,0.042701,0.000000,278.000000,257.000000,21.000000,5.000000,0.000000,0.000000:
0000
0000
0000
0000
,
0000
0000
0000
0000
,
0000
0000
0000
0000
,
0000
0000
0010
0010
,
0110
0100
1000
0001
,
0100
0010
1000
0001
,
0010
0100
1000
0001
,
0100
0010
1000
0001
,
1001
0000
0000
1100
0000
0000
0011
0000
,
0000
0000
1000
0000
0010
0000
0100
0001
,
1000
0000
0000
1001
0000
0000
0110
0000
,
0000
0000
0001
0000
1000
0000
0100
0010
,
0001
0000
0000
0101
0000
0000
1010
0000
,
0000
0000
0100
0000
0010
0000
0001
0100
,
1000
0000
0000
0110
0000
0000
1000
0001
,
0000
0001
0000
0000
1000
0000
0100
0000
,
0110
0000
0000
1001
0000
0000
0110
0000
,
0001
0000
0100
0000
0001
0000
1000
0010
,
0100
0000
0000
1010
0000
0000
0011
0000
,
1000
0000
0100
0000
0010
0000
0100
1000
,
0010
0000
0000
1010
0000
0000
0101
0000
,
1000
0000
0001
0000
0010
0000
0100
0010
,
0001
0000
0000
0110
0000
0000
1001
0000
,
0000
0100
0000
0010
0000
0100
0000
0001
,
2000
0010
0000
0001
,
0000
3100
0000
0001
,
0200
0010
0000
0001
,
0000
0310
0000
1000
,
0200
0010
0000
0001
,
0000
0310
0000
1000
,
0020
0100
0000
0001
,
0000
1030
0101
1100
,
0001
0100
0001
0010
,
0100
0000
0010
0000
0001
0000
0100
0010
,
1000
0100
1000
0010
,
1000
0000
0100
0000
0010
0000
0100
0010
,
0001
0000
1000
0000
0010
0000
0100
0001
,
0010
0000
0100
0000
1000
0000
0010
1000
,
0100
0000
0010
0000
0001
0000
0100
0010
,
1000
0000
0100
0000
0010
0000
0001
0100
,
0010
0000
0000
1000
0000
0000
0001
0000
,
0000
1000
1000
0000
,
0001
0000
0000
0100
0000
0000
0010
0000
,
0000
0100
0100
0000
,
0010
0000
0000
0100
0000
0000
0010
0000
,
0000
0001
0001
0000
,
1000
0000
0000
1000
0000
0000
1000
0100
,
0000
0100
0000
0000
0010
0010
0010
0000
,
0001
0010
0001
0100
,
0010
1000
0100
1000
,
0010
0100
0001
1000
,
0100
0010
0001
0100
,
0010
1000
0001
0100
,
0010
1000
0100
0010
,
0001
1000
0100
0010
,
0000
0001
0000
0010
0000
0100
0000
1000
,
0001
0000
0100
0010
0000
0000
0010
0000
,
1000
0001
0100
0010
,
1000
0000
0001
1000
0000
0000
1000
0000
,
0100
0010
0001
1000
,
0010
0000
0100
0010
0000
0000
0010
0000
,
0100
0001
1000
0100
,
0010
0000
0001
0010
0000
0000
0100
0010
,
0000
0100
0000
0000
1000
0000
0001
0000
,
0101
0100
0010
1000
,
0001
0000
1000
0001
0000
0000
0100
0000
,
0010
1000
0001
0010
,
0000
0100
0000
0100
0000
1000
0000
1000
,
0001
0100
0001
0010
,
0000
0100
0000
0010
0000
0001
1000
0001
,
1000
0000
0100
0100
0000
0000
0010
0000
,
0000
0001
0000
0100
0000
0010
0000
1000
,
0002
0000
0000
0000
,
0003
0000
0000
0000
;

//---------------dance-single - C. Picardy----------------
#NOTES:
     dance-single:
     :
     Challenge:
     11:
     1.022395,1.028678,0.179346,0.017081,1.366447,838.000000,817.000000,21.000000,2.000000,40.000000,0.000000,1.022395,1.028678,0.179346,0.017081,1.366447,838.000000,817.000000,21.000000,2.000000,40.000000,0.000000:
0000
0000
0000
0000
,
0000
0000
0000
0000
,
0000
0000
0000
0000
,
0000
0000
0000
0000
0000
0000
0000
0000
1000
0001
1000
0000
0100
0010
0000
0010
,
0001
0100
0001
0100
0001
0000
1000
0010
1000
0010
1000
0010
1000
0000
0001
0000
,
1000
0100
1000
0100
1000
0000
0001
0010
0001
0010
0001
0010
0001
0000
1000
0000
,
0010
0100
0010
0100
0010
0000
1000
0001
1000
0001
1000
0001
1000
0000
0100
0000
,
0010
0001
0010
0001
0010
0000
0100
1000
0100
1000
0100
1000
0100
0000
0010
0000
,
0011
0000
0001
1M00
0010
0000
M11M
0000
0100
0000
0001
0000
1MM1
0000
0100
0000
,
0001
0100
0001
0100
0001
0000
1000
0010
1000
0010
1000
0010
1000
0000
0100
0000
,
0110
0000
0100
10M0
0001
0000
1001
0000
M10M
0000
0010
0000
M11M
0000
1000
0000
,
0001
0100
0001
0100
0001
0000
0010
0001
0010
0001
0010
0001
0010
0000
0100
0000
,
1100
0000
1000
0M01
0010
0000
0011
0000
01MM
0000
0010
0000
1M1M
0000
0100
0000
,
0001
0100
0010
0100
0001
0000
1000
0100
0010
0100
1000
0100
0010
0000
0100
0000
,
1100
0000
0100
M010
0001
0000
0011
0000
1000
0000
0010
0000
0110
0000
M1M1
0000
,
0000
0000
11MM
0000
0000
0000
0MM0
0000
0010
0100
0010
0100
0010
0100
0010
0000
,
1001
0000
1000
0001
0100
0000
0010
0000
1000
0001
0010
0000
0100
0000
1000
0000
,
0100
0010
0001
0010
0100
0000
1000
0010
0100
0010
1000
0010
0100
0000
0001
0000
,
1000
0000
0010
0100
0001
0000
1000
0000
0010
1000
0010
0000
1000
0000
0001
0000
,
0100
0010
1000
0010
0100
0000
0001
0010
0100
0010
0001
0010
0100
0000
0010
0000
,
0001
0000
0100
0010
1000
0000
0100
0000
0010
0001
0100
0000
0010
0000
1000
0000
,
0100
0010
0100
0010
0001
0000
1000
0100
0010
0001
0010
0100
1000
0000
0001
0000
,
0100
0000
0100
0010
1000
0000
0001
0000
0010
0100
1000
0000
0001
0000
0100
0010
,
1000
MM11
0000
11MM
0000
M1M1
0000
1MM1
,
1000
0100
1000
0100
0010
0000
0100
0010
0001
0010
0001
0010
0100
0000
1000
0100
,
0010
0100
0010
0100
0010
0000
0001
0010
0001
0100
0001
0100
0010
0000
1000
0000
,
0001
0100
0001
0100
0010
0000
1000
0010
1000
0010
1000
0001
1000
0000
0001
0100
,
0001
0100
0010
1000
0010
0000
1000
0100
1000
0100
0010
0001
0010
0000
0100
0000
,
1000
0100
1000
0100
0010
0000
0001
0010
0100
1000
0100
0010
0001
0000
1000
0100
,
0010
0001
0010
0100
1000
0000
0100
0010
0001
0010
0100
0010
0001
0000
0100
0000
,
0001
0100
0010
1000
0010
0000
1000
0010
0100
0001
0100
0010
1000
0000
0001
0100
,
0010
1000
0010
0100
0001
0000
1000
0000
0001
0010
0001
0010
0100
1000
0100
1000
,
0001
0010
0001
0010
0001
0100
0001
0100
0001
0100
0010
1000
0001
1000
0001
1000
,
0001
1000
0100
1000
0100
1000
0100
1000
0001
0010
0001
0010
0001
0010
0001
0010
,
0100
1000
0010
0100
0001
0100
0001
0100
0001
1000
0100
1000
0010
1000
0010
1000
,
0010
1000
0001
0100
0001
0100
0010
1000
0001
0100
0001
0100
0010
1000
0010
1000
,
0001
1000
0100
0010
0100
1000
0001
0100
0010
0100
0001
1000
0100
0010
0100
1000
,
0001
0100
0010
0100
0001
1000
0100
0010
0001
0100
0010
0100
0001
0010
0100
1000
,
0010
0100
0010
1000
0001
0010
0100
0010
0001
0100
0010
1000
0100
0010
0100
1000
,
0001
0100
0010
1000
0001
1000
0100
0010
0100
1000
0001
0100
0010
1000
0001
0100
,
0040
0000
0000
4000
0000
0030
0400
00M0
,
0000
0000
0000
0000
0000
0000
0000
3000
,
0040
M000
0300
0004
0M00
0030
0400
00M0
,
0000
0000
0000
0000
0000
0000
0003
0000
0000
0000
001M
0000
0000
0010
0000
0000
,
0040
0000
0300
4000
0M00
0030
0004
0000
,
3000
0000
1000
0000
0000
0000
M000
0000
0000
1000
0000
0000
0000
0000
0000
0000
,
0400
0000
0003
0040
000M
0300
1000
4M30
,
0000
0000
0400
0000
00M0
0000
3300
0000
0010
0100
1000
0000
0001
1000
0000
0001
,
1000
0100
1000
0100
1000
0000
0001
0010
0001
0010
0001
0010
0001
0000
1000
0000
,
0001
0100
0001
0100
0001
0000
1000
0010
1000
0010
1000
0010
1000
0000
0001
0000
,
0100
0010
0100
0010
0100
0000
0010
1000
0010
1000
0010
1000
0010
0000
1000
0000
,
0001
0010
0001
0010
0001
0000
1000
0100
1000
0100
1000
0100
1000
0000
0001
0000
,
0100
0010
0100
0001
0100
0000
0010
1000
0010
0100
0010
1000
0010
0000
1000
0000
,
0001
0010
0100
0010
0001
0000
1000
0100
0010
0100
1000
0100
0010
0000
0001
0000
,
0010
0100
0010
0001
0010
0000
0100
0010
0100
1000
0100
0010
0001
0000
1000
0000
,
0010
0100
0001
0100
0010
0000
1000
0100
0010
0100
1000
0001
0100
0000
1001
0000
,
1000
0100
1000
0100
1000
0000
0001
0010
0001
0010
0001
0010
0001
0000
0100
0001
,
0100
0001
0100
0001
0100
0000
0010
1000
0010
1000
0010
1000
0010
0000
1000
0001
,
1000
0001
1000
0001
1000
0000
0100
1000
0100
1000
0100
1000
0100
0000
1000
0010
,
1000
0010
1000
0010
1000
0000
0100
0010
0100
0010
0100
0010
0100
0000
1000
0001
,
0100
0001
0100
0001
0100
0000
0010
1000
0100
1000
0100
1000
0010
0000
0100
0001
,
0100
0001
0100
0010
1000
0000
0001
0100
0001
0100
0010
1000
0010
0000
1000
0100
,
1000
0100
0010
0100
1000
0000
0100
0010
0001
0010
0100
1000
0001
0000
1000
0100
,
0010
0100
0010
0100
1000
0000
0001
0100
0010
0100
0010
0100
0001
0000
1000
0100
,
0010
0001
0010
0100
1000
0000
0100
0010
0001
0010
0100
1000
0001
0000
1000
0100
,
0010
0100
1000
0100
0010
0000
0001
0010
0100
0010
0001
0010
0100
0000
1000
0100
,
0010
0001
0100
0010
0100
0000
0001
0100
0010
0100
0001
0100
0010
0000
1000
0010
,
0100
0001
0100
0010
1000
0000
0001
0100
0010
1000
0010
0100
0001
0000
1000
0100
,
0010
0100
0001
0100
0010
0000
0100
0010
1000
0010
0100
0010
0001
0000
0010
0100
,
0010
1000
0010
0001
0010
0000
0001
0010
0100
0010
1000
0010
0100
0000
0010
0001
,
0100
0010
0100
1000
0100
0000
0010
0100
0010
0001
0010
1000
0010
0000
0100
0010
,
0100
1000
0100
0001
0100
0000
0001
0100
0010
0001
0010
1000
0100
0010
0001
1000
,
2002
0000
0000
0000
,
3003
0000
0000
0000
;

//---------------dance-single - C. Picardy----------------
#NOTES:
     dance-single:
     :
     Hard:
     8:
     0.497777,0.529925,0.213507,0.051242,0.166536,408.000000,383.000000,25.000000,6.000000,35.000000,0.000000,0.497777,0.529925,0.213507,0.051242,0.166536,408.000000,383.000000,25.000000,6.000000,35.000000,0.000000:
0000
0000
0000
0000
,
0000
0000
0000
0000
,
0000
0000
0000
0000
,
0000
0000
0000
0000
0000
0000
0000
0000
1000
0000
0001
0000
0100
0010
0000
0010
,
0100
0000
0000
0000
0001
0000
0000
0000
1000
0100
0000
0000
1100
0000
0000
0000
,
0010
0000
0000
0000
0100
0000
0000
0000
0001
0100
0000
0000
0101
0000
0000
0000
,
1000
0000
0000
0000
0100
0000
0000
0000
0010
0100
0000
0000
0110
0000
0000
0000
,
1000
0000
0000
0000
0001
0000
0000
0000
0100
0001
0000
0000
1000
0000
0010
0000
,
0100
0000
0100
0001
0000
0001
1000
0000
,
0100
0000
0000
0000
0011
0000
0000
0000
0100
0010
0000
0000
0110
0000
0000
0000
,
1000
0000
0010
1000
0000
1000
0010
0000
,
0100
0000
0000
0000
1010
0000
0000
0000
0001
0010
0000
0000
0011
0000
0000
0000
,
0100
0000
0100
1000
0000
1000
0010
0000
,
1000
0000
0000
0000
0110
0000
0000
0000
1000
0010
0000
0000
1010
0000
0000
0000
,
0001
0000
0001
0100
0000
0100
0010
1000
,
0000
1000
0000
0000
0010
0100
1001
0000
,
0110
0000
0100
0001
0000
0001
0010
0000
,
0100
0000
0010
0000
0001
0000
0000
0000
1000
0100
0000
0000
1100
0000
0000
0000
,
0010
0000
0010
0001
0000
0001
1000
0000
,
0010
0000
0100
0000
0001
0000
0000
0000
0010
0001
0000
0000
0011
0000
0000
0000
,
0100
0000
0100
0010
0000
0010
1000
0000
,
0001
0000
0100
0000
1000
0000
0000
0000
0100
0010
0000
0000
0110
0000
0000
0000
,
1000
0000
0001
1000
0000
1000
0100
0000
,
0000
0011
0000
1100
0000
0101
0000
1000
,
0020
0100
1000
1000
,
0100
0000
1000
0000
0130
0000
0001
0001
,
0020
0001
0100
0100
,
0001
1000
0100
0130
,
0012
0100
0010
0010
,
1000
0000
0100
0000
1003
0001
0000
0001
,
2000
0010
0100
0100
,
0001
0000
0000
0000
3010
0000
0000
0000
1000
0100
0000
0000
1000
0010
0000
0000
,
0100
0010
1000
0010
0100
0010
1000
0010
,
0100
0001
0010
0001
0100
0001
0010
0001
,
1000
0100
0010
0100
1000
0100
0010
0001
,
1000
0100
1000
0100
0010
0001
0010
0001
,
1000
0010
0100
0001
1000
0010
0100
0001
,
1000
0100
0010
0001
1000
0100
0010
0001
,
0100
0010
1000
0001
0010
0100
1000
0001
,
0100
0010
1000
0100
0010
0001
0100
0010
,
1000
0000
0000
M001
0000
0000
010M
0000
,
0000
MMMM
MMMM
0000
,
0010
0000
0000
10M0
0000
0000
M001
0000
,
0000
0000
MMMM
0000
0000
0000
MMMM
0000
0000
0000
1000
0000
0000
1000
0000
0000
,
0001
M000
0000
0000
0000
0000
010M
0000
0000
0000
0000
0000
0M10
0000
0000
0000
,
0000
0000
00MM
1000
0000
0000
00MM
0000
0000
0100
10MM
0000
0000
0000
0000
0000
,
M001
0000
0000
010M
0000
0000
0001
MM10
,
0000
0000
MM10
0000
0000
0000
0000
0000
0100
0000
0010
0000
0001
0100
0000
0100
,
0010
0000
1000
0010
0000
0100
0010
0000
,
1000
0000
0100
0000
0001
0000
0000
0000
1000
0100
0000
0000
1000
0000
0000
0000
,
0010
0000
0100
0010
0000
0100
0001
0000
,
0001
0000
0100
0000
1000
0000
0000
0000
0100
0001
0000
0000
0100
0000
0000
0000
,
0010
0000
1000
0100
0000
1000
0010
0000
,
0100
0000
0001
0000
0010
0000
0000
0000
0100
0010
0000
0000
0100
0000
0000
0000
,
0010
0000
0001
0010
0000
0001
1000
0000
,
0000
0000
0110
0000
0000
0000
1001
0000
0000
0000
1000
0000
0010
0100
0000
0100
,
0001
0000
1000
0100
0001
0100
1000
0000
,
0010
0000
0100
0000
0001
0000
0000
0000
1000
0100
0000
0000
1100
0000
0000
0000
,
0010
0000
0100
0010
1000
0010
0100
0000
,
0001
0000
0010
0000
1000
0000
0000
0000
0010
0001
0000
0000
0011
0000
0000
0000
,
0100
0000
0001
0010
0100
0010
0001
0000
,
0100
0000
0010
0000
1000
0000
0000
0000
0100
0010
0000
0000
0110
0000
0000
0000
,
0100
0000
0010
0100
1000
0100
0010
0001
,
0000
0000
0001
0000
0000
0000
0000
0000
1000
0100
0000
1000
0001
0000
0100
0000
,
0010
0000
0000
0100
0010
0000
1000
0000
0100
0000
0010
0000
0001
0000
0000
0000
,
0100
0000
0000
0001
0010
0000
0100
0000
0010
0000
0001
0000
0100
0000
0000
0000
,
0010
0000
0000
1000
0100
0000
0010
0000
0100
0000
1000
0000
0010
0000
0000
0100
,
0010
1000
0100
0010
0000
0001
0100
0010
,
1000
0000
0000
0010
1000
0000
0001
0000
0100
0000
0010
0000
1000
0000
0000
0100
,
0010
0001
0010
0100
0000
1000
0100
0010
,
0001
0000
0000
0001
0100
0000
0001
0000
0010
0000
0100
0000
1000
0000
0000
0000
,
0000
0000
0011
0000
0000
0000
1100
0000
0000
0000
1000
0000
0001
0010
0000
0002
,
0200
0000
0000
0000
,
0303
0000
0000
0000
;
