#TITLE:Scatman's World;
#SUBTITLE:;
#ARTIST:Scatman John;
#TITLETRANSLIT:;
#SUBTITLETRANSLIT:;
#ARTISTTRANSLIT:;
#GENRE:;
#CREDIT:;
#BANNER:scatmansworldbn.png;
#BACKGROUND:scatmansworldbg.png;
#LYRICSPATH:;
#CDTITLE:;
#MUSIC:scatmansworld.ogg;
#OFFSET:0.000910;
#SAMPLESTART:25.850019;
#SAMPLELENGTH:12.000005;
#SELECTABLE:YES;
#BPMS:0.000000=146.990005
;
#STOPS:
;
#BGCHANGES:0.000=scatmanpart1.mp4=1.000=0=0=0=StretchNoLoop====,
196.000=scatmanpart2.mp4=1.000=0=0=0=StretchNoLoop====,
99999=-nosongbg-=1.000=0=0=0 // don't automatically add -songbackground-
;
#KEYSOUNDS:;
#ATTACKS:;

//---------------dance-single - C. Picardy----------------
#NOTES:
     dance-single:
     :
     Beginner:
     1:
     0.089403,0.149936,0.069536,0.017384,0.000000,72.000000,64.000000,8.000000,2.000000,0.000000,0.000000,0.089403,0.149936,0.069536,0.017384,0.000000,72.000000,64.000000,8.000000,2.000000,0.000000,0.000000:
0000
0000
0000
0000
,
0000
0000
0000
0000
,
0000
0000
0000
0000
,
0000
0000
0000
0000
,
1000
0000
0000
0000
,
0000
0000
0000
0000
,
0001
0000
0000
0000
,
0000
0000
0000
0000
,
0100
0000
0000
0000
,
0010
0000
0000
0000
,
1000
0000
0000
0000
,
0001
0000
0000
0000
,
1000
0000
0000
0000
,
1000
0000
0000
0000
,
0001
0000
0000
0000
,
0001
0000
0000
0000
,
0010
0000
0000
0000
,
0010
0000
0000
0000
,
0100
0000
0000
0000
,
0100
0000
0000
0000
,
1000
0000
0000
0000
,
1000
0000
0000
0000
,
0001
0000
0000
0000
,
0001
0000
0000
0000
,
1001
0000
0000
0000
,
0000
0000
0000
0000
,
1001
0000
0000
0000
,
0000
0000
0000
0000
,
0110
0000
0000
0000
,
0000
0000
0000
0000
,
0110
0000
0000
0000
,
0000
0000
0000
0000
,
1000
0000
1000
0000
,
1000
0000
0000
0000
,
0001
0000
0001
0000
,
0001
0000
0000
0000
,
0100
0000
0100
0000
,
0100
0000
0000
0000
,
0010
0000
0010
0000
,
0010
0000
0000
0000
,
0100
0000
0000
0000
,
0001
0000
0000
0000
,
1001
0000
0000
0000
,
1000
0000
0000
0000
,
1001
0000
0000
0000
,
0010
0000
0000
0000
,
0010
0000
0000
0000
,
0100
0000
0000
0000
,
0100
0000
0000
0000
,
0010
0000
0000
0000
,
1000
0000
0000
0000
,
0001
0000
0000
0000
,
0100
0000
0000
0000
,
0010
0000
0000
0000
,
0010
0000
0000
0000
,
0100
0000
0000
0000
,
0100
0000
0000
0000
,
0010
0000
0000
0000
,
2002
0000
3003
0000
,
0100
0000
0000
0000
,
0010
0000
0000
0000
,
0001
0000
0000
0000
,
1000
0000
0000
0000
,
0100
0000
0000
0000
,
0100
0000
0000
0000
,
0010
0000
0000
0000
,
0010
0000
0000
0000
,
0100
0000
0000
0000
,
0010
0000
0000
0000
,
1001
0000
0000
0000
;

//---------------dance-single - C. Picardy----------------
#NOTES:
     dance-single:
     :
     Easy:
     4:
     0.279384,0.365062,0.086919,0.060844,0.000000,225.000000,215.000000,10.000000,7.000000,0.000000,0.000000,0.279384,0.365062,0.086919,0.060844,0.000000,225.000000,215.000000,10.000000,7.000000,0.000000,0.000000:
// measure 0
0000
0000
0000
0000
,  // measure 1
0000
0000
0000
0000
,  // measure 2
0000
0000
0000
0000
,  // measure 3
0000
0000
0000
0000
,  // measure 4
1000
0000
1000
0000
,  // measure 5
0001
0000
0001
0000
,  // measure 6
0100
0000
0010
0000
,  // measure 7
1000
0000
0001
0000
,  // measure 8
1000
0001
0100
0001
,  // measure 9
1000
0000
0100
0000
,  // measure 10
0010
0001
0010
0001
,  // measure 11
1000
0000
0100
0000
,  // measure 12
0010
0010
0010
0000
,  // measure 13
0100
0100
0100
0000
,  // measure 14
1000
1000
1000
0000
,  // measure 15
0001
0001
0001
0000
,  // measure 16
0100
0001
0100
0001
,  // measure 17
0100
0010
0100
0010
,  // measure 18
1000
0010
1000
0010
,  // measure 19
1000
0001
1000
0001
,  // measure 20
0100
0010
0010
0000
,  // measure 21
1000
0001
0001
0000
,  // measure 22
1000
0100
0100
0000
,  // measure 23
0010
0010
0001
0000
,  // measure 24
1000
0001
0100
0000
,  // measure 25
0010
0000
1000
0000
,  // measure 26
0100
0010
0001
0010
,  // measure 27
0100
1000
0000
0000
,  // measure 28
0001
0010
0100
1000
,  // measure 29
0001
0100
0001
0100
,  // measure 30
0010
1000
0010
1000
,  // measure 31
0100
0010
0000
0000
,  // measure 32
0001
0001
1000
1000
,  // measure 33
0100
0010
0100
0010
,  // measure 34
0001
0010
0100
1000
,  // measure 35
2002
0000
3003
0000
,  // measure 36
0100
0010
0001
0010
,  // measure 37
0100
1000
0100
0000
,  // measure 38
0010
0001
0100
0010
,  // measure 39
1000
0100
0010
0001
,  // measure 40
0220
0000
0330
0000
,  // measure 41
0100
1000
0001
0000
,  // measure 42
0010
1000
0001
0000
,  // measure 43
0100
0001
1000
0000
,  // measure 44
0010
1000
0100
0000
,  // measure 45
0010
0010
0001
0000
,  // measure 46
1000
1000
0010
0000
,  // measure 47
0100
0100
0010
0000
,  // measure 48
0001
0001
1000
0000
,  // measure 49
0001
0100
0001
0100
,  // measure 50
0010
0100
0010
0100
,  // measure 51
0010
1000
0010
1000
,  // measure 52
0001
1000
0001
1000
,  // measure 53
0100
0100
0100
0000
,  // measure 54
0010
0010
0010
0000
,  // measure 55
0001
0001
0001
0000
,  // measure 56
1000
1000
2000
0000
,  // measure 57
3001
0000
0100
0010
,  // measure 58
2002
0000
0000
3003
,  // measure 59
0100
0010
0100
1001
,  // measure 60
1000
0001
1000
0001
,  // measure 61
0100
0010
1001
0110
,  // measure 62
1001
0100
0010
1000
,  // measure 63
0100
0100
0100
0010
,  // measure 64
0001
0001
0001
1000
,  // measure 65
0010
0010
0010
1000
,  // measure 66
0100
0100
0100
0010
,  // measure 67
0001
1000
0010
1001
,  // measure 68
0100
0010
1000
1001
,  // measure 69
0010
0001
0100
0010
,  // measure 70
1001
0000
0000
0000
;

//---------------dance-single - C. Picardy----------------
#NOTES:
     dance-single:
     :
     Medium:
     6:
     0.363820,0.486749,0.260758,0.104303,0.000000,293.000000,263.000000,30.000000,12.000000,0.000000,0.000000,0.363820,0.486749,0.260758,0.104303,0.000000,293.000000,263.000000,30.000000,12.000000,0.000000,0.000000:
0000
0000
0000
0000
,
0000
0000
0000
0000
,
0000
0000
0000
0000
,
0000
0000
0000
0000
,
1000
0000
0000
1000
0000
0000
0001
0000
,
0100
0000
0000
0100
0000
0000
0001
0000
,
0010
0000
0000
0010
0000
0000
0100
0000
,
1000
0000
0010
1001
,
0100
0010
1000
0001
,
0010
0100
0010
0001
,
1000
1000
1010
0101
,
0010
0100
1000
0010
,
0100
0000
0001
1000
0000
0000
1000
0000
,
0001
0000
0100
0010
0000
0000
0010
0000
,
1000
0000
1000
0001
0000
0000
0100
0000
,
0010
1000
0001
0100
,
0010
1000
0100
0000
1001
0000
0110
0000
,
1000
0001
0100
0010
,
1000
0001
1000
0000
1001
0000
0110
0000
,
1001
0100
0001
0010
,
0100
0000
1000
1000
0000
0000
0001
0000
,
0100
0000
0010
0010
0000
0000
0100
0000
,
0001
0000
0100
0100
0000
0000
0000
0010
,
0000
1000
0000
0001
0000
0000
0000
0000
,
1000
0100
0020
0000
,
0031
0000
0100
0000
0010
0010
1000
0010
,
1000
0100
0010
0001
,
0100
0010
0100
0010
0000
0000
0000
1000
,
0001
1000
0100
0010
,
0001
1000
0000
0001
0000
0001
0000
1000
,
0100
0010
0100
1000
,
0010
0000
0000
2002
0000
0000
3003
0000
,
1001
0110
1010
0101
,
0010
0100
1000
0000
0011
0000
1100
0000
,
0001
0000
0100
0000
0010
1000
0200
0000
,
0020
0000
0000
0330
,
0001
0000
1000
0000
0100
0100
0000
0000
,
0010
0000
0001
0000
1000
1000
0000
0000
,
0001
0100
0010
1000
,
0100
0000
0010
0000
0001
0100
0010
0000
,
2002
0000
3003
0000
,
0001
0000
0100
0000
0010
0000
1000
0010
,
1000
0000
0100
0000
0010
0000
0001
0010
,
0001
0000
1000
0000
0001
0000
0010
0001
,
0010
0000
0100
0000
1000
0000
0010
0100
,
0010
0000
0000
1001
0000
0000
0100
0010
,
0100
0000
0000
1001
0000
0000
0010
0100
,
0010
0000
0000
0110
0000
0000
2000
0000
,
0001
0001
0001
3001
,
0100
0010
0110
1001
,
0010
0001
0100
0010
,
1000
0100
0110
1100
,
0101
0010
1000
0001
,
0100
0000
0010
0010
0000
0000
1000
0000
,
0001
0000
0100
0100
0000
0000
0010
0000
,
1000
0000
0001
0001
0000
0000
1000
0100
,
0000
0010
0000
0002
0000
0000
0000
0000
,
1000
0000
1003
0000
0100
0010
0001
2000
,
0000
0000
0000
3000
,
0010
0100
0010
0000
1001
0000
0110
0000
,
1000
0000
0100
0000
0010
0000
0001
0010
,
0001
0010
0100
0000
1001
0000
0110
0000
,
1001
0100
0010
1000
,
0001
0100
0001
0100
0000
0000
0010
0000
,
1000
0010
1000
0010
0000
0000
1000
0000
,
0001
1000
0001
1000
0000
0000
0100
0000
,
0010
0000
0001
0000
1000
0000
0001
0100
,
0010
0010
1000
1000
,
0100
0000
0100
0000
0010
0001
0100
0000
,
2002
0000
0000
0000
,
3003
0000
0000
0000
;

//---------------dance-single - C. Picardy----------------
#NOTES:
     dance-single:
     :
     Hard:
     7:
     0.466882,0.517171,0.243375,0.156455,0.069536,376.000000,348.000000,28.000000,18.000000,0.000000,0.000000,0.466882,0.517171,0.243375,0.156455,0.069536,376.000000,348.000000,28.000000,18.000000,0.000000,0.000000:
0000
0000
0000
0000
,
0000
0000
0000
0000
,
0000
0000
0000
0000
,
0000
0000
0000
0000
,
1000
0000
0000
0001
0000
0000
1000
0000
0000
0000
0100
0000
0010
0000
0000
0000
,
0001
0000
0000
1000
0000
0000
0001
0000
0000
0000
0010
0000
0100
0000
0000
0000
,
1000
0000
0000
1000
0000
0000
1000
0000
0000
0000
0010
0000
1000
0000
0000
0000
,
0001
0000
0000
0001
0000
0000
0001
0000
0000
0000
0000
0000
1001
0000
0000
0000
,
0001
0100
0010
1000
0100
0000
1001
0000
,
0010
0100
0010
0001
0010
0100
1000
0000
,
0100
0010
0001
0010
0100
0000
1000
0000
,
0011
0100
0010
1000
,
0001
0100
0001
0100
0000
0010
1000
0010
,
1000
0100
0010
0001
0000
0010
0001
0010
,
0001
1000
0100
0010
0000
0001
0100
0010
,
0000
0110
0000
2002
0000
3003
0000
1000
,
0001
0100
1000
0100
0001
0000
0110
0000
,
0001
0100
0001
0100
0010
0000
1010
0000
,
0100
1000
0010
0100
0001
0000
1100
0000
,
0101
1000
0100
0010
,
0100
0010
0001
1000
0000
0010
0100
0001
,
1000
0100
0010
0001
0000
1000
0100
0010
,
0001
0010
0100
1000
0000
0100
0010
0001
,
0000
0101
0000
2200
0000
3300
0000
0000
,
0001
0100
1000
0010
,
0100
0000
0001
0000
1000
1000
0001
0100
,
2000
0000
3200
0000
0310
0010
1000
0100
,
0010
0001
1000
1000
0000
0000
0000
0001
,
0100
0000
0010
0000
1000
0000
0100
0010
,
0100
1000
1000
1000
,
0001
0010
0001
0010
0100
1000
0100
1000
,
0001
0010
0100
1000
0000
0010
0010
0000
,
1001
0100
1001
0010
,
1000
0100
0010
0001
0100
0000
1001
0000
,
0010
0100
0010
0100
0001
0010
0100
0000
,
2200
0000
0000
3300
,
0100
0000
0010
0000
0001
0001
1000
0000
,
0001
0000
0100
0000
0010
0010
1000
0000
,
0001
1000
0001
1000
0100
0010
0100
0010
,
0001
0010
0100
1000
0100
0010
0001
0100
,
0010
0000
0000
1000
0000
0000
2002
0000
0000
0000
0000
0000
3003
0000
0000
0000
,
0001
0000
0000
1000
0000
0000
0001
0000
0000
0000
0100
0000
0010
0000
0000
0000
,
1000
0000
0000
0001
0000
0000
1000
0000
0000
0000
0010
0000
0100
0000
0000
0000
,
0001
0000
0000
0010
0000
0000
0001
0000
0000
0000
1000
0000
0100
0000
0000
0000
,
0010
0000
0000
0100
0000
0000
1000
0000
0000
0000
0001
0000
0100
0000
0000
0000
,
0010
0000
0000
0010
0000
0000
0010
0000
0000
0000
1000
0000
0001
0000
0000
0000
,
1000
0000
0000
1000
0000
0000
1000
0000
0000
0000
0001
0000
0010
0000
0000
0000
,
0100
0000
0000
0100
0000
0000
0100
0000
0000
0000
1000
0000
0001
0000
0000
0000
,
0001
0000
0000
0001
0000
0000
0001
0000
0000
0000
0000
0000
0110
0000
0000
0000
,
1000
0100
0010
0100
1000
0000
0101
0000
,
0001
0100
0010
0100
0001
0000
1010
0000
,
0001
0100
1000
0100
0001
0000
0010
0000
,
1001
0100
0010
1000
,
1000
0100
0010
0001
0000
1000
0100
0010
,
0001
0010
0100
1000
0000
0001
0010
0100
,
1000
0100
0010
0001
0000
1000
0100
0010
,
0000
0001
0000
2002
0000
0000
3003
0000
,
0010
0100
1000
0000
0001
0100
0010
2002
,
0000
0000
0000
3003
,
1000
0100
0010
0001
0100
0000
1001
0000
,
0010
0000
0000
0010
0000
0000
0010
0000
0000
0000
0000
0000
1001
0000
0000
0000
,
0001
0100
0010
1000
0100
0000
1001
0000
,
0001
0000
0000
0001
0000
0000
0001
0000
0000
0000
0001
0000
0010
0000
0000
0000
,
0001
0010
0100
1000
0000
0001
0010
0100
,
1000
0100
0010
0001
0000
0010
0100
1000
,
0100
0010
0001
1000
0000
0010
0100
0001
,
0000
0110
0000
2002
0000
0000
3003
0000
,
0001
0000
1000
0000
0100
0010
0100
0000
,
1000
0000
0000
0100
0000
0000
0010
0000
0000
0000
0100
0000
0010
0000
0000
0000
,
2002
0000
0000
0000
,
3003
0000
0000
0000
;

//---------------dance-single - C. Picardy----------------
#NOTES:
     dance-single:
     :
     Challenge:
     9:
     0.696598,0.790967,0.460673,0.130379,0.447635,561.000000,508.000000,53.000000,15.000000,0.000000,2.000000,0.696598,0.790967,0.460673,0.130379,0.447635,561.000000,508.000000,53.000000,15.000000,0.000000,2.000000:
0000
0000
0000
0000
,
0000
0000
0000
0000
,
0000
0000
0000
0000
,
0000
0000
0000
0000
,
1000
0000
0000
0001
0000
0000
0100
0000
0000
0000
0001
0000
0010
0100
0010
0000
,
0001
0000
0000
1000
0000
0000
0100
0000
0000
0000
1000
0000
0010
0100
0010
0000
,
0100
0000
0000
0001
0000
0000
0010
0000
0000
0000
0100
0000
0010
0100
0010
0000
,
0001
0000
0000
1000
0000
0000
0010
0000
0000
0000
0100
0000
0001
1000
0001
0000
,
1000
0000
0100
0000
0010
0000
0001
0010
0000
0100
0000
0010
0001
0000
0100
0000
,
0010
0000
0100
0000
0001
0000
0100
0010
0000
0100
0000
0001
0100
0000
0010
0000
,
1000
0000
0100
0000
0010
0000
0100
1000
0000
0100
0000
1000
0100
0000
0010
0000
,
0100
0000
0010
0000
0001
0000
0010
0100
0000
0010
0000
0001
0010
0000
0100
0000
,
1000
0001
0100
0101
0000
1000
0010
0100
,
0010
1000
0001
0101
0000
0001
1000
0100
,
0010
0100
1000
1100
0000
1000
0100
0010
,
0001
0010
0001
0010
0001
0010
0001
0010
0001
1000
0001
1000
0001
1000
0001
1000
,
0100
0000
1000
0000
0001
0000
0010
0100
0000
1000
0000
0100
0010
0000
0001
0000
,
1000
0000
0010
0000
0100
0000
0010
1000
0000
0001
0000
0100
0010
0000
1000
0000
,
0100
0000
0010
0000
0001
0000
0100
0010
0000
1000
0000
0001
0100
0000
0010
0000
,
1000
0000
0100
0000
0001
0000
0100
0010
0000
0001
0000
0100
0010
0000
1000
0000
,
0100
0010
0001
0011
0000
1000
0100
0001
,
0100
0010
0001
0011
0000
0100
0010
0001
,
0010
1000
0001
1001
0000
0100
0010
0110
,
0000
1100
0000
2002
0000
0000
3003
0000
,
1000
0100
0010
0001
0100
0010
0000
2000
,
0000
3001
0001
0100
0010
0010
1000
0100
,
0020
0000
0032
0000
0103
0100
0010
1000
,
0001
0100
0010
0220
0000
0000
0330
0001
,
1000
0100
0010
0100
1000
1000
0001
0100
,
0010
1000
0000
1000
0000
1000
0000
0001
,
0100
0010
0001
0010
0100
0010
1000
0100
,
0010
0000
0001
0000
1000
0000
1000
0000
0000
0000
0001
0000
0100
0001
0100
0000
,
0202
0000
0000
0000
0010
0000
0000
0300
2000
0000
0000
0000
0010
0000
3003
0000
,
0001
0010
0100
1000
0010
0000
1001
0000
,
1000
0000
0001
0000
0100
0000
0010
0000
1000
0001
1000
0000
0100
0000
0010
0000
,
0002
0000
1000
0000
0010
0010
0013
0100
,
1000
0100
0010
0001
1000
1000
0010
0100
,
0001
0001
0010
0100
0010
0020
0000
0031
,
0001
0100
1000
0100
0001
0100
0010
0010
,
1000
0100
0010
0001
0010
0100
1000
0010
,
0100
0000
0000
0101
0000
0000
2020
0000
0000
0000
0000
0000
3030
0000
0000
0000
,
0101
0000
0000
0110
0000
0000
1010
0000
0000
0000
0001
0000
1000
0100
1000
0000
,
1100
0000
0000
0110
0000
0000
0011
0000
0000
0000
1000
0000
0010
0100
0010
0000
,
0110
0000
0000
1010
0000
0000
1001
0000
0000
0000
0100
0000
0001
0100
0001
0000
,
0101
0000
0000
1100
0000
0000
0110
0000
0000
0000
0100
0000
0010
0100
0010
0000
,
0110
0000
0000
0011
0000
0000
1001
0000
0000
0000
1000
0000
0001
0100
0010
0000
,
0110
0000
0000
1010
0000
0000
1100
0000
0000
0000
0010
0000
0100
0010
0001
0000
,
0011
0000
0000
1001
0000
0000
0101
0000
0000
0000
0010
0000
1000
0010
0100
0000
,
0110
0000
0000
0101
0000
0000
1100
0000
0000
0000
0001
0000
1000
0100
0010
0000
,
0001
0000
0010
0000
0100
0000
0010
0001
0000
0100
0000
0010
0100
0000
0001
0000
,
1000
0000
0100
0000
0010
0000
0100
1000
0000
0100
0000
0010
0100
0000
1000
0000
,
0100
0000
0010
0000
0001
0000
0010
0100
0000
1000
0000
0100
0010
0000
0001
0000
,
0010
0000
0100
0000
1000
0000
0100
0010
0000
0001
0000
0100
0010
0000
1000
0000
,
0001
0100
0010
1010
0000
0100
0010
0001
,
0100
0010
1000
1010
0000
0001
0100
0010
,
1000
0100
0010
0011
0000
1000
0100
0011
,
0000
0000
1001
0000
0000
0000
0110
0000
0000
0000
0100
0010
0100
0010
0100
0000
,
0010
0001
0000
0001
0100
0000
0000
0000
0010
0000
1000
0000
0001
0000
0100
0000
,
0001
1000
0001
1000
0001
1000
0001
1000
0100
1000
0100
1000
0100
1000
0100
1000
,
0100
0000
0010
0000
0001
0000
0010
0000
0100
0000
0010
0000
0001
1000
0001
0000
,
1000
0000
0000
1010
0000
0000
1001
0000
0000
0000
0100
0000
0010
0100
0010
0000
,
1000
0000
0001
0000
0100
0000
0010
0000
1000
0000
0100
0000
0010
0001
0010
0000
,
0100
0000
0000
0011
0000
0000
1001
0000
0000
0000
1000
0000
0002
0000
0000
0000
,
1003
0100
0010
0110
0000
0001
0100
0010
,
1000
0100
0010
0110
0000
0001
0010
0100
,
1000
0010
0100
0110
0000
0001
1000
1001
,
0000
0000
0110
0000
0000
0000
0001
0000
1000
0001
1000
0001
1000
0001
1000
0001
,
1000
0000
0100
0010
0000
0001
0010
0000
0000
0100
1000
0000
0001
1000
0001
0000
,
1000
0100
0000
0100
1000
0000
0010
0000
0000
0000
0100
0000
0001
0100
0010
0000
,
1000
0001
0000
0001
1000
0000
1000
0001
0000
0000
0001
0000
1000
0010
0100
0000
,
0010
0000
0000
0000
;
