#TITLE:Scatman (Ski-Ba-Bop-Ba-Dop-Bop);
#SUBTITLE:;
#ARTIST:Scatman John;
#TITLETRANSLIT:;
#SUBTITLETRANSLIT:;
#ARTISTTRANSLIT:;
#GENRE:;
#CREDIT:;
#BANNER:Scatmanbn.png;
#BACKGROUND:Scatmanbg.png;
#LYRICSPATH:;
#CDTITLE:;
#MUSIC:Scatman (Ski-Ba-Bop-Ba-Dop-Bop).ogg;
#OFFSET:0.451688;
#SAMPLESTART:15.423049;
#SAMPLELENGTH:14.000000;
#SELECTABLE:YES;
#BPMS:0.000000=136.039993
;
#STOPS:
;
#BGCHANGES:0.750=scatman.mp4=1.000=0=0=0=StretchNoLoop==CrossFade_Fastest==,
230.500=scatmanbg.png=1.000=1=0=1===CrossFade==,
99999=-nosongbg-=1.000=0=0=0 // don't automatically add -songbackground-
;
#KEYSOUNDS:;
#ATTACKS:;

//---------------dance-single - C. Picardy----------------
#NOTES:
     dance-single:
     :
     Beginner:
     1:
     0.077385,0.140261,0.058039,0.009673,0.000000,56.000000,50.000000,6.000000,1.000000,0.000000,0.000000,0.077385,0.140261,0.058039,0.009673,0.000000,56.000000,50.000000,6.000000,1.000000,0.000000,0.000000:
// measure 0
0000
0000
0000
0000
,  // measure 1
0000
0000
0000
0000
,  // measure 2
0000
0000
0000
0000
,  // measure 3
0000
0000
0000
0000
,  // measure 4
0000
0000
0000
0000
,  // measure 5
1000
0000
0000
0000
,  // measure 6
0000
0000
0000
0000
,  // measure 7
0001
0000
0000
0000
,  // measure 8
0000
0000
0000
0000
,  // measure 9
0100
0000
0000
0000
,  // measure 10
0100
0000
0000
0000
,  // measure 11
0010
0000
0000
0000
,  // measure 12
0010
0000
0000
0000
,  // measure 13
1000
0000
0000
0000
,  // measure 14
1000
0000
0000
0000
,  // measure 15
0001
0000
0000
0000
,  // measure 16
0001
0000
0000
0000
,  // measure 17
0200
0000
0000
0000
,  // measure 18
0000
0000
0000
0000
,  // measure 19
0000
0000
0000
0300
,  // measure 20
0000
0000
0000
0000
,  // measure 21
0001
0000
0000
0000
,  // measure 22
1000
0000
0000
0000
,  // measure 23
0010
0000
0000
0000
,  // measure 24
0100
0000
0000
0000
,  // measure 25
0010
0000
0000
0000
,  // measure 26
0001
0000
0000
0000
,  // measure 27
1000
0000
0000
0000
,  // measure 28
0100
0000
0000
0000
,  // measure 29
1001
0000
0000
0000
,  // measure 30
0000
0000
0000
0000
,  // measure 31
1001
0000
0000
0000
,  // measure 32
0000
0000
0000
0000
,  // measure 33
0010
0000
0010
0000
,  // measure 34
0010
0000
0000
0000
,  // measure 35
0100
0000
0100
0000
,  // measure 36
0100
0000
0000
0000
,  // measure 37
0001
0000
0001
0000
,  // measure 38
0001
0000
0000
0000
,  // measure 39
1000
0000
1000
0000
,  // measure 40
1000
0000
0000
0000
,  // measure 41
0000
0000
0000
0000
,  // measure 42
1001
0000
0000
0000
,  // measure 43
0010
0000
0000
0000
,  // measure 44
1001
0000
0000
0000
,  // measure 45
0100
0000
0000
0000
,  // measure 46
1001
0000
0000
0000
,  // measure 47
0001
0000
0000
0000
,  // measure 48
1001
0000
0000
0000
,  // measure 49
1000
0000
0000
0000
,  // measure 50
0001
0000
0000
0000
,  // measure 51
1000
0000
0000
0000
,  // measure 52
0001
0000
0000
0000
,  // measure 53
1000
0000
0000
0000
,  // measure 54
0010
0000
0000
0000
,  // measure 55
0100
0000
0000
0000
,  // measure 56
0010
0000
0000
0000
,  // measure 57
0100
0000
0000
0000
,  // measure 58
0010
0000
0000
0000
;

//---------------dance-single - C. Picardy----------------
#NOTES:
     dance-single:
     :
     Easy:
     3:
     0.226628,0.280521,0.106405,0.067712,0.000000,164.000000,153.000000,11.000000,7.000000,0.000000,0.000000,0.226628,0.280521,0.106405,0.067712,0.000000,164.000000,153.000000,11.000000,7.000000,0.000000,0.000000:
0000
0000
0000
0000
,
0000
0000
0000
0000
,
0000
0000
0000
0000
,
1000
0000
0000
0000
,
0001
0000
0000
0000
,
0100
0000
0010
0000
,
0100
0000
0010
0000
,
1000
0000
0100
0000
,
1000
0000
0100
0000
,
0010
0010
0010
0000
,
0001
0000
0100
0000
,
0010
0010
0010
0000
,
1000
0000
0001
0000
,
0100
0010
0100
0000
,
0001
0000
1000
0000
,
0100
0010
0100
0000
,
1000
0000
0001
0000
,
2002
0000
0000
0000
,
0000
0000
0000
0000
,
0000
0000
0000
0000
,
3003
0000
0100
0100
,
0010
1000
0010
1000
,
0001
0100
0010
0000
,
1000
0100
0010
0001
,
1000
1000
0001
0001
,
0100
0010
1000
0100
,
0010
0100
1000
0000
,
0001
0100
0010
0100
,
0001
1000
0100
0010
,
2002
0000
0000
3003
,
0220
0000
0000
0330
,
0001
0000
1000
0000
,
0010
0000
0100
0000
,
0001
0100
0010
1000
,
0100
0010
0001
0000
,
1000
0100
0010
0001
,
0100
0010
1000
0100
,
0010
0001
1000
0001
,
0010
0100
0100
0000
,
1000
0001
0100
0010
,
1000
1000
0001
0001
,
0200
0000
0000
0300
,
0010
1000
1000
0001
,
0000
0100
0010
0010
,
1000
0001
1000
1000
,
0000
0100
0010
0001
,
1000
0001
0100
0001
,
0000
1000
0010
1000
,
0001
0010
0100
1000
,
0000
0010
0100
0001
,
1000
0010
0100
0010
,
1001
0000
0110
0000
,
1000
0001
0100
0010
,
0110
0000
1001
0000
,
1000
0100
0010
0001
,
1001
0000
0110
0000
,
1000
0001
0100
0010
,
0110
0000
1001
0000
,
0100
0000
0000
0000
;

//---------------dance-single - C. Picardy----------------
#NOTES:
     dance-single:
     :
     Medium:
     5:
     0.348233,0.395269,0.222482,0.154770,0.043529,252.000000,229.000000,23.000000,16.000000,0.000000,0.000000,0.348233,0.395269,0.222482,0.154770,0.043529,252.000000,229.000000,23.000000,16.000000,0.000000,0.000000:
0000
0000
0000
0000
,
0000
0000
0000
0000
,
0000
0000
0000
0000
,
1000
0000
0000
0000
0000
0000
0000
0000
0100
0000
0000
0100
0000
0000
0000
0000
,
0000
0000
0000
0000
0000
0000
0000
0000
0001
0000
0000
0001
0000
0000
0000
0000
,
0100
0000
0000
0000
0000
0000
0000
0000
0010
0000
0000
0010
0000
0000
0000
0000
,
0000
0000
0000
0000
0000
0000
0000
0000
1000
0000
0000
1000
0000
0000
0000
0000
,
0010
0000
0000
0000
0000
0000
0000
0000
0100
0000
0000
0100
0000
0000
0000
0000
,
0001
0000
1000
0000
0100
0000
0010
0100
,
0010
0000
1001
0000
1000
0100
0010
0000
,
0001
0000
1000
0010
1000
0000
0001
0000
,
0110
0000
0001
0100
0010
0000
1000
0000
,
0100
0000
0010
0001
0010
0000
0100
1000
,
0010
0000
1001
0000
0100
0010
0100
0000
,
0001
0000
1000
0010
1000
0000
0100
0000
,
0110
0000
1000
0001
1000
0000
0100
0000
,
0011
0100
1010
0100
,
2002
0000
0000
0003
,
0001
0100
0001
0100
,
0001
0001
0001
0001
,
3001
0100
1010
0101
,
0010
1000
0100
0010
,
0001
0000
1000
0100
0002
0000
0003
0000
,
0100
0000
1000
0000
0010
0100
0010
0000
,
1000
0001
1100
0011
,
1000
0010
0100
0010
,
1000
0000
0001
0100
0020
0000
0030
0000
,
1000
0001
1000
0100
,
0010
0001
1000
0010
,
1000
0000
0000
2000
0000
0000
0000
0000
3000
0000
0000
0000
0001
0000
0000
0000
,
0100
0000
0000
0100
0000
0000
0100
0000
0000
0000
0000
0000
0001
0000
0000
0000
,
0010
0000
0000
0020
0000
0000
0000
0000
0030
0000
0000
0000
0100
0000
0000
0000
,
1000
0000
0000
2000
0000
0000
0000
0000
0000
0000
0000
0000
3000
0000
0000
0000
,
0001
0100
0010
1000
,
0100
0000
0010
0100
1000
0000
0000
0000
,
0001
0100
0001
0100
,
0010
0000
1000
0000
0100
0010
0100
0000
,
1000
0001
0100
0001
,
0010
0000
0100
1000
0020
0000
0030
0000
,
0100
0000
0001
0000
1000
0001
1000
0000
,
0010
0100
0010
0000
1100
0000
0011
0000
,
2002
0000
0000
3003
,
1100
0000
0011
0000
1000
0100
0001
0000
,
1000
0010
0100
0010
,
1010
0000
0101
0000
0001
0100
1000
0000
,
0100
0001
0010
0100
,
0011
0000
1100
0000
0001
0010
1000
0000
,
0010
0001
1000
0010
,
0101
0000
1100
0000
0001
0100
1000
0000
,
0010
0100
0001
1000
,
0010
0100
0010
0000
2000
0000
0010
0000
,
3001
0000
0100
0000
0001
1000
0001
0000
,
0010
0100
0010
0000
0002
0000
0010
0000
,
1003
0000
0100
0000
0010
0001
0010
0000
,
0100
0100
0200
0000
1000
0000
0310
0000
,
0001
0000
0100
0000
0010
0010
0010
0000
,
1000
1000
2000
0000
0010
0000
3001
0000
,
1000
0000
0100
0000
0001
0001
0001
0000
,
0220
0000
0000
0330
0000
0000
0000
0000
;

//---------------dance-single - C. Picardy----------------
#NOTES:
     dance-single:
     :
     Challenge:
     11:
     0.819454,1.248924,0.251502,0.145097,1.180124,593.000000,567.000000,26.000000,15.000000,31.000000,0.000000,0.819454,1.248924,0.251502,0.145097,1.180124,593.000000,567.000000,26.000000,15.000000,31.000000,0.000000:
0000
0000
0000
0000
,
0000
0000
0000
0000
,
0000
0000
0000
0000
,
1000
0100
1000
0100
1000
0000
0001
0000
0010
0001
0000
0011
0000
0000
0000
0000
,
0200
0000
0000
0000
0300
0000
0010
0000
1000
0010
0000
1010
0000
0000
0000
0000
,
0001
0100
0001
0100
0001
0000
1000
0000
0001
1000
0000
1001
0000
0000
1000
0000
,
0002
0000
0000
0000
0003
0000
1000
0000
0100
1000
0000
1100
0000
0000
0000
0000
,
0010
0100
0010
0100
0010
0000
0001
0000
0100
0010
0000
0110
0000
0000
0000
0000
,
1000
0100
1000
0100
1000
0100
1000
0100
0010
0001
0010
0001
0010
0001
0010
0001
,
1000
0000
0010
0000
1010
0000
1000
0001
0000
0001
0000
0100
0000
0010
1000
0000
,
0001
0000
0010
0000
1100
0000
1000
0100
0000
1000
0000
0001
0000
0100
0010
0000
,
0101
0000
1000
0000
0001
0000
1000
0010
0000
1000
0000
0100
0000
0010
0001
0000
,
1000
0000
0001
0000
1001
0000
1000
0010
0000
0100
0000
0001
0100
0001
0100
0001
,
0100
0000
0010
0000
1010
0000
0001
0000
0100
0010
0000
1000
0000
0001
0100
0000
,
0010
0000
1000
0000
1001
0000
0100
0000
0010
0001
0000
1000
0000
0010
0100
0000
,
0001
0000
1000
0000
1100
0000
0010
0000
0100
1000
0000
0001
0000
1000
0100
0000
,
0110
0100
1100
1000
1001
0001
0101
1000
,
0000
0000
0000
0001
0000
0000
0000
0000
0000
1000
0000
0000
0100
0000
0000
1000
0000
0000
0001
0000
0000
0010
0000
0000
0100
0000
1000
0000
0100
0000
1000
0000
0000
0000
0000
0000
0001
0000
0000
0010
0000
0000
0001
0000
0000
0010
0000
0000
,
0100
0000
0000
1000
0100
1000
0100
1000
0100
0010
0100
0010
0100
0010
0100
0010
0001
0010
0001
0010
0001
0100
0001
0100
,
0001
0000
0100
0000
0001
0000
1000
0000
0001
0000
1000
0000
0001
0000
1000
0000
0001
0000
1000
0000
0010
0000
1000
0000
0010
0000
1000
0000
0010
0000
1000
0000
0010
0000
0000
0000
0100
0000
0000
0100
0000
0000
0100
0000
0000
0100
0000
0000
,
0002
0000
1000
0100
2003
0000
0001
0100
3002
0000
1000
0100
2003
0000
0000
0000
,
3001
0010
0100
1000
0100
0010
0001
0000
1000
0100
0010
0001
0000
0001
1000
0100
,
0000
0100
0000
1000
0010
1000
0001
2000
0000
0000
0MMM
0000
3000
0000
0001
0100
,
0010
1000
0010
1000
0000
0001
0100
0010
1000
0100
1000
0100
1000
0000
0001
0010
,
0100
0000
1000
0100
0010
0001
0000
0000
0100
0000
0100
0000
M1M1
0000
0000
0000
,
0001
0100
0010
0100
0001
1000
0010
1000
0001
0000
0001
0000
1000
0100
1000
0200
,
0000
0010
0301
0010
0100
1000
0100
1000
0020
0000
0000
0000
0030
0000
0000
0100
,
0001
0100
0010
0000
0010
1000
0001
0100
0010
1000
0010
0000
0010
0000
1000
0100
,
1000
0100
0010
0001
0010
0000
0100
1000
0001
0000
0001
0100
0010
1000
0000
0001
,
1000
0000
0000
0100
000M
0000
M010
0000
0000
0100
000M
0000
1000
0000
00M1
0000
,
0100
0000
M000
0100
0000
0000
0010
0000
0M00
0010
000M
0000
1000
0000
0001
0000
,
M100
0000
00M0
0001
0000
0000
MM01
0000
0000
0001
00M0
0000
1000
0000
010M
0000
,
0010
0000
M000
0001
0000
0000
10M0
0000
0000
0010
0M00
0000
1000
0001
0100
0000
,
0001
0010
0001
0010
0001
0010
0001
0010
0100
1000
0100
1000
0100
1000
0100
1000
,
0001
0010
0100
1000
0100
0010
0001
0010
0200
0000
0000
0000
0300
0000
0000
1000
,
0010
1000
0010
1000
0010
1000
0100
0010
0000
0001
0010
0100
0010
0001
1000
0100
,
0010
0001
0010
0001
1000
0001
1000
0001
0100
0000
0100
0000
0110
0000
0000
0000
,
0001
0100
0010
1000
0010
0100
0001
1000
0000
0100
0010
0001
0000
0100
0010
1000
,
0000
1000
0000
0001
0100
0001
0020
0000
0000
0000
0000
0000
0030
0000
0100
1000
,
0001
0010
0001
0010
0000
0100
1000
0000
0001
0010
0001
0010
0001
0000
1000
0100
,
0010
0000
0001
0010
0100
1000
0100
0010
0001
0000
0001
0000
1001
0000
0000
1000
,
0001
0000
0000
2020
0000
0000
0M0M
0000
3030
0000
0000
0001
0100
0001
0100
0001
,
0100
0000
0010
0000
1000
0000
0001
0000
1000
0100
0000
0010
0000
0000
0100
0000
,
1000
0000
0001
0000
0010
0000
0100
0000
0010
0001
0000
0010
0000
0000
0100
0000
,
0100
0000
0010
0000
0001
0000
0100
0000
1000
0100
0000
0010
0000
0000
1000
0000
,
0010
0000
0100
0000
0010
0000
1000
0000
0001
0100
0000
0010
1000
0010
1000
0010
,
1000
0000
0100
0000
0001
0000
0100
0000
0010
0001
0000
0100
0000
0000
1000
0000
,
0100
0000
0010
0000
1000
0000
0100
0000
0010
1000
0000
0010
0000
0000
0001
0000
,
0001
0000
1000
0000
0100
0000
0001
0000
0100
0010
0000
0100
0000
0000
1000
0000
,
0100
1000
0100
1000
0100
1000
0100
1000
0001
0010
0001
0010
0001
0010
0001
0010
,
0100
1000
0100
1000
0100
0000
0010
0000
0001
0010
0000
0100
0000
0010
0001
0000
,
0100
0000
0010
0000
0100
0000
0001
0000
1000
0010
0000
1001
0000
0000
M00M
0000
,
0001
0100
0001
0100
0001
0000
1000
0000
0010
1000
0000
0100
0000
0010
0100
0000
,
1000
0000
0001
0000
0100
0000
0010
0000
1000
0100
0000
0011
0000
0000
00MM
0000
,
0010
0100
0010
0100
0010
0000
0100
0000
1000
0001
0000
0100
0000
0100
0010
0000
,
1000
0000
0100
0000
0001
0000
0100
0000
0010
0001
0000
0101
0000
0000
0M0M
0000
,
0010
1000
0010
1000
0010
0000
1000
0000
0100
0010
0000
0100
0000
1000
0001
0000
,
0100
0000
0010
0000
1000
0000
0100
0000
0010
0100
0000
1100
0000
0000
MM00
0000
,
0010
0000
0001
0000
1100
0000
0000
0022
0000
0000
0000
0033
0000
0000
0000
0000
;

//---------------dance-single - C. Picardy----------------
#NOTES:
     dance-single:
     :
     Hard:
     8:
     0.500240,0.483053,0.251502,0.116078,0.174117,362.000000,336.000000,26.000000,12.000000,0.000000,0.000000,0.500240,0.483053,0.251502,0.116078,0.174117,362.000000,336.000000,26.000000,12.000000,0.000000,0.000000:
0000
0000
0000
0000
,
0000
0000
0000
0000
,
0000
0000
0000
0000
,
1000
0000
0000
0000
0001
0000
0000
0000
0100
0001
0000
0100
0000
0000
0000
0000
,
0020
0000
0000
0000
0030
0000
1000
0000
0001
1000
0000
1000
0000
0000
0000
0000
,
0100
0000
0000
0000
0010
0000
0000
0000
0001
0010
0000
0001
0000
0000
0000
0000
,
0200
0000
0000
0000
0300
0000
0010
0000
1000
0001
0000
0001
0000
0000
0000
0000
,
1000
0001
1000
0001
,
1000
0001
1000
0001
0100
0010
0100
0010
,
0100
0000
1001
0000
1000
0100
0001
0000
,
0100
0000
1010
0000
0001
0100
1000
0000
,
0101
0000
1100
0000
0010
0100
1000
0000
,
0001
0000
0011
0000
1000
0100
0001
0100
,
2000
0000
0000
0000
3001
0000
0100
0000
0001
0100
0000
0001
0000
0000
0100
0000
,
0010
0000
0000
0000
1000
0000
0010
0000
1000
0010
0000
1000
0000
0000
0000
0000
,
1001
0000
0000
0000
1000
0000
1000
0000
0001
1000
0000
0100
0000
0000
0000
0000
,
0010
0000
0000
0000
0001
0000
0010
0000
0100
1000
0000
0001
0000
0000
0000
0000
,
1200
0010
0001
0001
,
1000
0000
0001
0000
1000
1000
0001
0001
,
1000
1000
0010
0010
1000
1000
1000
1000
,
1300
0001
1100
0011
,
0010
0100
0010
0100
1000
0100
1000
0100
,
0010
0001
0100
0010
2000
0000
0000
3001
,
0100
0100
0000
0010
1000
0010
1000
0100
,
0010
0010
0001
0000
0100
0100
0110
0000
,
1000
0001
1000
0001
1000
0010
1000
0010
,
0100
0001
0010
0100
2000
0000
0000
3100
,
0010
0010
0001
0100
0010
0010
1000
0001
,
0100
0100
0010
0010
1000
0001
1000
0001
,
0100
0000
0000
0100
0000
0000
0001
0000
0000
0001
0000
0000
1000
0000
0010
0000
,
1000
0000
0000
1000
0000
0000
0100
0000
0000
0100
0000
0000
0010
0000
0001
0000
,
0010
0000
0000
0010
0000
0000
0100
0000
0000
0100
0000
0000
1000
0000
0100
0000
,
0010
0001
0100
1010
,
0001
0100
1000
0100
0001
0100
1000
0100
,
0001
0010
0100
1000
0020
0000
0000
0030
,
1000
0100
0001
0100
1000
0100
0001
0100
,
1000
0100
0010
0001
0100
0100
0100
0000
,
0001
1000
0001
1000
0010
0100
0010
0100
,
0001
0100
0010
1000
0020
0000
0000
1030
,
0001
0001
0000
1000
0100
0100
0010
0001
,
1000
1000
1000
0000
0001
0001
0001
0000
,
1001
0000
0000
2002
0000
0000
0000
0000
3003
0000
0000
0000
0010
0000
0100
0000
,
0001
0000
0001
0100
1000
0100
0001
0000
,
1010
0000
0101
0000
1000
0100
0001
0000
,
1100
0000
0100
0010
0001
0010
0100
0000
,
0011
0000
0001
0100
1000
0000
0100
0010
,
1000
0000
0101
0000
1000
0100
0001
0000
,
1100
0000
0001
0010
0100
0000
0011
0000
,
1000
0000
0010
0100
0001
0100
0010
0000
,
1001
0000
0110
0000
1000
0001
0100
0000
,
0001
0000
0100
0000
0010
0000
0100
0000
0001
0000
0000
0001
0000
0000
1000
0000
,
0100
0000
0000
0000
1000
0000
0001
0000
1000
0100
0000
0100
0000
0000
0000
0000
,
1000
0000
0100
0000
0010
0000
0100
0000
1000
0000
0000
1000
0000
0000
0001
0000
,
0100
0000
0000
0000
0010
0000
1000
0000
0001
1000
0000
1000
0000
0000
0000
0000
,
0001
0000
0010
0000
0100
0000
1000
0000
0001
0000
0000
0001
0000
0000
0100
0000
,
0010
0000
0000
0000
1000
0000
0001
0000
0100
0010
0000
0010
0000
0000
0000
0000
,
1000
0000
0001
0000
0100
0000
0001
0000
0010
0000
0000
0010
0000
0000
0000
0000
,
1100
0000
0000
0000
1010
0000
0000
0000
1000
0001
0000
0100
0000
0000
0000
0000
,
0010
0000
1000
0000
1001
0000
0000
2002
0000
0000
0000
0000
3003
0000
0000
0000
;
