#TITLE:Save Me;
#SUBTITLE:;
#ARTIST:Leslie Parrish;
#TITLETRANSLIT:;
#SUBTITLETRANSLIT:;
#ARTISTTRANSLIT:;
#GENRE:;
#CREDIT:;
#BANNER:savemebn.png;
#BACKGROUND:savemebg.png;
#LYRICSPATH:;
#CDTITLE:;
#MUSIC:saveme.ogg;
#OFFSET:-0.015437;
#SAMPLESTART:64.565521;
#SAMPLELENGTH:12.400004;
#SELECTABLE:YES;
#BPMS:0.000000=155.759995
;
#STOPS:
;
#BGCHANGES:16.000=sunrays.mp4=1.000=1=0=1=SongBgWithMovieViz==CrossFade==,
32.000=sunrays.mp4=1.000=0=0=1===CrossFade_Fastest==,
64.000=spinningstars.mp4=1.000=0=1=1=StretchRewind==CrossFade_Fastest==,
128.000=sunrays.mp4=1.000=0=1=1=StretchRewind==CrossFade_Fastest==,
168.000=flash=1.800=0=0=1=====,
168.250=savemebg.png=1.000=0=0=1=====,
169.000=flash=1.800=0=0=1=====,
169.250=savemebg.png=1.000=0=0=1=====,
169.500=Redheaven.mp4=1.000=0=1=1=StretchRewind==CrossFade_Fastest==,
200.000=flash=1.800=0=0=1=====,
200.250=savemebg.png=1.000=0=0=1=====,
201.000=flash=1.800=0=0=1=====,
201.250=savemebg.png=1.000=0=0=1=====,
201.500=spinningstars.mp4=1.000=0=0=1===CrossFade_Fastest==,
228.000=spinningstars.mp4=1.000=1=0=1=SongBgWithMovieViz==CrossFade==,
232.000=flash=1.800=0=0=1=====,
232.250=Redheaven.mp4=1.000=0=0=1=====,
248.000=spinningstars.mp4=1.000=0=0=1===CrossFade_Fastest==,
264.000=flash=1.800=0=0=1=====,
264.250=savemebg.png=1.000=0=0=1=====,
99999=-nosongbg-=1.000=0=0=0 // don't automatically add -songbackground-
;
#KEYSOUNDS:;
#ATTACKS:;

//---------------dance-single - C. Picardy----------------
#NOTES:
     dance-single:
     :
     Beginner:
     1:
     0.098314,0.191920,0.048465,0.009693,0.000000,71.000000,66.000000,5.000000,1.000000,0.000000,0.000000,0.098314,0.191920,0.048465,0.009693,0.000000,71.000000,66.000000,5.000000,1.000000,0.000000,0.000000:
0000
0000
0000
0000
,
0000
0000
0000
0000
,
0000
0000
0000
0000
,
0000
0000
0000
0000
,
1001
0000
0000
0000
,
0000
0000
0000
0000
,
0000
0000
0000
0000
,
1001
0000
1001
0000
,
0100
0000
0000
0000
,
0010
0000
0000
0000
,
1000
0000
0000
0000
,
0001
0000
0000
0000
,
0010
0000
0000
0000
,
0100
0000
0000
0000
,
1000
0000
0000
0000
,
0001
0000
0000
0000
,
0100
0000
0000
0000
,
0100
0000
0000
0000
,
0010
0000
0000
0000
,
0010
0000
0000
0000
,
1000
0000
0000
0000
,
1000
0000
0000
0000
,
0001
0000
0000
0000
,
0001
0000
0000
0000
,
1000
0000
0000
0000
,
0100
0000
0000
0000
,
0010
0000
0000
0000
,
0001
0000
0000
0000
,
0010
0000
0000
0000
,
0100
0000
0000
0000
,
1000
0000
0000
0000
,
0010
0000
0000
0000
,
0100
0000
0100
0000
,
0000
0000
0000
0000
,
0010
0000
0010
0000
,
0000
0000
0001
0000
,
0001
0000
0000
0000
,
0100
0000
0000
0000
,
0010
0000
0000
0000
,
1000
0000
0000
0000
,
0001
0000
0000
0000
,
0100
0000
0100
0000
,
1001
0000
0000
0000
,
0100
0000
0000
0000
,
0010
0000
0010
0000
,
0000
0000
0000
0000
,
0100
0000
0100
0000
,
0000
0000
0001
0000
,
0001
0000
0000
0000
,
1000
0000
0000
0000
,
1001
0000
0000
0000
,
0100
0000
0000
0000
,
0010
0000
0010
0000
,
0000
0000
0000
0000
,
1000
0000
1000
0000
,
0000
0000
0001
0000
,
0001
0000
0000
0000
,
0200
0000
0300
0000
,
0001
0000
0000
0000
,
1000
0000
0000
0000
,
0100
0000
0000
0000
,
0010
0000
0000
0000
,
0100
0000
0000
0000
,
1000
0000
0000
0000
,
0001
0000
0000
0000
,
0100
0000
0000
0000
,
0010
0000
0000
0000
;

//---------------dance-single - C. Picardy----------------
#NOTES:
     dance-single:
     :
     Easy:
     3:
     0.265863,0.319867,0.203551,0.232630,0.000000,192.000000,171.000000,21.000000,24.000000,0.000000,0.000000,0.265863,0.319867,0.203551,0.232630,0.000000,192.000000,171.000000,21.000000,24.000000,0.000000,0.000000:
0000
0000
0000
0000
,
0000
0000
0000
0000
,
0000
0000
0000
0000
,
0000
0000
0000
0000
,
0100
0100
0100
0000
,
0000
1000
0000
0001
,
0000
0100
0000
0001
,
1000
1000
2002
3003
,
0100
0000
0010
0000
,
1000
1000
0100
0000
,
1000
0000
0010
0000
,
0100
0100
0001
0000
,
0010
0000
0100
0000
,
0010
0010
0001
0000
,
1000
0000
0010
0000
,
0100
0100
2002
3003
,
0110
0000
0100
0000
,
0001
0000
1000
0000
,
0100
0010
0100
0010
,
0001
0000
0100
0000
,
0010
1000
0010
1000
,
0100
0000
0010
0010
,
0010
0000
1001
0000
,
1000
0000
0100
0100
,
0200
0300
1000
0000
,
0010
0000
0100
0000
,
0001
1000
0001
1000
,
0100
0000
0110
0000
,
0001
0100
0001
0010
,
0100
0000
1000
1000
,
1000
0000
0110
0000
,
0001
0000
1000
0100
,
0010
0000
0001
0001
,
0000
1000
0010
0000
,
0100
0000
0110
0000
,
1001
0000
0100
0100
,
0110
0000
0001
1000
,
0000
0100
0100
0010
,
0001
0000
1000
1000
,
0020
0030
0101
0000
,
2000
3000
1100
0000
,
0002
0003
0220
0330
,
1000
2002
3003
0000
,
0100
0010
1000
0100
,
0010
0010
1001
0000
,
0100
0001
0010
0100
,
0010
0010
0110
0000
,
2000
3000
0002
0003
,
0200
0300
0000
0010
,
1000
0001
0100
0010
,
1000
2002
3003
0000
,
0100
0001
1000
0010
,
0100
0100
1001
0000
,
0100
0010
1000
0100
,
1000
1000
1001
0000
,
0200
0300
0002
0003
,
0020
0030
0000
0100
,
2002
3003
0220
0330
,
1000
1000
1000
0000
,
0001
0001
0001
0000
,
0100
0100
0100
0000
,
0010
0010
0010
0000
,
1000
0001
1000
0000
,
0001
1000
0001
0000
,
0010
0100
0010
0000
,
0100
0010
0100
1000
,
0110
0000
0000
0000
;

//---------------dance-single - C. Picardy----------------
#NOTES:
     dance-single:
     :
     Medium:
     5:
     0.404334,0.447813,0.339252,0.339252,0.000000,292.000000,257.000000,35.000000,35.000000,0.000000,0.000000,0.404334,0.447813,0.339252,0.339252,0.000000,292.000000,257.000000,35.000000,35.000000,0.000000,0.000000:
0000
0000
0000
0000
,
0000
0000
0000
0000
,
0000
0000
0000
0000
,
0000
0000
0000
0000
0000
0000
0000
0010
,
0010
0000
0010
0000
0010
0000
0000
0002
,
0000
0003
0000
2000
0000
3000
0000
0200
,
0000
0300
0000
0020
0000
0030
0001
0000
,
0100
0010
2002
3003
,
0001
0000
0100
0000
0010
0000
1000
0100
,
1000
0000
0010
0000
0100
0000
0010
1000
,
0010
0000
0100
0000
0001
0000
0010
0001
,
0010
0000
0100
0000
1000
0000
0001
0100
,
1000
0000
0100
0000
0001
0000
1000
0100
,
0001
0000
0100
0000
1000
0000
0001
0010
,
1000
0000
0010
0000
0001
0000
1000
0010
,
0001
0001
2020
3030
,
0001
0000
0100
0000
0001
0000
1000
0002
,
0000
1000
1003
0100
,
0010
0000
0001
0000
0100
0001
0000
0200
,
0000
0000
0010
0000
0310
0000
1000
0001
,
0000
0001
1000
0000
0100
1000
0000
2000
,
0000
0000
3010
0000
0100
0000
0010
2000
,
0000
0010
3100
0010
,
0001
0000
0100
0000
0010
0000
1000
0100
,
0010
0000
0010
0000
0011
0000
1000
0100
,
1000
1000
1010
0001
,
0101
0000
1000
0000
0010
0000
0100
0010
,
0000
0100
1010
1000
,
1100
0000
0001
0000
0010
0100
0000
1000
,
0100
0000
0110
0000
0011
0000
1000
0002
,
0000
0100
0103
0010
,
1000
0000
0001
0000
1000
0000
0001
0100
,
0010
0010
1010
2002
,
3003
0100
0010
0100
,
1000
1100
0001
0101
,
0011
0000
1001
0000
0100
0000
0010
1000
,
0100
0000
0110
0011
,
0100
0000
0010
0000
0100
0000
0001
1000
,
0100
0000
0100
0000
0010
0010
0100
0000
,
1000
0000
0000
1100
0000
0000
0001
0000
,
0101
0000
0000
0110
0000
0000
1000
0000
,
2200
3300
0202
0303
,
1001
2002
3003
0100
,
0010
0000
1000
0000
0001
0100
0010
0000
,
1000
1000
2002
3003
,
0010
0000
0100
0000
0010
0000
1000
0100
,
0010
0010
0022
0033
,
0100
0010
0100
0001
,
2000
0000
0010
0000
,
0001
0100
3001
0100
,
1010
0202
0303
0100
,
0010
0010
1000
0000
0001
0000
0100
0100
,
0010
0010
0202
0303
,
1000
0000
0100
0000
0010
0000
0100
1000
,
0001
0101
0022
0033
,
1000
0000
0010
0000
1000
0000
0001
0001
,
0100
0000
0010
0000
1000
0000
0100
0010
,
0200
0300
0220
0330
,
1000
0000
0100
0000
1000
0000
0010
0100
,
0010
0000
1000
0000
0001
0000
0010
0001
,
0010
0000
0100
0000
1000
0000
0010
1000
,
0010
0000
0100
0000
0001
0000
1000
0100
,
1000
0000
0100
0000
0010
0000
0001
0100
,
1000
0000
0100
0000
0001
0000
1000
0100
,
0001
0000
0100
0000
1000
0000
0001
0100
,
0010
0010
1010
1100
,
0101
0000
0000
0000
;

//---------------dance-single - C. Picardy----------------
#NOTES:
     dance-single:
     :
     Hard:
     8:
     0.564959,0.607747,0.310174,0.261709,0.130855,408.000000,376.000000,32.000000,27.000000,0.000000,0.000000,0.564959,0.607747,0.310174,0.261709,0.130855,408.000000,376.000000,32.000000,27.000000,0.000000,0.000000:
0000
0000
0000
0000
,
0000
0000
0000
0000
,
0000
0000
0000
0000
,
0000
0000
0000
0000
0000
0000
0000
0100
,
0001
0000
0001
0000
0001
0000
0001
0002
,
0000
0000
0103
0200
0000
0000
0310
0020
,
0000
0000
1030
2000
0000
0010
3010
0100
,
0001
0110
2002
3003
,
1000
0000
0100
0000
0001
0000
0100
1000
0000
1000
0100
0000
0010
0000
0100
0000
,
1000
0000
0100
0000
0010
0000
0001
0100
0000
0100
0001
0000
0010
0000
0100
0000
,
1000
0000
0010
0000
0100
0000
0010
1000
0000
1000
0010
0000
0100
0000
0001
0000
,
0010
0000
0100
0000
1000
0000
0001
0100
0000
0000
0001
0000
0011
0000
0000
0000
,
1000
0000
0100
0000
0010
0000
0100
1000
0000
1000
0010
0000
0100
0000
0001
0000
,
0010
0000
0001
0000
0100
0000
0001
0100
0000
0100
1000
0000
0100
0000
0001
0000
,
0010
0000
0100
0000
1000
0000
0010
0100
0000
0100
0001
0000
0010
0000
0100
0000
,
1000
0001
0100
0010
0100
0000
1010
0000
,
0101
0000
0010
0000
0100
0010
0001
0010
,
0100
0000
1000
0000
0001
0100
1000
0100
,
0001
0000
1000
0000
0100
1000
0010
1000
,
0100
0000
0110
0000
0100
0100
1000
0001
,
0100
0000
0110
0000
1000
1000
0001
0100
,
0010
0000
1000
0000
0001
0010
0100
2000
,
0000
3001
0100
0010
,
1000
0000
0100
0000
0010
0100
0010
0001
,
0100
0000
1001
0000
0100
0100
0010
1000
,
0100
0000
0010
0000
0001
0010
0100
0010
,
0001
0000
1000
0000
0010
0010
0100
0001
,
0010
0000
1100
0000
0010
0100
1000
0100
,
0001
0000
0100
1000
0010
0010
0001
0000
,
0010
0000
1010
0000
0001
0100
0010
2000
,
0000
3010
0100
0001
,
0010
0000
0100
0000
0010
1000
0100
0000
,
0011
0100
0110
1010
,
0001
0000
0100
0010
0000
1000
0000
0001
,
1000
0100
1000
0100
0010
0001
0010
0001
,
0100
0010
0100
0010
1000
0100
1000
0100
,
2000
0000
3001
1010
,
0100
0000
0001
0010
0000
0001
0000
0100
,
0010
0000
1000
0000
0001
0010
0100
0000
,
1000
0100
1000
0010
0000
0100
0001
0010
,
0001
0100
0010
1000
0000
0001
0100
0000
,
2020
3030
0022
0033
,
1100
0202
0303
0010
,
1000
0100
0010
0001
0000
0010
0100
0000
,
0011
1000
2020
3030
,
0001
0100
0010
1000
0000
1000
1000
0100
,
0010
1100
0202
0303
,
1000
0001
0100
0010
0000
1000
0000
0010
,
0100
0000
0001
0000
0001
0010
0100
1000
,
0100
0010
0001
1000
0000
0010
0100
0100
,
0101
2200
3300
0010
,
1000
0100
0010
0001
0000
0010
0100
0100
,
1100
1010
2002
3003
,
0001
0001
0100
0010
0000
0100
0100
0001
,
1001
0110
2002
3003
,
1000
0100
0010
0000
0100
0010
0010
0001
,
0100
0000
0010
0000
1000
0001
0100
0001
,
0200
0000
0000
0000
0020
0000
0000
0330
,
1000
0000
0010
0000
0100
0000
0010
1000
0000
1000
0010
0000
1000
0000
0100
0000
,
0010
0000
0100
0000
1000
0000
0100
0010
0000
0010
0001
0000
1000
0000
0100
0000
,
0001
0000
0100
0000
1000
0000
0001
0100
0000
0100
0010
0000
0100
0000
0001
0000
,
0010
0000
0100
0000
1000
0000
0001
0100
0000
0100
1000
0000
0100
0000
0001
0000
,
0010
0000
0001
0000
0100
0000
0010
1000
0000
1000
0100
0000
0001
0000
0100
0000
,
1000
0000
0010
0000
0100
0000
0001
0010
0000
0010
1000
0000
0010
0000
0001
0000
,
1000
0000
0010
0000
0100
0000
0001
0010
0000
0010
0100
0000
1000
0000
0010
0000
,
0001
0010
1000
0100
0001
0000
0110
0000
,
1001
0000
0000
0000
;

//---------------dance-single - C. Picardy----------------
#NOTES:
     dance-single:
     :
     Challenge:
     10:
     0.828053,0.929370,0.319867,0.329560,0.712430,598.000000,565.000000,33.000000,34.000000,48.000000,5.000000,0.828053,0.929370,0.319867,0.329560,0.712430,598.000000,565.000000,33.000000,34.000000,48.000000,5.000000:
// measure 0
0000
0000
0000
0000
,  // measure 1
0000
0000
0000
0000
,  // measure 2
0000
0000
0000
0000
,  // measure 3
0000
0000
0000
0000
0000
0000
0000
0100
,  // measure 4
0101
0010
0110
1000
1010
0001
0001
0020
,  // measure 5
0000
0000
0031
02M0
0000
0000
0310
2M00
,  // measure 6
0000
0000
0000
0000
3100
0000
M020
0000
0000
0000
0001
0000
0031
0000
10M0
0100
,  // measure 7
1000
0000
0001
0000
1001
0000
0100
0000
1000
0100
1000
0100
0010
0001
0010
0001
,  // measure 8
1000
0010
1000
0010
1000
0000
0100
0010
0000
0010
0001
0000
1000
0100
0010
0001
,  // measure 9
0100
0001
0100
0001
0100
0000
0010
1000
0000
1000
0100
0000
0010
0100
1000
0001
,  // measure 10
0100
0010
0100
0010
0100
0000
0001
1000
0000
1000
0001
0000
0010
0100
0010
0001
,  // measure 11
1000
0100
1000
0100
1000
0000
0001
0100
0000
0100
0010
0000
1000
0100
0010
0001
,  // measure 12
1000
0010
0100
0010
1000
0000
0001
0100
0000
0010
0100
0000
0001
0010
0100
1000
,  // measure 13
0001
0010
0100
0010
0001
0000
1000
0010
0000
0100
0010
0000
1000
0001
0100
0010
,  // measure 14
1000
0100
0010
0100
1000
0000
0001
0100
0000
0010
1000
0000
0001
0100
0010
0100
,  // measure 15
0001
0000
0110
0000
1000
0000
1010
0000
0100
0010
0001
0010
0100
0000
0010
0100
,  // measure 16
1000
0000
0001
0000
0100
0000
0010
0000
1000
0000
0010
0000
0100
0000
0001
0100
,  // measure 17
0010
0000
1000
0000
0100
0000
0010
0000
0001
0000
0010
0000
0100
0000
1000
0100
,  // measure 18
0010
0000
0001
0000
0100
0000
1000
0000
0100
0000
0001
0000
1000
0000
0010
0100
,  // measure 19
0001
0000
0010
0000
1000
0000
0010
0000
0100
0000
0010
0000
0001
0000
0100
0001
,  // measure 20
0010
0000
0001
0000
0100
0000
0010
1000
0001
0000
0100
0000
0010
0000
1000
0010
,  // measure 21
0100
0000
0010
0000
1000
0000
0100
1000
0010
0000
0010
0000
0100
0000
0100
0000
,  // measure 22
0001
0020
0000
0230
00M0
1000
1300
1M20
,  // measure 23
0000
0000
0000
0000
M100
0000
M130
0000
0001
0010
0100
1000
0001
0010
0100
1000
,  // measure 24
0001
0100
0010
0100
0001
0001
0010
0100
,  // measure 25
1000
0000
0100
0000
0001
0000
0100
0000
1000
0000
0010
0000
0100
0000
0010
1000
,  // measure 26
0001
0000
0010
0000
0100
0000
1000
0100
0010
0000
0001
0000
0100
0000
0010
0100
,  // measure 27
0001
0000
1000
0000
0100
0000
0010
0100
1000
0000
0001
0000
1000
0010
1000
0010
,  // measure 28
1000
0000
0100
0000
0001
0000
0100
0010
0001
0000
0100
0000
1000
0000
0100
0010
,  // measure 29
1000
0100
0010
0001
0100
0100
0010
1000
,  // measure 30
0100
0000
0200
0000
0000
0000
0010
0000
0000
0000
1000
0000
1300
0000
0001
0010
,  // measure 31
0001
0000
0100
0000
0010
0000
1000
0000
0100
0010
0100
0010
0100
0010
0100
0010
,  // measure 32
0100
1000
0001
0200
0002
0000
0010
0303
,  // measure 33
0100
0000
0000
0000
0010
0000
1M1M
0000
0000
0000
M1M1
0000
0000
0000
1000
0100
,  // measure 34
0010
0000
0100
0000
1000
0000
0100
0000
0010
0000
0001
0010
0001
0000
0010
0000
,  // measure 35
0100
1000
0001
0100
0010
1000
0100
0010
,  // measure 36
2002
0000
0000
0000
0000
0003
0000
0000
0002
0000
0000
0000
0010
0000
3003
0000
,  // measure 37
1000
0000
0002
0200
0000
1000
0000
1000
,  // measure 38
0303
0000
M11M
0000
1000
0001
0200
0000
,  // measure 39
0310
1000
0100
0020
0000
0001
0130
1000
,  // measure 40
0010
0100
0001
0020
0000
0001
0130
0010
,  // measure 41
0001
0100
0001
0100
0010
1000
0010
1000
0100
0010
0100
1000
0001
0100
0010
0000
,  // measure 42
1001
M00M
0220
0000
0330
0MM0
1001
0000
,  // measure 43
0010
0000
0100
0000
0010
0000
0001
0100
0010
0000
1000
0000
0100
0000
0010
0000
,  // measure 44
MM11
0000
1M1M
0000
0022
0000
0033
00MM
,  // measure 45
1000
0000
0100
0000
0010
0000
0001
0100
0010
0000
1000
0001
0100
0000
0010
0000
,  // measure 46
1M1M
0000
11MM
0000
0202
0000
0303
1M0M
,  // measure 47
0010
0000
0100
0000
0001
0000
0010
0001
0010
0000
0100
0000
1000
0010
1000
0010
,  // measure 48
1000
0000
0001
0000
0001
0000
1000
0100
1000
0000
0010
0000
0100
0000
0001
0000
,  // measure 49
1000
0100
1000
0000
0001
0000
1000
0100
0010
0100
1000
0000
0001
0100
0010
0000
,  // measure 50
0110
0MM0
2002
0000
3003
M00M
0110
0000
,  // measure 51
0100
0000
1000
0000
0010
0000
0100
0001
0010
0000
0001
0100
0010
0000
1000
0000
,  // measure 52
11MM
0000
M1M1
0000
2200
0000
3300
MM00
,  // measure 53
0001
0000
0010
0000
0100
0000
0010
0100
1000
0000
0001
0100
0010
0000
1000
0000
,  // measure 54
1MM1
0000
M11M
0000
2002
0000
3003
M10M
,  // measure 55
0010
0000
1000
0000
0001
0000
1000
0001
0100
0000
0010
0000
1000
0100
1000
0100
,  // measure 56
1000
0000
0001
0000
0100
0000
0010
1000
0001
0000
0001
0000
0010
0000
0010
0000
,  // measure 57
0202
0000
2020
3333
,  // measure 58
0001
0010
0001
0010
0001
0000
0100
0010
0000
0010
1000
0000
0100
0010
0001
0010
,  // measure 59
0100
1000
0100
1000
0100
0000
1000
0010
0000
0010
0100
0000
0001
0010
0100
1000
,  // measure 60
0010
0100
0010
0100
0010
0000
1000
0100
0000
0100
0010
0000
0001
0100
0010
1000
,  // measure 61
0001
0100
0001
0100
0001
0000
0010
0100
0000
0100
0010
0000
0001
0010
0100
1000
,  // measure 62
0001
0100
0010
0100
0001
0000
1000
0100
0000
0100
0001
0000
0100
0010
0001
0010
,  // measure 63
0100
1000
0010
1000
0100
0000
0010
0001
0000
0001
0100
0000
1000
0100
0010
0100
,  // measure 64
0001
0100
0010
0100
0001
0000
0010
1000
0000
1000
0010
0000
0100
0010
1000
0010
,  // measure 65
0100
0000
0110
0000
0001
0000
0011
0000
0010
0100
1000
0001
0100
0000
0010
1000
,  // measure 66
0001
M00M
0000
0000
0000
0000
0000
0000
;
