#TITLE:Run Away;
#SUBTITLE:;
#ARTIST:Real McCoy;
#TITLETRANSLIT:;
#SUBTITLETRANSLIT:;
#ARTISTTRANSLIT:;
#GENRE:;
#CREDIT:;
#BANNER:runawaybn.png;
#BACKGROUND:runawaybg.png;
#LYRICSPATH:;
#CDTITLE:;
#MUSIC:runaway.ogg;
#OFFSET:-0.730223;
#SAMPLESTART:58.679962;
#SAMPLELENGTH:14.059999;
#SELECTABLE:YES;
#BPMS:0.000000=130.960007
;
#STOPS:
;
#BGCHANGES:1.500=runaway.mp4=1.000=0=0=0=StretchNoLoop==CrossFade_Faster==,
190.500=runawaybg.png=1.000=0=0=1===CrossFade_Fastest==,
99999=-nosongbg-=1.000=0=0=0 // don't automatically add -songbackground-
;
#KEYSOUNDS:;
#ATTACKS:;

//---------------dance-single - C. Picardy----------------
#NOTES:
     dance-single:
     :
     Beginner:
     1:
     0.088582,0.132470,0.078919,0.022548,0.000000,55.000000,48.000000,7.000000,2.000000,0.000000,0.000000,0.088582,0.132470,0.078919,0.022548,0.000000,55.000000,48.000000,7.000000,2.000000,0.000000,0.000000:
0000
0000
0000
0000
,
0000
0000
0000
0000
,
0000
0000
0000
0000
,
0000
0000
0000
0000
,
2000
0000
0000
0000
,
3000
0000
0000
0000
,
0002
0000
0000
0000
,
0003
0000
0000
0000
,
1000
0000
0000
0000
,
0001
0000
0000
0000
,
1000
0000
0000
0000
,
0001
0000
0000
0000
,
0100
0000
0000
0000
,
0010
0000
0000
0000
,
0100
0000
0000
0000
,
0010
0000
0000
0000
,
1001
0000
0000
0000
,
0100
0000
0100
0000
,
0100
0000
0000
0000
,
0010
0000
0010
0000
,
0010
0000
0000
0000
,
1000
0000
0000
0000
,
0001
0000
0000
0000
,
0010
0000
0000
0000
,
0100
0000
0100
0000
,
0100
0000
0000
0000
,
0010
0000
0010
0000
,
0010
0000
0000
0000
,
0001
0000
0001
0000
,
0001
0000
0000
0000
,
1000
0000
1000
0000
,
1000
0000
0000
0000
,
1001
0000
0000
0000
,
0100
0000
0000
0000
,
0010
0000
0000
0000
,
1000
0000
0000
0000
,
0001
0000
0000
0000
,
0010
0000
0000
0000
,
0100
0000
0000
0000
,
1000
0000
0000
0000
,
1001
0000
0000
0000
,
0110
0000
0000
0000
,
0100
0000
0000
0000
,
0110
0000
0000
0000
,
0001
0000
0000
0000
,
1001
0000
0000
0000
,
0100
0000
0000
0000
,
0110
0000
0000
0000
;

//---------------dance-single - C. Picardy----------------
#NOTES:
     dance-single:
     :
     Challenge:
     9:
     0.665171,0.782633,0.507334,0.180385,0.428415,413.000000,368.000000,45.000000,16.000000,24.000000,0.000000,0.665171,0.782633,0.507334,0.180385,0.428415,413.000000,368.000000,45.000000,16.000000,24.000000,0.000000:
0000
0000
0000
0000
,
0000
0000
0000
0000
,
0000
0000
0000
0000
,
0000
0000
0000
0000
0000
0001
1000
0200
,
0000
0000
0010
0000
0000
0000
1000
0000
0000
0000
0010
0000
0000
0010
0000
0000
,
0310
0002
0000
0100
0000
0013
0001
0200
,
0000
0310
1000
0200
0000
0310
0100
1000
,
0001
0100
0001
0100
0001
0100
0001
0100
0010
1000
0010
1000
0010
1000
0010
1000
,
0001
0000
000M
1000
0100
0000
0010
0000
0100
0000
1000
0000
0010
0000
0100
0000
,
0010
0000
00M0
0100
0010
0000
1000
0000
0001
0000
0100
0000
0010
0000
1000
0010
,
0100
0000
0M00
0001
0010
0000
0100
0000
0010
0000
0001
0000
1000
0000
0100
0000
,
0010
0000
00M0
0100
1000
0000
0010
0000
0100
0000
0010
0000
1000
0000
0001
0000
,
0010
0000
00M0
0100
1000
0000
0100
0000
0001
0000
0100
0000
1000
0000
0010
0000
,
0001
0000
000M
0010
1000
0000
0001
0000
0100
0000
1000
0000
0100
0000
0001
0010
,
0100
0000
0M00
1000
0010
0000
0001
0000
0010
0000
1000
0000
0100
0000
0010
0000
,
0001
0000
000M
0100
0010
0000
1000
0000
1001
0000
0001
0000
1001
0000
1000
0000
,
0100
0010
0000
0200
0000
0000
1000
0000
1300
0000
11MM
0000
11MM
0000
0000
0001
,
0100
0000
0100
0002
0000
0000
0013
0000
0100
0010
0000
0000
1MM2
0000
0000
0000
,
0103
0000
0101
0000
0000
0010
1000
0100
0010
0000
0010
0000
0012
0000
0000
1000
,
0103
0010
0110
0001
1001
0001
M1M2
0000
,
1003
0100
1000
0100
0010
0001
0010
0001
0000
0100
0010
0000
1000
0100
0010
0001
,
0100
0001
0100
0001
0100
0010
0100
0010
0000
1000
0001
0000
0010
0100
0010
0100
,
1000
0000
1000
0100
0000
0010
0001
0100
0010
0000
1000
0001
0000
0010
0100
1000
,
0001
0000
0000
0000
0000
0000
0000
0000
0100
0000
0000
0000
0000
0000
0000
0000
0101
0000
0000
0000
0000
0000
0000
0000
0001
0000
0000
0000
0000
0000
0000
0000
1001
0000
0000
0000
0000
0000
0000
0000
1000
0000
0000
0000
0000
0000
0000
0000
2200
0000
0000
0000
0000
0000
0000
0000
0000
0000
0000
0000
0000
0000
0000
3300
,
0010
0100
1000
1001
0100
0010
1000
1001
,
0010
0100
0010
1001
0100
0010
0100
1001
,
1000
0001
0100
0101
0001
1000
0100
1100
,
0001
0100
0010
0110
1000
0100
0010
0110
,
0001
0100
0101
0101
1000
0100
1100
1100
,
0010
0001
0011
0011
1000
0010
1010
1010
,
0100
0010
0110
0110
0001
1000
1001
1001
,
1000
0100
1000
0100
1000
0000
0001
0100
0010
0000
1000
0000
0100
0000
0010
0000
,
0100
0000
0M00
0010
0001
0000
0010
0000
0100
0000
0010
0000
0001
0000
0100
0000
,
0010
0000
00M0
1000
0010
0000
0100
0000
0010
0000
1000
0000
0100
0000
0010
0100
,
1000
0000
M000
0001
0100
0000
0010
0000
1000
0000
0010
0000
0100
0000
0001
0000
,
1000
0000
M000
0001
0100
0000
0010
0000
1000
0000
0100
0000
0010
0000
0100
0000
,
1000
0000
M000
0010
0001
0000
0010
0000
1000
0000
0010
0000
0100
0000
1000
0000
,
0100
0000
0M00
0001
0010
0000
1000
0000
0010
0000
0100
0000
1000
0000
0001
0100
,
1000
0000
M000
0100
0001
0000
0100
0000
1000
0000
0100
0000
0001
0000
0010
0000
,
1000
0000
M000
0010
0001
0000
0100
0000
0210
0000
0000
1000
0000
0000
0001
0000
,
0301
0000
0000
0010
0100
0000
0010
0000
0002
0000
0000
1000
0000
0000
0100
0000
,
0103
0000
0000
0010
1000
0000
0100
0000
0010
0000
0110
0000
0000
1100
0000
0000
,
1001
0000
0000
0100
0010
0000
1000
0000
0200
0000
0000
0010
0000
0000
0001
0000
,
1300
0000
0000
0001
0010
0000
0001
0000
0100
0000
0000
0110
0000
0000
1010
0000
,
1001
0000
0000
0100
0010
0000
0100
0000
2000
0000
0000
0010
0000
0000
0001
0000
,
3100
0000
0000
0010
1000
0000
0001
0000
0010
0000
0011
0000
0000
0110
0000
0000
,
0110
0000
0000
1000
0100
0000
0010
0000
0002
0000
0000
0100
0000
0000
0010
0000
,
1003
0000
0000
0100
0010
0000
0100
0000
1000
0000
1001
0000
0101
0000
0001
0000
;

//---------------dance-single - C. Picardy----------------
#NOTES:
     dance-single:
     :
     Hard:
     8:
     0.521829,0.485772,0.180385,0.067645,0.208571,324.000000,308.000000,16.000000,6.000000,0.000000,0.000000,0.521829,0.485772,0.180385,0.067645,0.208571,324.000000,308.000000,16.000000,6.000000,0.000000,0.000000:
0000
0000
0000
0000
,
0000
0000
0000
0000
,
0000
0000
0000
0000
,
0000
0000
0000
0000
0000
1000
0100
0010
,
0000
0000
1001
0000
0000
0000
0100
0000
0000
0000
0010
0000
0000
0010
0000
0000
,
0010
0100
0000
1001
0000
0100
0010
0100
,
0000
0001
1000
0001
0000
1000
0100
0010
,
2002
0000
0000
3003
,
0100
0000
0000
0100
0010
0000
0100
0000
0001
0000
0100
0000
0010
0000
0100
0000
,
0001
0000
0000
1000
0100
0000
0010
0000
0100
0000
1000
0000
0100
0000
0010
0000
,
0100
0000
0000
0010
0001
0000
1000
0000
0001
0000
0100
0000
0001
0000
1000
0000
,
0010
0000
0000
0100
0010
0000
1000
0000
0001
0000
0100
0000
0110
0000
0000
0000
,
1001
0000
0000
0001
1000
0000
0100
0000
0001
0000
0100
0000
1000
0000
0010
0000
,
0100
0000
0000
0100
0001
0000
0100
0000
1000
0000
0100
0000
0001
0000
0010
0000
,
0100
0000
0000
0010
0100
0000
1000
0000
0001
0000
1000
0000
0100
0000
0010
0000
,
0001
0000
0000
1000
0001
0000
0100
0000
0010
0000
0100
0000
1001
0000
0000
0000
,
0001
0000
0001
0100
0000
0000
0010
0000
1000
0000
1000
0000
1100
0000
0000
0000
,
0010
0000
0010
0001
0000
0000
1000
0000
0100
0010
0000
0000
1001
0000
0000
0000
,
0100
0000
0100
0000
0000
0010
0100
0000
0010
0000
0100
0000
0010
0000
0000
0000
,
1000
1000
0001
0001
0100
0010
0110
0000
,
1000
0000
0001
1000
0000
0000
0100
0000
0010
0000
0100
0010
0000
0000
0100
0000
,
1000
0000
0100
1000
0000
0000
0001
0000
0010
0000
0001
0010
0000
0000
0001
0000
,
0100
0000
0010
1000
0000
0000
1000
0000
0100
0000
0010
0001
0000
0000
0010
0000
,
0100
0100
0010
0010
0001
0100
0110
0000
,
1000
0100
1000
0100
0010
0100
0010
0100
,
0010
0001
0010
0001
0100
0001
0100
0001
,
0100
0010
0100
0010
1000
0010
1000
0010
,
0100
0001
0100
0001
0010
0100
0010
0100
,
1000
0100
0001
0100
1000
0100
0001
0100
,
1000
0010
0001
0010
1000
0010
0001
0010
,
1000
0010
0001
1000
0100
0001
1000
0010
,
0001
0010
1000
0100
0010
0000
1001
0000
,
0010
0000
0000
0100
0010
0000
0001
0000
0010
0000
0100
0000
1000
0000
0010
0000
,
0100
0000
0000
0010
1000
0000
0001
0000
0100
0000
0001
0000
1000
0000
0100
0000
,
0010
0000
0000
0001
0010
0000
0001
0000
0100
0000
0010
0000
1000
0000
0100
0000
,
0010
0000
0000
0100
1000
0000
0100
0000
0010
0000
0000
0000
1001
0000
0000
0000
,
0100
0000
0000
0100
0010
0000
1000
0000
0100
0000
0010
0000
0100
0000
1000
0000
,
0001
0000
0000
0001
0100
0000
0010
0000
1000
0000
0100
0000
0010
0000
0100
0000
,
1000
0000
0000
0010
0100
0000
0010
0000
1000
0000
0100
0000
0010
0000
0001
0000
,
1000
0000
0000
0001
0100
0000
0000
0000
0010
0000
0000
0010
0000
0000
1000
0000
,
2001
0000
0000
0000
0100
0000
0000
0000
0010
0000
0000
0001
0000
0000
0001
0000
,
3001
0000
0000
0000
0100
0000
0000
0000
0010
0000
1000
0000
0000
0001
0000
0000
,
1002
0000
0000
0000
0100
0000
0000
0000
0010
0000
0000
1000
0000
0000
1000
0000
,
1003
0000
0000
0000
0001
0000
0100
0000
0010
0000
0000
0010
0000
0000
1000
0000
,
1020
0000
0000
0000
0100
0000
0000
0000
0001
0000
0000
0100
0000
0000
0100
0000
,
0130
0000
0000
0010
0100
0000
0000
0000
0001
0000
0010
0000
0000
0100
0000
0000
,
0210
0000
0000
0000
0001
0000
0000
0000
1000
0000
0000
0010
0000
0000
0010
0000
,
0310
0000
0000
0100
1000
0000
0001
0000
1000
0000
0100
0000
0010
0000
0100
0000
;

//---------------dance-single - C. Picardy----------------
#NOTES:
     dance-single:
     :
     Medium:
     6:
     0.401035,0.404810,0.315674,0.067645,0.011274,249.000000,221.000000,28.000000,6.000000,0.000000,0.000000,0.401035,0.404810,0.315674,0.067645,0.011274,249.000000,221.000000,28.000000,6.000000,0.000000,0.000000:
0000
0000
0000
0000
,
0000
0000
0000
0000
,
0000
0000
0000
0000
,
0000
0000
0000
0000
0000
0000
0000
1000
,
0000
0001
0000
1000
0000
0001
0000
0100
,
0000
0010
0000
0100
0000
0010
0000
1001
,
0000
0100
0000
1001
0000
0100
0010
2000
,
0002
0000
0000
3003
,
0110
0000
1000
0100
1000
0000
0001
0000
,
0101
0000
1000
0010
1000
0000
0100
0000
,
0011
0000
0100
0010
0100
0000
1000
0000
,
1010
0000
0010
0100
0010
0000
1000
0000
,
0101
0000
0001
0100
1000
0000
0100
0000
,
0110
0000
1000
0100
0001
0000
0100
0000
,
1001
0000
0100
0010
0000
0010
1000
0001
,
1000
1000
0010
0110
,
1000
0000
0000
1000
0000
0000
0000
0000
0001
0000
0001
0000
0001
0000
0000
0000
,
0100
0000
0000
0100
0000
0000
0000
0000
0010
0000
0010
0000
0010
0000
0000
0000
,
1000
1000
0000
0001
0001
0000
0110
0000
,
1000
0000
0001
0000
0010
0100
1000
0000
,
0001
0100
0000
0100
0001
0000
1000
0000
,
0100
1000
0000
1000
0100
0000
0010
0000
,
0001
1000
0000
1000
0001
0000
0110
0000
,
1000
0001
0000
0001
1000
0000
0110
0000
,
1000
0100
0010
0000
0010
0100
1000
0000
,
0001
0100
0010
0000
0010
0100
0001
0000
,
0001
0100
1000
0000
1000
0100
0001
0000
,
1000
0100
0001
0000
0001
0100
1000
0000
,
0001
0100
0001
0000
1000
0100
1000
0000
,
0001
0010
0001
0000
1000
0010
1000
0000
,
0001
0100
0010
0000
1000
0100
0010
0000
,
0001
0010
0100
0000
1100
0000
0101
0000
,
1001
0000
0010
0000
0100
0000
0010
0100
,
0010
0000
0001
0000
0100
0000
0010
0100
,
0010
0000
1000
0000
0100
0000
0010
0001
,
0010
0000
0100
0000
1000
0000
0010
1000
,
0010
0000
0100
0000
0011
0000
1000
0100
,
1000
0000
0010
0000
0110
0000
1000
0010
,
0100
0000
0001
0000
1100
0000
0001
0010
,
0100
0010
0011
1010
,
1001
0000
0100
0000
0020
0000
1000
1000
,
1030
0000
0100
0000
0010
0000
0010
0001
,
0010
0000
1100
0000
0002
0000
0100
0100
,
0103
0000
0010
0000
1010
0000
0001
0010
,
0100
0000
1100
0000
2000
0000
0010
0010
,
3010
0000
0100
0000
0101
0000
0010
0001
,
0100
0000
0010
0000
0200
0000
0010
0010
,
0310
0000
1010
0000
0101
0000
1000
0001
;

//---------------dance-single - C. Picardy----------------
#NOTES:
     dance-single:
     :
     Easy:
     3:
     0.246419,0.296086,0.214208,0.236756,0.000000,153.000000,134.000000,19.000000,21.000000,0.000000,0.000000,0.246419,0.296086,0.214208,0.236756,0.000000,153.000000,134.000000,19.000000,21.000000,0.000000,0.000000:
// measure 0
0000
0000
0000
0000
,  // measure 1
0000
0000
0000
0000
,  // measure 2
0000
0000
0000
0000
,  // measure 3
0000
0000
0000
0000
,  // measure 4
0200
0000
0310
0000
,  // measure 5
2000
0000
3001
0000
,  // measure 6
0010
0000
0100
0000
,  // measure 7
0220
0000
0000
0330
,  // measure 8
0001
0001
0101
0000
,  // measure 9
1000
1000
1100
0000
,  // measure 10
0010
0010
0110
0000
,  // measure 11
0100
0100
1001
0000
,  // measure 12
0010
0100
1001
0000
,  // measure 13
0100
0010
1001
0000
,  // measure 14
1000
0100
0011
0000
,  // measure 15
0001
0100
2020
3030
,  // measure 16
0001
0001
0100
0100
,  // measure 17
0020
0000
1000
1030
,  // measure 18
0110
0000
0001
0001
,  // measure 19
1000
0100
1000
1001
,  // measure 20
0220
0330
1000
0001
,  // measure 21
0220
0330
0010
0100
,  // measure 22
2002
3003
0100
0010
,  // measure 23
2002
3003
0100
0100
,  // measure 24
0010
0100
0010
0100
,  // measure 25
0001
1000
0100
1000
,  // measure 26
0010
0100
0001
0010
,  // measure 27
0100
0010
0001
1000
,  // measure 28
0001
0100
1000
0100
,  // measure 29
0001
0010
1000
0010
,  // measure 30
0001
0010
0100
1000
,  // measure 31
0010
0100
2002
3003
,  // measure 32
1000
1000
0100
0000
,  // measure 33
0001
0001
0100
0000
,  // measure 34
0010
0010
0100
0000
,  // measure 35
0001
0001
1000
0000
,  // measure 36
0100
0010
0100
0000
,  // measure 37
1000
0001
0100
0000
,  // measure 38
0010
0010
1000
0001
,  // measure 39
1001
0000
0010
0010
,  // measure 40
0200
0000
0010
0000
,  // measure 41
0301
0000
1000
0001
,  // measure 42
2000
0000
0010
0000
,  // measure 43
3001
0000
0100
0100
,  // measure 44
0120
0000
1000
0000
,  // measure 45
0130
0000
0001
0100
,  // measure 46
1002
0000
0010
0000
,  // measure 47
1003
1000
0001
1000
;
