#TITLE:Round About;
#SUBTITLE:~Guardian Heroes~;
#ARTIST:Treasure/GH Sound Team;
#TITLETRANSLIT:;
#SUBTITLETRANSLIT:;
#ARTISTTRANSLIT:;
#GENRE:;
#CREDIT:;
#BANNER:roundaboutbn.png;
#BACKGROUND:roundaboutbg.png;
#LYRICSPATH:;
#CDTITLE:;
#MUSIC:roundabout.ogg;
#OFFSET:-0.027000;
#SAMPLESTART:90.449089;
#SAMPLELENGTH:12.940000;
#SELECTABLE:YES;
#DISPLAYBPM:147.000000;
#BPMS:0.000000=140.119995
,32.000000=147.014999
;
#STOPS:
;
#BGCHANGES:16.000=colorfulbrightflares.mp4=1.000=1=0=1=SongBgWithMovieViz==CrossFade==,
32.000=roundaboutbg.png=1.000=0=0=1===CrossFade_Fastest==,
33.000=flash=2.000=0=0=1====#00FF00=,
33.250=roundaboutbg.png=1.000=0=0=1=====,
35.000=flash=2.000=0=0=1====#0000FF=,
35.250=roundaboutbg.png=1.000=0=0=1=====,
36.000=yellow flash=2.000=0=0=1=====,
36.250=colorfulbrightflares.mp4=1.000=0=1=1=StretchRewind====,
68.000=flash=2.000=0=0=1====#FF0000=,
68.250=redshinywave.mp4=1.000=0=1=1=StretchRewind====,
100.000=colorfulcorefountain.mp4=1.000=0=1=1=StretchRewind==SlideUp==,
132.000=colorfulbrightflares.mp4=1.000=0=1=1=StretchRewind==SlideRight==,
172.000=redshinywave.mp4=1.000=0=0=1===SlideLeft==,
212.000=colorfulbrightflares.mp4=1.000=0=0=1=SongBgWithMovieViz===#FF0000=,
212.333=colorfulbrightflares.mp4=1.000=0=0=1=SongBgWithMovieViz===#00FF00=,
212.667=colorfulbrightflares.mp4=1.000=0=0=1=SongBgWithMovieViz===#0000FF=,
213.000=colorfulbrightflares.mp4=1.000=0=0=1=SongBgWithMovieViz===#FFFF00=,
213.333=colorfulbrightflares.mp4=1.000=0=0=1=SongBgWithMovieViz===#00FFFF=,
213.667=colorfulbrightflares.mp4=1.000=0=0=1=SongBgWithMovieViz===#FF00FF=,
214.000=colorfulbrightflares.mp4=1.000=0=0=1=SongBgWithMovieViz===#FF0000=,
214.333=colorfulbrightflares.mp4=1.000=0=0=1=SongBgWithMovieViz===#00FF00=,
214.667=colorfulbrightflares.mp4=1.000=0=0=1=SongBgWithMovieViz===#0000FF=,
215.000=colorfulbrightflares.mp4=1.000=0=0=1=SongBgWithMovieViz===#FFFF00=,
215.333=colorfulbrightflares.mp4=1.000=0=0=1=SongBgWithMovieViz===#FF00FF=,
215.667=colorfulbrightflares.mp4=1.000=0=0=1=SongBgWithMovieViz====,
217.000=flash=1.000=0=0=1=====,
217.250=roundaboutbg.png=1.000=0=0=1=====,
220.000=colorfulcorefountain.mp4=1.000=0=1=1=StretchRewind==SlideUp==,
253.000=yellow flash=2.000=0=0=1=====,
253.250=colorfulcorefountain.mp4=1.000=0=1=1=StretchRewind====,
254.000=yellow flash=2.000=0=0=1=====,
254.250=colorfulcorefountain.mp4=1.000=0=0=1=SongBgWithMovieViz====,
260.000=redshinywave.mp4=1.600=0=1=1=StretchRewind==SlideRight==,
276.000=colorfulbrightflares.mp4=1.600=0=1=1=StretchRewind==SlideLeft==,
299.500=roundaboutbg.png=1.000=0=0=1=====,
99999=-nosongbg-=1.000=0=0=0 // don't automatically add -songbackground-
;
#KEYSOUNDS:;
#ATTACKS:;

//---------------dance-single - C. Picardy----------------
#NOTES:
     dance-single:
     C. Picardy:
     Beginner:
     1:
     0.091069,0.149411,0.055780,0.111560,0.000000,80.000000,73.000000,7.000000,14.000000,0.000000,0.000000,0.091069,0.149411,0.055780,0.111560,0.000000,80.000000,73.000000,7.000000,14.000000,0.000000,0.000000:
0000
0000
0000
0000
,
0000
0000
0000
0000
,
0000
0000
0000
0000
,
0000
0000
0000
0000
,
2000
0000
3000
0000
,
0000
0000
0000
0000
,
0002
0000
0003
0000
,
0000
0000
0000
0000
,
0000
0000
0000
0000
,
0001
0000
0000
0000
,
0001
0000
0000
0000
,
1000
0000
0000
0000
,
1000
0000
0000
0000
,
0100
0000
0000
0000
,
0100
0000
0000
0000
,
0010
0000
0000
0000
,
0010
0000
0000
0000
,
1001
0000
0000
0000
,
0001
0000
0000
0000
,
1000
0000
0000
0000
,
0010
0000
0000
0000
,
1001
0000
0000
0000
,
0001
0000
0000
0000
,
0100
0000
0000
0000
,
0010
0000
0000
0000
,
1001
0000
0000
0000
,
0001
0000
0001
0000
,
0000
0000
0000
0000
,
0100
0000
0100
0000
,
0100
0000
0000
0000
,
1000
0000
1000
0000
,
1000
0000
0000
0000
,
0010
0000
0010
0000
,
0020
0000
0030
0000
,
2000
0000
3000
0000
,
0002
0000
0003
0000
,
2000
0000
3000
0000
,
0200
0000
0300
0000
,
0020
0000
0030
0000
,
0001
0000
0001
0000
,
0001
0000
0000
0000
,
1000
0000
1000
0000
,
1000
0000
0000
0000
,
1001
0000
0000
0000
,
0100
0000
0000
0000
,
0010
0000
0000
0000
,
1000
0000
0000
0000
,
1001
0000
0000
0000
,
0100
0000
0000
0000
,
0020
0000
0000
0000
,
0000
0000
0030
0000
,
0100
0000
0000
0000
,
0010
0000
0000
0000
,
2002
0000
0000
3003
,
0000
0000
0000
0000
,
0100
0000
0000
0000
,
0010
0000
0000
0000
,
1000
0000
0000
0000
,
0001
0000
0000
0000
,
0100
0000
0000
0000
,
0001
0000
0000
0000
,
1000
0000
0000
0000
,
0010
0000
0000
0000
,
0000
0000
2002
0000
,
0000
0000
3003
0000
,
1000
0000
1000
0000
,
1000
0000
0000
0000
,
0001
0000
0001
0000
,
0001
0000
0000
0000
,
0100
0000
0100
0000
,
0100
0000
0000
0000
,
0001
0000
0000
0000
,
0100
0000
0000
0000
,
0010
0000
0000
0000
,
2000
0000
0000
0000
,
3000
0000
0000
0000
;

//---------------dance-single - C. Picardy----------------
#NOTES:
     dance-single:
     C. Picardy:
     Easy:
     4:
     0.294837,0.328156,0.191246,0.342649,0.000000,259.000000,235.000000,24.000000,43.000000,0.000000,0.000000,0.294837,0.328156,0.191246,0.342649,0.000000,259.000000,235.000000,24.000000,43.000000,0.000000,0.000000:
0000
0000
0000
0000
,
0000
0000
0000
0000
,
0000
0000
0000
0000
,
0000
0000
0000
0000
,
2000
0000
3002
0000
,
0203
0000
0320
0000
,
2030
0000
3200
0000
,
0320
0000
0031
1000
,
0000
1000
0000
1000
,
1001
1000
0001
0001
,
0001
0000
0100
0010
,
0010
1000
0010
1000
,
1000
0000
0001
0100
,
0101
0010
1000
1000
,
0001
0000
1000
0100
,
0010
0001
0100
0100
,
0001
0000
1000
0010
,
1001
0010
0100
0100
,
0100
0010
1000
0100
,
1001
0010
0001
0001
,
0001
0100
0010
1000
,
0110
1000
0001
0001
,
0001
0010
0100
0100
,
1100
0001
1000
1000
,
1000
0000
0010
0110
,
1001
0010
0100
0100
,
0001
1000
0002
0000
,
0013
0100
1000
1000
,
0002
0000
1003
0100
,
0011
0100
0010
0010
,
1000
0100
2000
0000
,
3001
1000
0100
1000
,
0020
0000
1000
0130
,
2002
0003
0020
0030
,
0002
0003
0020
3030
,
1000
0100
0010
0001
,
1000
0000
0010
0010
,
1001
0001
0000
0001
,
2000
0000
3001
0001
,
0010
0100
0010
0010
,
0100
1001
0000
0100
,
0010
1000
0001
1000
,
0010
0010
0000
0010
,
1010
0100
0010
0001
,
0200
0000
0001
0310
,
1000
0010
0100
0001
,
1000
0001
1000
0001
,
0220
0330
1000
0001
,
0010
0100
1000
0010
,
1002
0200
0300
2000
,
3000
0020
0033
1000
,
0100
0100
0010
0010
,
0200
0000
1000
1300
,
0001
0100
0010
1000
,
0000
0220
0000
0330
,
0001
1000
0100
0100
,
0010
0001
2002
3003
,
0010
0100
0001
0001
,
0220
0330
0100
0100
,
1000
0001
0100
0001
,
1000
0010
0202
0303
,
0001
0001
0020
0000
,
0130
0100
2000
0000
,
3010
0110
2002
3000
,
1000
1000
0100
1003
,
0001
1000
0100
1000
,
0010
0100
0001
1001
,
0100
0010
0100
0010
,
0001
1000
0010
0110
,
0001
1000
0100
0010
,
0001
1000
0010
0100
,
0002
0000
0203
0000
,
0320
0000
2030
0000
,
3001
0010
0100
1000
,
0202
0000
0000
0000
0000
0000
0000
0303
;

//---------------dance-single - C. Picardy----------------
#NOTES:
     dance-single:
     C. Picardy:
     Medium:
     6:
     0.428026,0.447485,0.294837,0.239057,0.055780,376.000000,339.000000,37.000000,30.000000,0.000000,0.000000,0.428026,0.447485,0.294837,0.239057,0.055780,376.000000,339.000000,37.000000,30.000000,0.000000,0.000000:
0000
0000
0000
0000
,
0000
0000
0000
0000
,
0000
0000
0000
0000
,
0000
0000
0000
0000
,
2000
0000
0000
0100
3100
0000
0010
0000
,
0000
0000
0000
0000
0001
0000
0000
0000
1000
0000
0000
1000
0000
0000
2000
0000
,
0000
3001
1000
0000
0001
0000
0100
0000
,
0000
0000
0000
0000
0010
0000
0000
0000
1000
0000
0000
0001
0000
0000
0100
0000
,
0000
0000
0010
0000
0000
0100
0010
0000
,
1001
0000
0000
0000
0100
0000
0000
0000
0010
0000
0000
0010
0000
0000
1000
0000
,
0000
0001
0100
0000
0010
0000
0010
1000
,
0001
0000
0000
0000
0011
0000
0000
0000
0010
0000
0000
0010
0000
0000
0010
0000
,
0000
0100
1000
0000
0001
0000
1000
0100
,
0010
0000
0000
0000
0011
0000
0000
0000
0100
0000
0000
0100
0000
0000
0010
0000
,
0000
0000
0010
0000
1000
0000
0000
0000
0010
0000
0000
0010
0000
0000
1000
0000
,
0001
0000
0000
0000
0110
0000
0000
0000
1000
0000
0000
1000
0000
0000
0001
0000
,
0000
0000
1000
0000
0100
0000
0000
0000
0010
0000
0000
0010
0000
0000
0001
0000
,
1000
0011
1000
0101
,
0010
0000
1100
0000
0001
1000
0100
0010
,
0001
0011
0100
0011
,
0100
0000
0000
0000
0010
0000
1000
0000
0001
0000
0000
1000
0000
0000
0001
0000
,
1000
0000
0100
0000
1000
0100
0010
0001
,
1000
0000
1010
0000
0100
0001
1000
0000
,
1010
0100
0011
1000
,
0010
0000
0100
0001
0010
0100
1000
0000
,
1100
0000
1000
0100
1000
0100
1000
0100
,
0000
0010
0001
0010
0000
0100
1000
0000
,
0101
0000
0100
0010
0100
0010
0100
0020
,
0000
0000
0000
2030
0000
0001
3001
0000
,
0110
0000
1000
0000
0001
0100
0001
0200
,
0000
0301
1000
0200
0000
0000
0300
0010
,
0100
1000
0001
0200
0000
0310
1000
0002
,
0000
0000
0000
0010
0000
0010
0013
0000
,
0002
0000
0200
0003
0020
0300
0200
0030
,
0020
0300
2000
0030
0200
3000
1300
2000
,
0000
3001
0010
0100
1000
0010
0000
2002
,
0000
0000
3003
1000
0000
0001
1000
0000
,
0102
0000
0010
0000
0100
0000
1003
0020
,
0000
1000
1030
0000
0100
1000
0000
0001
,
0010
0000
0000
0000
0011
0000
0000
0000
0001
0000
0000
0001
0000
0000
0001
0000
,
0000
0100
0010
0000
1000
0000
0100
0010
,
0100
0000
0000
0000
0010
0000
0000
0000
0001
0000
0000
1000
0000
0000
1000
0000
,
0000
0010
0100
0000
0010
1000
0100
0000
,
1001
0000
1000
0100
0020
0000
0100
0130
,
0200
0000
1000
0000
0310
0000
1000
0001
,
0100
0000
0001
0100
0010
1000
0000
0001
,
0200
0010
0001
0310
,
1001
0000
1000
0010
1000
0000
0100
1000
,
0100
0000
0010
0001
0010
0001
0000
2100
,
0000
0001
0000
0010
,
0000
0000
3001
0000
0000
1000
0100
0010
,
0001
0000
0001
0100
0010
0000
1000
0001
,
0020
0001
0000
0130
,
1100
1010
0011
0101
,
0000
0220
0000
0330
,
1000
0000
0000
0000
0110
0000
0000
0000
1000
0000
0000
1000
0000
0000
1000
0000
,
0000
0001
0010
0001
0000
0010
0001
0000
,
1000
0000
0000
0000
0101
0000
0000
0000
0010
0000
0000
0010
0000
0000
0010
0000
,
0000
0010
1000
0010
0000
0100
0010
0000
,
0100
0000
0000
0000
1001
0000
0000
0000
0100
0000
0000
0100
0000
0000
0100
0000
,
0000
1000
0100
0010
0000
0001
1000
0000
,
0100
0010
0100
1000
0000
0001
0100
0010
,
0000
1000
0100
0010
0000
0001
1000
0000
,
0010
1001
0220
0000
,
0000
0000
0000
0330
,
0001
1100
0010
0101
,
1000
0100
0010
0000
0001
0000
1000
0000
,
0001
1100
0001
0110
,
1000
0100
1000
0100
0000
0010
0001
0000
,
1000
0101
0010
1100
,
0010
0100
1000
1000
0000
0001
0100
0000
,
0001
0010
0100
1000
0000
0010
0100
0001
,
0000
0100
0010
1000
0000
0100
1000
0000
,
0010
1000
0100
0010
0000
0001
1000
0002
,
0000
0000
0000
0000
0000
0100
0100
0103
;

//---------------dance-single - C. Picardy----------------
#NOTES:
     dance-single:
     C. Picardy:
     Hard:
     9:
     0.568045,0.597145,0.294837,0.374523,0.322727,499.000000,462.000000,37.000000,47.000000,3.000000,0.000000,0.568045,0.597145,0.294837,0.374523,0.322727,499.000000,462.000000,37.000000,47.000000,3.000000,0.000000:
0000
0000
0000
0000
,
0000
0000
0000
0000
,
0000
0000
0000
0000
,
0000
0000
0000
0000
,
0002
0000
0013
0100
2000
0000
3100
0010
,
0001
0000
0000
0000
0010
0000
0100
0000
2000
0000
0000
0001
0000
0000
0010
0000
,
3000
0001
0100
0000
0102
0000
0103
0001
,
1000
0000
0000
0000
0100
0000
0010
0000
0001
0000
0000
1000
0000
0000
0002
0000
,
0000
0000
0000
0000
1003
0000
0000
0000
0000
0000
0100
0010
0100
0000
0000
0000
,
0010
0000
0001
0000
0010
0100
0000
0000
1000
0100
0000
1000
0000
0000
0001
0000
,
0000
0000
0100
0000
0001
0010
0000
0000
0100
0000
0000
0100
0000
0000
1000
0000
,
1001
0000
0000
0000
0001
0100
0000
0000
0010
1000
0000
0010
0000
0000
1000
0000
,
0000
0000
0001
0000
0001
0100
0000
0000
0010
1000
0000
0001
0000
0000
1000
0001
,
1000
0000
0100
0000
1000
0001
0000
0000
0100
0001
0000
0100
0000
0000
0010
0000
,
0000
0000
1000
0000
0100
0010
0000
0000
0001
0000
0000
0001
0000
0000
1000
0100
,
1000
0000
0000
0000
1000
0010
0000
0000
0100
0001
0000
0100
0000
0000
0010
0000
,
0000
0000
1000
0000
1000
0010
0000
0000
1000
0000
0000
0100
0000
0000
1000
0100
,
1000
0000
0010
0000
0100
0001
0000
0001
0010
0000
0100
0000
0010
0000
0001
0000
,
0100
0000
1000
0000
0100
0001
0000
0001
0010
0000
0100
0000
1000
0000
0001
1000
,
0001
0000
0010
0000
0100
1000
0000
1000
0100
0000
0010
0000
0001
0000
0010
0000
,
1000
0000
0010
0000
0001
0100
0000
0100
0010
0000
1000
0000
0100
0000
1000
0010
,
1000
0000
0100
0000
0100
0010
0000
0000
0001
1000
0000
0100
0000
0000
0010
0000
,
0000
0000
0001
0000
0001
0100
0000
0000
0001
0000
0000
1001
0000
0000
1000
0000
,
1001
0000
0000
0000
0100
0001
0000
0000
0010
0001
0000
1000
0000
0000
1100
0000
,
0000
0000
1000
0000
0001
0100
0000
0000
0001
1000
0000
1000
0001
0000
0010
0001
,
0010
0000
0001
0010
0100
1000
0010
0200
,
0000
0000
0301
0000
0010
0000
0200
0000
0000
0000
1000
0000
1300
0000
0000
0001
,
1000
0000
0001
0010
0001
0010
0100
2000
,
0000
0000
0001
0000
0001
0000
3001
0000
0000
0010
0001
0000
1000
0000
0001
0100
,
0001
0000
1000
0010
1000
0100
0010
0002
,
0000
0000
0013
0000
0100
0000
2000
0000
0000
0000
0010
0000
3010
0000
0100
0010
,
0100
0001
1000
0100
0010
0100
1000
0002
,
0000
0000
MMM0
0000
0000
0000
1003
0000
1000
0100
1000
0000
0001
0000
0001
0100
,
0002
0000
0200
0003
1300
0100
0001
0020
,
0000
0100
0000
1000
0030
0002
0000
0010
,
0013
0100
1000
1000
0001
0010
0100
2000
,
0000
0000
0010
3010
0000
1001
1001
0000
,
2000
0000
0010
0000
3001
0010
0001
0200
,
0000
0010
0310
0000
0100
0020
0000
1030
,
0002
0000
0000
0000
1003
0000
0000
0000
0101
0000
0000
0100
0000
0000
0101
0000
,
0000
0000
1000
0000
1010
0000
0000
0000
1000
0001
0000
0000
1000
0000
0000
0100
,
0010
0000
0000
0000
0001
0000
0000
0000
1100
0000
0000
0100
0000
0000
1100
0000
,
0000
0000
0001
0000
0101
0000
0000
0000
1000
0010
1000
0000
0001
0000
1000
0100
,
1000
0000
0001
0100
2000
0000
3100
0001
,
0020
0000
0100
0000
0031
0010
0100
1000
,
0001
0000
1000
0100
0010
0001
0000
1000
,
0200
0000
0002
0300
2000
0003
0020
3000
,
0002
0030
1003
0100
1100
0000
0010
0001
,
0021
0000
0000
0130
1000
0001
0000
0201
,
0000
0010
1000
1000
,
0001
0000
0000
0000
0010
0000
0300
0000
0000
0001
1000
0000
0001
0000
1000
0001
,
1000
1000
0100
0010
0001
0001
0010
0100
,
2000
0010
0001
3010
,
1000
0100
1000
0001
1000
0001
0100
0001
0100
0010
0100
0010
,
0000
2002
0000
3003
,
1100
0000
0000
0000
0101
0000
0000
0000
1010
0000
0000
1000
0000
0000
1010
0000
,
0000
0010
0100
0002
0000
1000
1003
0100
,
0110
0000
0000
0000
0011
0000
0000
0000
0100
0000
0000
0100
0000
0000
0101
0000
,
0000
0000
1000
0000
0100
0000
1100
0000
0000
0010
0000
0000
0110
0000
0000
0000
,
1001
0000
0000
0000
1100
0000
0000
0000
0011
0000
0000
0001
0000
0000
0011
0000
,
0000
0010
0100
2000
0000
3001
1001
0000
,
1000
0001
0100
0020
0000
1030
0100
0010
,
0100
0000
1000
0000
0001
0000
0020
0000
0000
0000
0130
0000
1000
0000
0100
0010
,
0000
0000
0011
0000
0202
0000
0000
0003
,
0010
0000
0000
0000
0310
0000
0000
0000
1000
0001
1000
0000
0001
0000
1000
0001
,
1000
0100
0001
0100
0010
0100
1000
0010
,
0001
0010
1000
2100
0000
0100
3100
0010
,
0001
0100
0010
0100
1000
0100
0001
0200
,
0000
0000
0301
0000
0010
0000
0120
0000
0000
0000
0001
0000
0031
0000
0100
0010
,
0100
0010
1000
0010
0100
0010
0001
0010
,
1000
0100
0010
0012
0000
1000
1003
0100
,
0001
0100
1000
0020
0000
0130
0001
0010
,
1000
0010
0001
0020
0000
0130
1000
0100
,
0010
0100
1000
0002
0000
0013
0001
0022
,
0000
0000
0000
0000
0000
0000
0000
0000
0033
1000
0100
0000
1000
0000
0001
0100
;

//---------------dance-single - C. Picardy----------------
#NOTES:
     dance-single:
     C. Picardy:
     Challenge:
     10:
     0.712618,0.746431,0.549832,0.502020,0.529910,626.000000,557.000000,69.000000,63.000000,45.000000,5.000000,0.712618,0.746431,0.549832,0.502020,0.529910,626.000000,557.000000,69.000000,63.000000,45.000000,5.000000:
// measure 0
0000
0000
0000
0000
,  // measure 1
0000
0000
0000
0000
,  // measure 2
0000
0000
0000
0000
,  // measure 3
0000
0000
0000
0000
,  // measure 4
0002
0000
0103
1000
0200
0000
0020
0300
,  // measure 5
2000
0000
0030
0000
0200
0000
3000
0000
0320
0000
0000
1000
0000
0000
0001
0000
,  // measure 6
0000
0130
2000
0000
0020
3000
0002
0030
,  // measure 7
2000
0000
0003
0000
3100
0000
0010
0000
1000
0000
0000
0001
0000
0000
2000
0000
,  // measure 8
0000
0000
0000
0000
3100
0000
0000
0000
M00M
0000
1000
0001
1001
0000
0000
0000
,  // measure 9
1000
0000
0001
0100
0001
0100
0000
0000
0010
1000
0000
1000
0010
0000
1M1M
0000
,  // measure 10
0000
0000
1000
0010
0100
0001
0000
0000
0011
0000
0000
0110
0000
0000
1000
0100
,  // measure 11
1000
0000
0001
0010
0001
0100
0000
0000
0010
1000
0000
1000
0100
0000
11MM
0000
,  // measure 12
0000
0000
0001
0010
0001
0010
0001
0000
1000
0100
0000
0100
1000
0000
0100
0010
,  // measure 13
0001
0000
1000
0100
0010
0100
1000
0000
0001
0100
0000
0100
0010
0000
M11M
0000
,  // measure 14
0000
0000
1000
0010
0100
0010
1000
0000
0101
0000
0000
0110
0000
0000
1000
0001
,  // measure 15
0100
0000
0010
1000
0001
1000
0010
0000
1000
0100
0000
0100
1000
0000
1MM1
0000
,  // measure 16
0000
0000
0010
0100
0001
0100
0010
0000
1000
0010
1000
0000
0001
0000
1000
0100
,  // measure 17
1000
0000
0001
0100
0010
0100
0001
0000
1000
0100
0000
0100
0010
0000
MM11
0000
,  // measure 18
0000
0000
1000
0100
0010
0100
1000
0000
0002
0000
0000
0100
0000
0000
0013
0100
,  // measure 19
1000
0000
1000
0100
0010
0001
0010
0000
0100
1000
0000
1000
0010
0000
M11M
0000
,  // measure 20
0000
0000
1000
0010
0100
0010
1000
0000
0001
0010
0000
0010
0100
0000
0100
1000
,  // measure 21
0001
0000
0001
0010
0100
0010
0001
0000
1000
0010
0000
1000
0100
0000
1MM1
0000
,  // measure 22
0000
0000
0100
0001
0010
0100
1000
0000
0020
0000
0000
0100
0000
0000
1030
0001
,  // measure 23
0100
0000
0001
0010
0100
0010
1000
0000
0010
0001
0000
0001
0100
0000
1M1M
0000
,  // measure 24
0000
0000
1000
0010
0100
0010
0001
0000
0010
1000
0100
0000
1000
0000
0001
0100
,  // measure 25
M1M1
0000
0000
0000
0001
0010
0001
0000
0010
0000
0100
0000
1000
0000
0020
0000
,  // measure 26
0000
0000
0130
0000
0001
0000
0020
0000
0000
0000
0100
0000
0130
0000
0010
0001
,  // measure 27
0100
0000
0000
0000
0010
1000
0010
0000
0100
0000
0100
0000
0001
0000
2000
0000
,  // measure 28
0000
0000
0010
0000
3010
0000
1010
0000
0000
0100
1000
0000
0001
0000
1000
0100
,  // measure 29
0010
0000
0000
0000
0001
0010
0001
0000
0010
0000
1000
0000
0010
0000
0001
0000
,  // measure 30
0100
0000
1000
0000
0100
0000
0020
0000
0000
0000
1000
0000
1030
0000
0001
0100
,  // measure 31
1000
0100
0001
0010
1000
0010
0100
2000
,  // measure 32
0000
0000
0001
0000
3001
0000
1000
0000
0010
1000
0100
0000
1001
0000
0010
0001
,  // measure 33
0200
0000
0320
0000
1030
0010
0200
0002
,  // measure 34
0000
0000
1000
0000
0000
0000
0010
0000
0303
0000
0101
0000
0M0M
0000
0100
0010
,  // measure 35
2000
0100
0010
0100
3002
0010
0100
0013
,  // measure 36
0000
0000
0100
0000
0010
0000
2001
0000
0000
0000
3001
0000
1MM1
0000
1000
0001
,  // measure 37
0100
0000
0010
0000
2000
0000
0000
0000
3100
0000
0010
0100
0010
0000
0100
0000
,  // measure 38
1000
0001
0100
0000
0001
0000
0010
0100
1000
0000
1200
0000
0000
0000
0310
0000
,  // measure 39
0012
0000
0000
0000
0103
0000
0000
0000
0110
0000
0000
1010
0000
0000
2200
0000
,  // measure 40
0000
3300
M1M1
0000
11MM
0000
0000
0000
0001
0100
0010
0000
0100
0000
0001
0010
,  // measure 41
0100
0000
0000
0000
1100
0000
0000
0000
0110
0000
0000
0011
0000
0000
0202
0000
,  // measure 42
0000
0303
11MM
0000
M1M1
0000
0000
0000
1000
0001
0100
0000
1001
0000
1000
0100
,  // measure 43
0010
0000
0100
0010
0100
1000
0010
0001
,  // measure 44
0010
0000
0100
0000
0010
0000
1000
0000
0100
0000
0010
0000
0001
0000
0010
0100
,  // measure 45
1000
0000
0001
0010
0001
0100
0000
0010
,  // measure 46
0120
0000
0000
0000
0002
0000
0030
0000
2000
0000
0003
0000
3100
0000
0010
1000
,  // measure 47
0100
0000
0100
0001
0100
0010
0100
1000
,  // measure 48
0010
0100
0010
0001
0010
0100
0001
0202
,  // measure 49
0000
0000
0010
0000
0000
0300
2000
0000
,  // measure 50
0010
0000
0000
0000
0010
0000
3003
0000
0000
0001
1000
0000
1100
0000
0001
0100
,  // measure 51
0010
0010
1000
1010
0001
0001
0011
0100
,  // measure 52
2000
0000
0000
0000
0200
0000
0000
0000
0000
0000
3300
0000
MM11
0000
0010
0100
,  // measure 53
1000
0010
0001
0010
0100
1000
0100
0001
0010
1000
0010
0001
,  // measure 54
0000
0000
MMMM
0000
2002
0000
0000
0000
3003
0001
1000
0000
1010
0000
0001
0010
,  // measure 55
0001
0000
0100
0000
0101
0000
0000
0000
0110
0000
0000
1010
0000
0000
0202
0000
,  // measure 56
0000
0303
0010
0000
0100
0000
1002
0000
0000
0000
1000
0000
1003
0000
001M
0100
,  // measure 57
0010
0000
1000
0000
1100
0000
0000
0000
0101
0000
0000
0011
0000
0000
2200
0000
,  // measure 58
0000
3300
0010
0000
MM01
0000
0012
0000
0000
0100
0000
0000
0010
0000
0103
1000
,  // measure 59
001M
0000
0100
0000
0110
0000
0000
0000
1010
0000
0000
0011
0000
0000
0202
0000
,  // measure 60
0000
0303
0010
0000
0100
0000
2100
0000
0000
0000
0001
0000
3001
0000
M010
0100
,  // measure 61
1000
0100
0010
0002
0000
0100
0103
1000
,  // measure 62
0100
0000
0001
0000
0010
0000
0200
0000
0000
1300
0100
0000
1001
0000
0001
0100
,  // measure 63
0000
0000
0110
0000
0202
0000
0000
0300
,  // measure 64
1000
0000
1000
0000
2003
0000
0000
0000
3001
0100
0001
0000
0101
0000
1000
0100
,  // measure 65
0010
0000
0001
0100
0010
0000
1000
0010
0100
0000
0001
0010
0100
0000
1000
0100
,  // measure 66
0010
0000
0001
0000
1000
0000
2010
0000
0000
0000
0001
0000
3001
0000
1000
0010
,  // measure 67
0100
0000
0010
1000
0100
0000
0010
0001
1000
0000
0010
0100
0001
0000
0010
0100
,  // measure 68
1000
0000
0010
0000
0100
0000
0110
0000
0000
1010
0000
0000
0101
0000
0010
0100
,  // measure 69
1000
0000
0001
0100
0010
0000
1000
0001
0100
0000
0010
1000
0001
0000
0010
0100
,  // measure 70
1000
0000
0100
0000
0010
0000
0012
0000
0000
0000
0100
0000
0103
0000
0010
0100
,  // measure 71
0001
0010
0100
2100
0000
3010
0001
0010
,  // measure 72
1000
0100
0010
0012
0000
0103
1000
0100
,  // measure 73
0001
0010
0100
2000
0000
3010
0100
2002
,  // measure 74
0000
0000
0000
0000
0000
0000
0000
0000
3003
0001
1000
0000
1100
0000
MM10
0001
;
