#TITLE:Robo X;
#SUBTITLE:;
#ARTIST:Yuzo Koshiro feat. BGM1401;
#TITLETRANSLIT:;
#SUBTITLETRANSLIT:;
#ARTISTTRANSLIT:;
#GENRE:;
#CREDIT:;
#BANNER:roboxbn.png;
#BACKGROUND:roboxbg.png;
#LYRICSPATH:;
#CDTITLE:;
#MUSIC:robox.ogg;
#OFFSET:-0.052615;
#SAMPLESTART:38.449974;
#SAMPLELENGTH:12.000000;
#SELECTABLE:YES;
#BPMS:0.000000=150.009995
;
#STOPS:
;
#BGCHANGES:16.000=bluegrid.mp4=1.000=0=0=0=StretchNoLoop==CrossFade_Fastest==,
32.000=bluegrid.mp4=1.000=0=0=1=SongBgWithMovieViz==CrossFade_Fastest==,
48.000=flash=1.600=0=0=1=====,
48.250=gridarray.mp4=1.000=0=0=0=StretchNoLoop====,
80.000=gridarray.mp4=1.000=0=0=1=SongBgWithMovieViz==CrossFade_Fastest==,
96.000=flash=1.600=0=0=1=====,
96.250=greengrid.mp4=1.000=0=0=0=StretchNoLoop====,
128.000=flash=1.600=0=0=1=====,
128.250=greengrid.mp4=1.000=0=0=1=====,
160.000=bluegrid.mp4=1.000=0=0=0=StretchNoLoop===#FFFF00=,
192.000=gridarray.mp4=1.000=0=0=0=StretchNoLoop====,
224.000=flash=1.600=0=0=1=====,
224.250=greengrid.mp4=1.000=0=0=1=====,
256.000=flash=1.000=0=0=1=====,
256.250=roboxbg.png=1.000=0=0=1=====,
99999=-nosongbg-=1.000=0=0=0 // don't automatically add -songbackground-
;
#KEYSOUNDS:;
#ATTACKS:;

//---------------dance-single - C. Picardy----------------
#NOTES:
     dance-single:
     :
     Beginner:
     1:
     0.099959,0.153361,0.076680,0.000000,0.000000,73.000000,65.000000,8.000000,0.000000,0.000000,0.000000,0.099959,0.153361,0.076680,0.000000,0.000000,73.000000,65.000000,8.000000,0.000000,0.000000,0.000000:
0000
0000
0000
0000
,
0000
0000
0000
0000
,
0000
0000
0000
0000
,
0000
0000
0000
0000
,
0100
0000
0000
0000
,
0100
0000
0000
0000
,
0010
0000
0000
0000
,
0010
0000
0000
0000
,
0001
0000
0001
0000
,
0000
0000
0000
0000
,
1000
0000
1000
0000
,
0000
0000
0000
0000
,
0100
0000
0000
0000
,
0010
0000
0000
0000
,
0001
0000
0000
0000
,
1000
0000
0000
0000
,
0010
0000
0000
0000
,
0100
0000
0000
0000
,
0010
0000
0000
0000
,
0100
0000
0000
0000
,
1000
0000
1000
0000
,
0000
0000
0000
0000
,
0001
0000
0001
0000
,
0000
0000
0000
0000
,
0110
0000
0000
0000
,
0100
0000
0000
0000
,
1001
0000
0000
0000
,
0001
0000
0000
0000
,
0110
0000
0000
0000
,
0010
0000
0000
0000
,
1001
0000
0000
0000
,
1000
0000
0000
0000
,
0100
0000
0100
0000
,
0100
0000
0000
0000
,
0010
0000
0010
0000
,
0010
0000
0000
0000
,
0001
0000
0001
0000
,
0001
0000
0000
0000
,
1000
0000
1000
0000
,
1000
0000
0000
0000
,
0100
0000
0000
0000
,
0010
0000
0000
0000
,
0001
0000
0000
0000
,
1000
0000
0000
0000
,
0010
0000
0000
0000
,
0100
0000
0000
0000
,
1000
0000
0000
0000
,
0001
0000
0000
0000
,
1000
0000
1000
0000
,
0000
0000
0000
0000
,
0001
0000
0001
0000
,
0000
0000
0000
0000
,
0100
0000
0100
0000
,
0000
0000
0000
0000
,
0010
0000
0010
0000
,
0000
0000
0000
0000
,
1001
0000
0000
0000
,
0010
0000
0000
0000
,
1001
0000
0000
0000
,
0100
0000
0000
0000
,
0110
0000
0000
0000
,
1000
0000
0000
0000
,
0110
0000
0000
0000
,
0001
0000
0000
0000
,
0100
0000
0000
0000
;

//---------------dance-single - C. Picardy----------------
#NOTES:
     dance-single:
     :
     Easy:
     4:
     0.290290,0.368066,0.210871,0.172531,0.000000,212.000000,190.000000,22.000000,18.000000,0.000000,0.000000,0.290290,0.368066,0.210871,0.172531,0.000000,212.000000,190.000000,22.000000,18.000000,0.000000,0.000000:
// measure 0
0000
0000
0000
0000
,  // measure 1
0000
0000
0000
0000
,  // measure 2
0000
0000
0000
0000
,  // measure 3
0000
0000
0000
0000
,  // measure 4
0010
0000
1000
0000
,  // measure 5
0001
0000
1000
0001
,  // measure 6
0100
0000
1000
0000
,  // measure 7
0010
0000
0100
0010
,  // measure 8
1000
1000
0000
0010
,  // measure 9
0010
0010
0000
0000
,  // measure 10
0100
0100
0001
1000
,  // measure 11
1000
1000
0200
0000
,  // measure 12
0310
0000
1001
0000
,  // measure 13
1000
0100
0010
0010
,  // measure 14
0001
0000
0110
0000
,  // measure 15
0010
1000
0001
0001
,  // measure 16
0100
0000
1001
0000
,  // measure 17
0010
0100
1000
1000
,  // measure 18
0010
0000
0110
0000
,  // measure 19
0001
1000
0100
0100
,  // measure 20
0010
0010
0010
0001
,  // measure 21
0001
0001
0000
1000
,  // measure 22
0100
0100
0100
1000
,  // measure 23
1000
1000
0002
0000
,  // measure 24
1003
0000
0010
0000
,  // measure 25
0100
0001
0110
1001
,  // measure 26
0100
0000
0010
0000
,  // measure 27
1000
0100
1001
0110
,  // measure 28
0001
0000
1000
0000
,  // measure 29
0010
0100
0101
1010
,  // measure 30
0100
0000
0010
0000
,  // measure 31
0001
1000
1100
0011
,  // measure 32
0100
0100
0002
0000
,  // measure 33
1003
0100
0010
0001
,  // measure 34
1000
1000
0020
0000
,  // measure 35
1030
0001
0100
0010
,  // measure 36
0100
0100
0020
0000
,  // measure 37
0130
0001
0010
0100
,  // measure 38
0010
0010
0002
0000
,  // measure 39
1003
0100
1000
0010
,  // measure 40
0100
0000
0001
1000
,  // measure 41
2002
0000
0000
3003
,  // measure 42
0010
0000
0100
0001
,  // measure 43
0220
0000
0000
0330
,  // measure 44
1000
0000
0100
0010
,  // measure 45
0022
0000
0000
0033
,  // measure 46
0100
0000
0010
1000
,  // measure 47
2200
0000
0000
3300
,  // measure 48
1000
1000
1000
0100
,  // measure 49
0010
0010
0001
1000
,  // measure 50
0010
0010
0010
0100
,  // measure 51
0100
0100
0020
0000
,  // measure 52
0130
0100
0100
0001
,  // measure 53
1000
1000
0010
0100
,  // measure 54
0001
0001
0001
1000
,  // measure 55
1000
1000
0002
0000
,  // measure 56
1003
0001
1000
0010
,  // measure 57
0100
0010
0100
0001
,  // measure 58
1000
0100
1000
0001
,  // measure 59
0010
0001
0220
0330
,  // measure 60
1000
0001
0110
1000
,  // measure 61
0100
0110
0001
1000
,  // measure 62
0010
0010
1001
0100
,  // measure 63
0100
0110
1000
0100
,  // measure 64
1001
0000
0000
0000
;

//---------------dance-single - C. Picardy----------------
#NOTES:
     dance-single:
     :
     Medium:
     6:
     0.421743,0.460083,0.220456,0.191701,0.000000,308.000000,285.000000,23.000000,20.000000,0.000000,0.000000,0.421743,0.460083,0.220456,0.191701,0.000000,308.000000,285.000000,23.000000,20.000000,0.000000,0.000000:
0000
0000
0000
0000
,
0000
0000
0000
0000
,
0000
0000
0000
0000
,
0000
0000
0000
0000
,
1000
0000
0010
0000
0100
0000
0000
0001
,
1000
0100
0010
0010
,
0001
0000
1000
0000
0100
0000
0000
1000
,
0001
0010
0100
1000
,
0001
0000
0001
0100
0001
0000
0001
0000
,
0001
0100
0001
0000
1000
0000
1000
0000
,
1000
0000
1000
0010
1000
0000
1000
0000
,
1000
0010
1000
0000
0002
0000
0000
0000
,
1003
0000
0100
0000
1000
0000
0010
1000
,
0100
0010
0002
1003
,
0010
0000
0100
0000
0001
0000
0100
0001
,
0010
0100
2000
3010
,
0100
0000
0001
0000
0010
0000
0001
0100
,
0010
1000
0200
0310
,
0100
0000
1000
0000
0010
0000
1000
0100
,
0010
0001
2000
3001
,
0100
0010
0100
0000
0001
0000
1000
0000
,
0100
0010
0100
0000
0001
0000
1000
0000
,
0010
0000
0100
0010
1000
0000
0100
0000
,
0010
0001
0100
0000
0020
0000
0000
0000
,
1030
1000
1000
0000
0100
0000
0010
0000
,
0001
0001
0001
0000
0110
0000
0011
0000
,
0100
0100
0100
0000
0010
0000
1000
0000
,
0100
0100
0100
0000
0110
0000
1100
0000
,
0010
0010
0010
0000
0100
0000
0001
0000
,
0010
0010
0010
0000
0101
0000
1010
0000
,
0100
0100
0100
0000
1000
0000
0010
0000
,
0100
0100
0100
0000
1001
0000
0110
0000
,
1000
0100
0001
0000
0100
0000
1000
0000
,
0001
0100
1000
0000
0001
0000
0110
0000
,
0001
0100
1000
0000
0100
0000
0001
0000
,
1000
0100
0001
0000
1000
0000
0110
0000
,
0001
0010
0001
0000
0100
0000
0010
0000
,
1000
0100
1000
0000
0001
0000
1100
0000
,
0010
0001
0010
0000
0100
0000
1000
0000
,
0001
0010
0001
0000
1000
0000
0101
0000
,
0020
0000
1000
0000
0130
0000
0001
0010
,
0200
0010
0001
1000
,
0302
0000
0010
0000
1003
0000
0100
1000
,
0020
0100
1000
1000
,
0230
0000
0001
0000
0310
0000
1000
0001
,
2000
0010
0100
0100
,
3002
0000
0010
0000
1003
0000
0100
0010
,
0002
0010
1000
1000
,
0103
0000
0010
0100
0010
0000
1000
0000
,
0100
0010
0100
0000
0000
1000
0001
0000
,
1000
0001
1000
0000
0100
0000
1000
0001
,
1000
0010
0200
0000
,
0310
0000
0100
0001
1000
0000
0010
0000
,
0100
0001
1000
0000
0000
0010
0100
0000
,
0001
0010
0100
0000
0010
0000
0001
0010
,
0100
1000
0002
0000
,
1003
0001
0100
0000
1001
0000
0010
1000
,
0100
0000
1001
0000
0100
0010
0100
0000
,
0001
1000
0001
0000
0110
0000
1000
0100
,
0010
1001
0220
0330
,
1000
0100
0010
0000
0011
0000
1000
0100
,
0010
0000
0011
0000
0010
0100
1000
0000
,
0001
0100
0010
0000
0101
0000
0001
0100
,
0010
0101
2200
3300
,
0011
0000
0000
0000
;

//---------------dance-single - C. Picardy----------------
#NOTES:
     dance-single:
     :
     Hard:
     9:
     0.624398,0.649148,0.172531,0.047925,0.191701,456.000000,438.000000,18.000000,5.000000,24.000000,0.000000,0.624398,0.649148,0.172531,0.047925,0.191701,456.000000,438.000000,18.000000,5.000000,24.000000,0.000000:
0000
0000
0000
0000
,
0000
0000
0000
0000
,
0000
0000
0000
0000
,
0000
0000
0000
0000
,
1000
0001
0001
0000
1000
0100
0000
1000
,
0100
0010
0001
0010
0100
0000
0011
0000
,
0100
0010
0010
0000
1000
0001
0000
1000
,
0001
0100
0010
0100
0001
0000
0110
0000
,
1000
0100
1000
0100
1000
0000
0001
0100
,
0001
0100
0001
0000
1000
0100
1000
1000
,
0100
0010
0001
0010
0100
0000
1000
0100
,
0010
0000
0001
0000
0100
0000
0000
0000
0001
1000
0001
1000
0001
0000
0000
0000
,
1000
0000
0100
0000
1000
0000
0000
0000
0001
0100
0000
0000
0000
0000
0010
0000
,
0100
0001
0100
0000
0010
0000
1000
0000
0200
0000
0000
0000
0310
0000
0000
0000
,
0001
0000
1000
0000
1000
0000
0000
0000
0100
1000
0000
0000
0000
0001
1000
0001
,
1000
0000
0100
0010
0002
0000
1003
0000
,
0010
0000
0100
0000
0001
0000
0000
0000
1000
0010
0000
0000
0000
0000
0100
0000
,
0010
1000
0010
0000
1000
0000
0100
0000
0010
0000
0000
0000
1100
0000
0000
0000
,
0010
0000
0010
0000
0001
0000
0000
0000
0100
0010
0000
0000
0000
1000
0001
1000
,
0001
0000
0100
0010
2000
0000
3001
0000
,
1000
0100
0001
0100
1000
0000
1000
0010
,
0001
0010
1000
0000
1000
0010
0100
0100
,
0001
0010
0100
0010
0001
0001
1000
0100
,
0010
0000
0100
0000
1000
0000
0000
0000
0001
0100
0001
0100
0001
0000
0000
0000
,
0100
0000
0001
0000
0010
0000
0001
0000
0100
0000
0001
1000
0000
0000
0001
0000
,
1000
0100
1000
0000
0001
0000
0100
0000
0010
0000
0000
0000
1001
0000
0000
0000
,
1000
0000
0010
0000
0100
0000
0010
0000
1000
0000
0001
0100
0000
0000
0010
0000
,
0100
0010
0100
0000
0001
0000
0100
0000
1000
0000
0000
0000
0101
0000
0000
0000
,
1000
0000
1000
0000
0100
0000
0100
0000
0010
0000
0010
0001
0000
0000
1000
0000
,
0100
0010
0001
0000
0100
0000
0100
0000
0010
0000
0000
0000
1001
0000
0000
0000
,
0001
0000
0001
0000
0010
0000
0010
0000
0100
0000
0100
1000
0000
0000
0001
0000
,
1000
0100
0010
0000
0001
0000
0001
0000
1000
0000
0000
0000
0110
0000
0000
0000
,
1000
0000
0100
0000
0010
0000
0100
0000
1000
0100
0000
0000
0000
0010
0001
0000
,
0100
0001
0010
0001
1000
0000
1010
0000
,
0100
0000
0001
0000
0010
0000
0001
0000
0100
0010
0000
0000
0000
1000
0010
0000
,
0100
0001
0010
0100
1000
0000
0101
0000
,
0001
0000
0100
0000
1000
0000
0100
0000
0001
0100
0000
0000
0000
0010
0100
0000
,
0001
0010
0100
0010
0001
0000
0110
0000
,
1000
0000
0100
0000
0010
0000
0001
0000
0010
0100
0000
0000
0000
1000
0100
0000
,
0010
0001
0100
0010
0100
0000
1001
0000
,
0100
01M0
0010
0010
1M00
1000
0100
001M
,
0001
0001
M100
0100
00M1
0001
M100
0100
,
0010
0010
100M
1000
0001
0001
0100
0010
,
1M00
1000
01MM
0100
0001
0001
M100
0100
,
10MM
1000
0010
0010
MM01
0001
0010
1000
,
01M0
0100
001M
0010
MM01
0001
0100
0100
,
1000
1000
0100
01M0
0010
0010
1000
01M0
,
0010
001M
0001
M001
1000
100M
0001
0001
,
1000
0100
0010
0001
1000
0000
0010
1000
,
0100
0010
0001
0000
0100
0001
0010
0100
,
1000
0100
1000
0100
0010
0000
0001
0100
,
1000
0000
0100
0000
0001
0000
0000
0000
1000
0100
1000
0100
1000
0000
0000
0000
,
0001
0100
0010
0100
0001
0000
0010
0100
,
1000
0100
0010
0000
0001
0100
1000
0100
,
0001
0100
1000
0100
0010
0000
0001
0010
,
1000
0000
0100
0000
0010
0000
0000
0000
0001
0010
0001
0010
0001
0000
0000
0000
,
0010
0100
1000
0001
1001
0000
0100
0001
,
0010
0100
0110
0000
1000
0100
0010
0010
,
0001
0100
1000
0100
0101
0001
1000
0010
,
0100
0000
0001
0000
1000
0000
0000
0000
0001
0100
0001
0100
0001
0100
0001
0000
,
0101
0100
0010
1000
0100
0000
0010
0001
,
1000
0010
1010
0000
0100
0001
0010
0010
,
0110
0100
1000
0001
0100
0100
0010
1000
,
0100
0000
0010
0000
0001
0000
0000
0000
1000
0100
1000
0100
1000
0100
1000
0000
,
2200
0000
3300
0000
;

//---------------dance-single - C. Picardy----------------
#NOTES:
     dance-single:
     :
     Challenge:
     11:
     0.905104,0.872241,0.623029,0.249212,0.666162,661.000000,596.000000,65.000000,26.000000,92.000000,0.000000,0.905104,0.872241,0.623029,0.249212,0.666162,661.000000,596.000000,65.000000,26.000000,92.000000,0.000000:
0000
0000
0000
0000
,
0000
0000
0000
0000
,
0000
0000
0000
0000
,
0000
0000
0000
0000
,
1000
0000
0001
0000
0001
0000
1000
0000
0100
0010
0100
0000
0000
1000
0100
1000
,
0100
0010
0001
0000
1000
0000
0010
0100
0001
0100
0001
0000
0100
0000
0010
0000
,
1000
0000
0100
0000
0100
0000
1000
0000
0010
0100
0010
0000
0000
1000
0001
0100
,
0010
0100
0010
0000
1000
0000
0100
0010
0001
0010
0001
0000
1000
0000
0100
0000
,
1100
0001
M100
0001
M110
0000
11MM
0001
,
1M00
0010
011M
0000
01M1
1000
01M1
1000
,
101M
0100
00M1
1000
1100
0001
M1M1
0100
,
M010
0000
1000
0000
0001
0000
000M
0000
1000
0100
1000
0100
1000
0100
1000
0100
,
1000
0000
0001
0000
0100
0000
0010
0000
1000
0010
0100
0000
0001
1000
0100
1000
,
0001
1000
0100
0000
1000
0000
0001
0100
0001
0100
0001
0000
0101
0000
0110
0000
,
1000
0000
0001
0000
0100
0000
0001
0000
1000
0001
0010
0000
0100
1000
0100
1000
,
0100
0010
0001
0000
1000
0000
0100
0010
0100
1000
0100
0000
0110
0000
1100
0000
,
0001
0000
0100
0000
0010
0000
0100
0000
0001
0010
0100
0000
0010
0001
0010
0100
,
1000
0100
0010
0000
0001
0000
1000
0010
0100
0001
0100
0001
1000
0010
1000
0010
,
0100
0000
0001
0000
1000
0000
0100
1000
0100
1000
0000
0000
1000
0100
0010
0001
,
1000
0100
0010
0001
1000
0000
0010
0100
0001
0100
0010
0000
1000
0000
0110
0000
,
0101
10M0
010M
11M0
0101
M000
0M1M
1010
,
1MM0
1001
M1M1
0000
M10M
0110
M10M
0101
,
10M0
0100
11MM
1000
0MM1
0101
1010
M0M1
,
0100
0000
001M
0000
1000
0000
M000
0000
0001
0100
0001
0100
0001
0100
0001
0100
,
0001
0000
1000
0000
1010
0000
0001
0000
0100
0000
0010
1000
0000
0000
0010
0000
,
0100
0010
0100
0010
1000
0001
1000
0001
1001
0000
M00M
0000
0110
0000
0MM0
0000
,
1100
0000
0010
0000
0011
0000
1000
0000
0100
0000
0010
0001
0000
0000
1000
0000
,
0001
0100
0001
0100
0010
1000
0010
1000
1010
0000
M0M0
0000
0101
0000
0M0M
0000
,
1000
0000
0001
0000
0100
0000
0110
0000
1000
0000
0001
1000
0000
0000
0010
0000
,
0100
0000
0000
0100
0000
0000
0001
0000
0000
0001
0000
0000
1000
0000
0000
0010
1000
0010
1000
0000
0000
1001
0000
0000
,
0100
0000
0010
0000
0010
0000
1010
0000
0001
0000
0100
0010
0000
0000
1000
0000
,
0001
0000
0000
0001
0000
0000
1000
0000
0000
0100
0000
0000
0010
0100
0010
0100
0000
0000
1000
0001
1000
0001
0000
0000
,
1001
0000
1000
0000
0100
0000
0010
0000
0001
0010
0001
0000
1000
0100
0010
0100
,
1000
0000
0000
0001
0000
0000
0100
0000
0000
0000
0000
0000
0010
0000
0000
0000
0000
0000
1000
0000
0000
0001
0000
0000
1000
0000
0000
0100
0000
0000
0010
0000
0100
0000
0010
0000
0100
0000
0000
0000
0000
0000
0110
0000
0000
0000
0000
0000
,
0010
0000
0001
0000
0011
0000
0100
0000
0010
1000
0000
0000
0001
0100
0001
0100
,
0010
0000
0000
1000
0000
0000
0010
0000
0000
0000
0000
0000
0100
0000
0000
0000
0000
0000
0001
0000
0000
0100
0000
0000
0010
0000
0000
1000
0000
0000
0001
0000
1000
0000
0001
0000
1000
0000
0000
0000
0000
0000
1001
0000
0000
0000
0000
0000
,
0100
0000
1000
0000
0010
0000
0100
0000
0001
0100
0010
0000
1000
0100
0010
0001
,
0010
0000
0000
0100
0000
0000
1000
0000
0000
0000
0000
0000
0001
0000
0000
0000
0000
0000
1000
0000
0000
0100
0000
0000
1000
0000
0000
0001
0000
0000
1000
0000
0001
0000
0100
0000
0010
0000
0000
0000
0000
0000
0110
0000
0000
0000
0000
0000
,
1000
0000
0001
0000
0100
0000
0010
0000
1000
0010
1000
0000
0001
0100
0010
1000
,
0010
0000
0000
0100
0000
0000
0001
0000
0000
0000
0000
0000
1000
0000
0000
0000
0000
0000
0010
0000
0000
0100
0000
0000
0001
0000
0000
0010
0000
0000
0001
0000
0010
0000
0100
0000
1000
0000
0000
0000
0000
0000
1100
0000
0000
0000
0000
0000
,
0120
0000
M100
0000
0100
0000
M130
0000
0021
0000
M001
0030
0201
0000
0010
0300
,
1M20
1000
100M
1000
1M00
1000
100M
1030
,
2M01
0000
0001
0000
00M1
0000
3001
0000
0210
0000
M01M
0300
2100
0000
0001
3000
,
M201
0001
00M1
0001
M001
0001
00M1
0301
,
2M1M
0000
0010
0000
0M1M
0000
3010
0000
210M
0000
01M0
3000
0102
0000
0100
0003
,
M120
0100
010M
0100
M100
0100
010M
0130
,
M012
0000
0010
0000
0M10
0000
0013
0000
1M20
0000
1000
0030
0M12
0000
0010
0003
,
2M10
0010
001M
0010
0M10
0010
001M
3010
,
0100
0000
0001
0000
1000
0000
0010
0000
0100
0001
0100
0000
0010
0000
1000
0000
,
0001
0000
0000
0000
0000
0000
1000
0000
0000
0000
0000
0000
0100
0000
0000
0010
0000
0000
0100
0000
0000
0000
0000
0000
1000
0000
0100
0000
1000
0000
0100
0000
1000
0000
0100
0000
1000
0000
0000
0000
0000
0000
0001
0000
0000
0000
0000
0000
,
0100
0000
0001
0000
1000
0000
0100
0000
0010
0001
0010
0000
0100
0000
1000
0001
,
1000
0000
0100
0000
0010
0000
0001
0000
0100
0001
1000
0001
0100
0001
1000
0001
,
1000
0000
0100
0000
0010
0000
0001
0000
1000
0010
1000
0000
0001
0000
0100
0000
,
0010
0000
0000
0000
0000
0000
1000
0000
0000
0000
0000
0000
0100
0000
0000
0010
0000
0000
0100
0000
0000
0000
0000
0000
0010
0000
0001
0000
0010
0000
0001
0000
0010
0000
0001
0000
0010
0000
0000
0000
0000
0000
0100
0000
0000
0000
0000
0000
,
1000
0000
0001
0000
0100
0000
0001
0000
0010
0100
0010
0000
0001
0000
1000
0100
,
1000
0000
0001
0000
0010
0000
0100
0000
1000
0010
0100
0001
1000
0010
0100
0001
,
2000
0000
0010
0000
0100
0000
0001
3000
1100
0000
MM00
0000
0002
0000
0010
0000
,
1000
0000
0000
0000
0000
0000
0100
0000
0000
0003
0000
0000
1001
0000
0000
0000
0000
0000
M00M
0000
0000
0000
0000
0000
1000
0000
0100
0000
0010
0000
0001
0000
0010
0000
0100
0000
1000
0000
0000
0000
0000
0000
0001
0000
0000
0000
0000
0000
,
1002
0100
1000
0010
1000
0103
2001
0010
,
0100
0000
0001
3000
1010
0000
M0M0
0000
0010
0100
0010
0100
0010
0100
0010
0100
,
0020
0100
0100
0001
0130
0MM0
1200
0010
,
1000
0000
0000
0001
0000
0000
1300
0000
0000
MM00
0000
0000
0001
0010
0100
1000
0100
0010
0001
0000
0000
1000
0000
0000
,
1020
0100
0001
0100
1000
0031
M200
0010
,
1000
0000
00M1
0000
1300
0000
MM00
0000
0001
0100
0001
0100
0001
0100
0001
0100
,
0202
0000
0000
0000
,
0303
0000
0000
0000
;
