#TITLE:Rising Up;
#SUBTITLE:;
#ARTIST:Olivier Deriviere;
#TITLETRANSLIT:;
#SUBTITLETRANSLIT:;
#ARTISTTRANSLIT:;
#GENRE:;
#CREDIT:;
#BANNER:risingupbn.png;
#BACKGROUND:risingupbg.png;
#LYRICSPATH:;
#CDTITLE:;
#MUSIC:risingup.ogg;
#OFFSET:-0.046362;
#SAMPLESTART:89.938423;
#SAMPLELENGTH:14.000003;
#SELECTABLE:YES;
#BPMS:0.000000=130.000000
;
#STOPS:
;
#BGCHANGES:8.000=bokehflare.mp4=1.000=1=0=1=SongBgWithMovieViz==CrossFade==,
16.000=bokehflare.mp4=1.000=0=0=1===SlideUp==,
64.000=flash=2.000=0=0=1====#0000FF=,
64.250=laserbeamsparty.mp4=1.000=0=0=1=====,
96.000=circularlasershow.mp4=1.000=0=0=1===SlideLeft==,
160.000=bokehflare.mp4=1.000=0=1=1=StretchRewind==SlideRight==,
191.000=risingupbg.png=1.000=1=0=1===CrossFade==,
195.000=risingupbg.png=1.000=0=0=1====#FF0000=,
195.250=risingupbg.png=1.000=0=0=1====#00FF00=,
195.500=risingupbg.png=1.000=0=0=1====#0000FF=,
195.750=risingupbg.png=1.000=0=0=1====#FF0000=,
196.000=flash=2.000=0=0=1====#0000FF=,
196.250=bluetransporter.mp4=1.000=0=0=1=====,
260.000=flash=1.000=1=0=1===CrossFade=#0000FF=,
260.250=risingupbg.png=1.000=0=0=1=====,
99999=-nosongbg-=1.000=0=0=0 // don't automatically add -songbackground-
;
#KEYSOUNDS:;
#ATTACKS:;

//---------------dance-single - C. Picardy----------------
#NOTES:
     dance-single:
     :
     Beginner:
     1:
     0.085790,0.154083,0.063214,0.158034,0.000000,76.000000,68.000000,8.000000,20.000000,0.000000,0.000000,0.085790,0.154083,0.063214,0.158034,0.000000,76.000000,68.000000,8.000000,20.000000,0.000000,0.000000:
0000
0000
0000
0000
,
0000
0000
0000
0000
,
0000
0000
0000
0000
,
0000
0000
0000
0000
,
1000
0000
0000
0000
,
1000
0000
0000
0000
,
0001
0000
0000
0000
,
0001
0000
0000
0000
,
0100
0000
0000
0000
,
0100
0000
0000
0000
,
0010
0000
0010
0000
,
0010
0000
0000
0000
,
0100
0000
0100
0000
,
0100
0000
0000
0000
,
0001
0000
0001
0000
,
0001
0000
0000
0000
,
1001
0000
0000
0000
,
0100
0000
0000
0000
,
0010
0000
0000
0000
,
1000
0000
0000
0000
,
1001
0000
0000
0000
,
0010
0000
0000
0000
,
0100
0000
0000
0000
,
0001
0000
0000
0000
,
0220
0000
0330
0000
,
2000
0000
3000
0000
,
0002
0000
0003
0000
,
0200
0000
0300
0000
,
0020
0000
0030
0000
,
1000
0000
1000
0000
,
1000
0000
0000
0000
,
0001
0000
0000
0000
,
0002
0000
0003
0000
,
2000
0000
3000
0000
,
0002
0000
0003
0000
,
2000
0000
3000
0000
,
0020
0000
0030
0000
,
0010
0000
0010
0000
,
0010
0000
0000
0000
,
1000
0000
0000
0000
,
0001
0000
0000
0000
,
0100
0000
0000
0000
,
0010
0000
0000
0000
,
1000
0000
0000
0000
,
0001
0000
0000
0000
,
0100
0000
0000
0000
,
0001
0000
0000
0000
,
0020
0000
0000
0000
,
0030
0000
0000
0000
,
2002
0000
3003
0000
,
0220
0000
0330
0000
,
2002
0000
3003
0000
,
1000
0000
0000
0000
,
0001
0000
0000
0000
,
0100
0000
0100
0000
,
0100
0000
0000
0000
,
0010
0000
0000
0000
,
2002
0000
3003
0000
,
1000
0000
0000
0000
,
0100
0000
0000
0000
,
0010
0000
0000
0000
,
0001
0000
0000
0000
,
1000
0000
0001
0000
,
1000
0000
0000
0000
,
0010
0000
0000
0000
,
1001
0000
0000
0000
;

//---------------dance-single - C. Picardy----------------
#NOTES:
     dance-single:
     :
     Challenge:
     10:
     0.688577,1.095176,0.237051,0.442495,0.754613,610.000000,580.000000,30.000000,56.000000,40.000000,13.000000,0.688577,1.095176,0.237051,0.442495,0.754613,610.000000,580.000000,30.000000,56.000000,40.000000,13.000000:
0000
0000
0000
0000
,
0000
0000
0000
0000
,
0000
0000
0000
0000
,
1001
0000
0000
0200
0000
0000
0020
0000
0000
0000
0330
0000
1000
0100
0010
0000
,
2001
0000
0000
3010
1000
0000
0100
0000
0010
0000
0010
0000
0011
0000
00MM
0000
,
0100
0000
0010
0000
0100
0000
0010
1000
0000
0010
0000
1000
0100
0000
0010
0000
,
0120
0000
0000
0130
0000
0000
1000
0000
0001
0100
0001
0000
0101
0000
0M0M
0000
,
1000
0000
0100
0000
1000
0000
0010
0000
0100
0001
0100
0000
0001
0100
0001
0000
,
1002
0000
0000
1003
0000
0000
0001
0000
0010
0000
0100
0000
1100
0000
MM00
0000
,
0021
0000
0000
0000
0000
0000
0000
0000
0000
0031
0000
0000
0000
0000
0000
0000
0000
0000
0010
0000
0000
0000
0000
0000
0001
0000
0010
0000
0001
0000
0010
0000
0001
0000
0010
0000
0001
0000
0010
0000
0001
0000
0010
0000
0001
0000
0010
0000
,
0100
1000
0100
1000
0100
1000
0100
1000
0100
1000
0100
1000
0100
0010
0001
0010
0100
1000
0001
0100
0010
1000
0010
0100
,
0001
0000
1000
0010
0000
0000
1000
0000
1100
0000
MM01
0100
0000
0000
0010
0000
,
1010
0000
M0M1
0010
0000
0000
0100
0000
0011
0000
10MM
0010
0000
0000
0100
0000
,
0101
0000
0M1M
1000
0000
0000
0100
0000
0110
0000
0MM1
1000
0000
0000
0010
0000
,
1001
0000
M10M
0010
0000
0000
0100
0000
1001
0000
M01M
0100
0000
0000
0001
0000
,
1001
0000
M01M
0100
1000
0000
0001
0100
0010
0000
1000
0100
0010
0000
0001
0000
,
1MM1
0000
0001
0100
0001
0000
1000
0000
0100
0000
0010
0001
0010
0000
0100
0000
,
1000
0000
0001
0100
0001
0000
0010
0000
0100
0000
1000
0010
1000
0000
0100
0000
,
0010
0000
0001
1000
0001
0000
0100
0000
0010
0000
1000
0001
1000
0000
0001
0000
,
0010
0000
0100
0010
0100
0000
1000
0000
0010
0000
0010
0100
0010
0000
1000
0000
,
1001
0000
M00M
0000
1000
0100
0010
0001
1000
0000
0010
0000
0100
0010
0100
0000
,
0010
0000
1000
0000
0100
0010
0001
0000
0010
0000
0100
0000
1000
0001
0100
0000
,
0010
0000
1000
0000
0100
1000
0010
0000
0100
0000
0001
0000
0010
0100
1000
0000
,
0010
0000
1000
0000
0100
0010
0001
0000
0100
0000
0010
0000
1000
0100
1000
0000
,
0200
0000
0020
0000
0001
0330
1000
0002
,
0200
0000
0010
0000
1000
0303
0001
2000
,
0200
0000
0001
0000
0010
3300
0001
0200
,
0000
2000
0300
0002
3000
0020
0003
1030
,
1020
0000
0000
0000
0130
0010
0100
0010
0100
0000
0001
0000
0010
0000
0022
0000
,
0000
0000
0033
1000
0000
0000
0010
0000
0000
2020
0000
0000
0000
0000
3030
0010
0000
0000
0100
0000
0000
0002
0000
0000
,
0200
0000
0010
0000
1000
0303
2000
0200
,
0000
0000
0001
0010
0000
0001
3300
1000
,
2001
0000
0000
0000
3001
0010
0001
0010
0001
0000
1000
0000
0100
0000
0020
0000
,
0001
0000
0031
0200
0000
0320
0000
1030
,
0200
0000
0020
0000
0001
0330
1000
0010
,
0002
0000
0000
0000
0013
0000
2000
0000
0000
0000
0001
0000
0000
0010
3000
0000
,
1002
0000
0000
0000
1003
0010
1000
0010
1000
0000
0001
0000
0100
0000
0202
0000
,
0000
0000
0303
1000
0000
0000
0100
0000
0000
2200
0000
0000
0000
0000
3300
0100
0000
0000
0010
0000
0000
0002
0000
0000
,
2000
0000
0010
0000
0010
3003
2000
0200
,
0000
0000
0000
0000
0000
0000
3300
0000
0000
0022
0000
0000
0000
0000
0033
2200
0000
0000
0000
0000
3300
0101
0000
0000
,
0001
0100
0001
0100
0001
0100
0001
0100
0010
0100
0010
0100
0010
0100
0010
0100
,
0010
1000
0010
1000
0010
1000
0010
1000
0100
1000
0100
1000
0100
1000
0100
1000
,
0100
0010
0100
0010
0100
0010
0100
0010
0001
0010
0001
0010
0001
0010
0001
0010
,
0001
1000
0001
1000
0001
1000
0001
1000
0010
0100
0010
0100
0010
0100
0010
0100
,
0001
0010
0100
1000
0001
0010
0100
1000
0001
0010
0100
1000
0001
0010
0100
1000
,
0001
0100
0010
1000
0001
0100
0010
1000
0001
0100
0010
1000
0001
0100
0010
1000
,
0100
0010
0001
1000
0100
0010
0001
1000
0100
0010
0001
1000
0100
0010
0001
1000
,
0010
0100
0010
0000
M01M
0100
0010
0000
M01M
0100
0010
0000
M04M
0400
0000
0000
,
M00M
0000
0000
0000
M00M
0000
0000
0000
M00M
0000
0330
0100
0010
1000
0100
0010
,
0001
0000
1000
0100
0000
0000
0010
0001
0000
0000
0100
0001
0100
0000
0010
1000
,
0000
0000
0010
0100
0000
0000
0010
1000
0000
0000
0001
0010
0100
0000
0010
0001
,
0000
0000
0100
0010
0000
0000
0100
0001
0000
0000
0010
0100
1000
0000
0001
0010
,
0000
0000
0100
1000
0000
0000
0010
0100
0000
0001
0010
0100
1000
0000
0100
0010
,
0001
0000
0100
0010
0000
0000
0100
0001
0000
0000
0010
0100
1000
0000
0002
0000
,
0000
0000
0013
0100
1000
0000
0002
0000
0000
0000
0103
0010
1000
0000
0002
0000
,
0000
0000
0013
0100
0000
0000
1000
0010
0000
0000
0010
0100
0001
0000
2000
0000
,
0000
0000
3100
0010
0000
0000
0100
1000
0000
0001
1000
0000
1MM1
0000
0100
0010
,
0001
0000
0001
0010
0100
0000
0100
0010
0001
0000
0001
0100
0010
0000
0010
1000
,
0100
0000
0100
1000
0010
0000
0010
1000
0100
0000
0100
1000
0001
0000
0001
0010
,
0100
0000
1000
0100
0010
0000
0001
0010
0100
0000
1000
0010
0100
0000
0001
0100
,
0010
0000
1000
0100
0010
0000
0001
0100
0010
0000
1000
0001
0100
0000
0010
1000
,
0001
0000
0010
0100
0000
0000
0010
0100
0000
0000
1000
0100
0010
0000
0002
0000
,
0000
0000
1003
0100
0010
0000
0002
0000
0000
0000
1003
0100
0010
0000
0002
0000
,
0000
0000
1003
0010
0000
0000
1000
0010
0000
0000
1000
0010
0100
0000
0002
0000
,
0000
0000
0103
0010
0000
0000
0100
0010
0000
0000
1000
0000
0001
0010
0100
1000
,
2200
0000
0000
0000
,
3300
0000
0000
0000
;

//---------------dance-single - C. Picardy----------------
#NOTES:
     dance-single:
     :
     Hard:
     8:
     0.477489,0.547588,0.244953,0.276560,0.260756,423.000000,392.000000,31.000000,35.000000,10.000000,0.000000,0.477489,0.547588,0.244953,0.276560,0.260756,423.000000,392.000000,31.000000,35.000000,10.000000,0.000000:
0000
0000
0000
0000
,
0000
0000
0000
0000
,
0000
0000
0000
0000
,
0001
0000
0000
0100
0000
0000
0010
0000
0000
0000
0000
0000
1000
0000
0100
0000
,
1001
0000
1000
0100
0010
0001
0011
0000
,
1000
0000
0010
0000
1000
0000
0010
1000
0000
0010
0000
1000
0010
0000
1000
0000
,
0100
0000
0000
0010
0000
0000
0001
0000
0100
0000
0100
0000
0101
0000
0000
0000
,
0001
0000
0100
0000
0010
0000
0100
0000
0001
1000
0000
0000
0001
0100
0000
0000
,
0011
0000
0000
0010
0000
0000
0100
0000
1000
0000
1000
0000
1001
0000
0000
0000
,
1000
0000
0000
0100
0010
0000
0100
0000
1000
0100
1000
0000
0100
0000
0010
0000
,
0001
0010
0001
0000
0100
0000
0010
0000
1000
0010
1000
0000
0100
0000
0010
0000
,
0001
0000
0001
0100
0000
0000
0010
0000
1000
0000
1000
0100
0000
0000
0010
0000
,
0001
0000
0001
0100
0000
0000
0010
0000
1000
0000
1000
0100
0000
0000
1000
0000
,
0010
0000
0010
0100
0000
0000
0001
0000
0010
0000
0010
0100
0000
0000
1000
0000
,
0010
0000
0010
0100
0000
0000
0001
0000
0010
0000
0010
0100
0000
0000
1000
0000
,
0001
0000
0001
0100
0000
0000
0100
0000
0010
0000
0000
0000
1MM1
0000
0000
0000
,
M11M
0000
1000
0000
0100
0010
0001
0000
,
0001
0010
0100
0000
0100
0010
0001
0000
,
0001
0100
1000
0000
1000
0100
0001
0000
,
0001
0100
0010
0000
0010
1000
0100
0000
,
0110
0000
0000
0000
1000
0100
1000
0100
1000
0000
0000
0000
1100
0000
0000
0000
,
0010
0100
1000
0000
1000
0100
0010
0000
,
0001
0010
1000
0000
1000
0010
0001
0000
,
0001
0100
0010
0000
1000
0100
0010
0100
,
0200
0000
1000
0000
0310
0000
1000
0020
,
0000
0000
0100
0000
1030
0010
1000
0002
,
0000
0000
0100
0000
0013
0000
1000
0200
,
0000
0320
0000
0230
0000
0320
0000
0031
,
0100
0000
0000
0000
0001
0100
0001
0100
0001
0000
0100
0000
0010
0000
2000
0000
,
0000
3100
0010
0002
0000
1003
0100
0020
,
0000
0000
0001
0000
0031
0010
0100
2000
,
0000
0000
0000
3002
0000
0203
0000
0310
,
1010
0000
0000
0000
0001
0100
0001
0100
0001
0000
0010
0000
0100
0000
0020
0000
,
0000
0000
0130
2000
0000
3020
0000
0230
,
0001
0000
0010
0000
0301
0100
0010
1000
,
0200
0000
0000
0000
0310
0000
0200
0000
0000
0000
1300
0000
0000
1100
0000
0000
,
1001
0000
0000
0000
0001
0010
0001
0010
0001
0000
1000
0000
0100
0000
0020
0000
,
0000
0031
0100
0020
0000
1030
0100
0020
,
0000
0000
0100
0000
0031
0100
0010
2000
,
0000
0000
3001
2000
0000
3002
0000
0103
,
0001
0100
0000
0000
0001
0100
0000
0000
0010
0100
0000
0000
0010
0100
0000
0000
,
0010
1000
0000
0000
0010
1000
0000
0000
0100
1000
0000
0000
0100
1000
0000
0000
,
0100
0010
0000
0000
0100
0010
0000
0000
0001
0010
0000
0000
0001
0010
0000
0000
,
0100
1000
0000
0000
0100
1000
0000
0000
0001
0100
0000
0000
0001
0100
0000
0000
,
0010
1000
0000
0000
1010
0000
0000
0000
0001
0010
0000
0000
0011
0000
0000
0000
,
1000
0100
0000
0000
1100
0000
0000
0000
0001
0100
0000
0000
0101
0000
0000
0000
,
0010
0100
0000
0000
0110
0000
0000
0000
0001
1000
0000
0000
1001
0000
0000
0000
,
1000
0001
0000
0000
1000
0001
0000
0000
1000
0001
0000
0000
2000
0000
0000
0000
,
0MM2
0000
0000
0000
0MM0
0000
0000
0000
3MM3
0000
0000
0000
0100
0010
0100
0010
,
0100
0000
1001
0000
0010
0000
0100
1000
,
0010
0000
0000
0000
0110
0000
0000
0000
1000
0000
0100
0000
0010
0000
0000
0001
,
0010
0000
0011
0000
0100
0000
1000
0001
,
0000
0000
1100
0000
0000
0000
0101
0000
0000
0001
0100
0000
0001
0000
0100
0001
,
0100
0000
1010
0000
0010
1000
0100
0020
,
0000
0000
0031
0000
0100
0000
0020
0000
0000
0000
1030
0000
0100
0000
0000
1000
,
0100
0000
0110
0000
1000
0100
0010
0002
,
0000
0000
0000
0000
0103
0000
0020
0000
0000
0000
1000
0000
1030
0000
0000
0001
,
1000
0000
1100
0000
0010
0000
0100
0001
,
0010
0000
0000
0000
0011
0000
0000
0000
1000
0000
1000
0000
0010
0000
0000
0100
,
0010
0000
1001
0000
0100
0000
0001
0010
,
0000
0000
0011
0000
0000
0000
1010
0000
0000
1000
0010
0000
1000
0000
0001
0100
,
0020
0000
0100
0000
1030
1000
0100
0001
,
0000
0001
0100
1000
0000
1000
0010
0001
,
0001
0000
0010
0000
1000
0010
0100
0002
,
0000
0000
0100
0000
0100
0000
0103
0000
0000
0010
1000
0000
0100
0000
0010
0000
,
2002
0000
0000
0000
,
3003
0000
0000
0000
;

//---------------dance-single - C. Picardy----------------
#NOTES:
     dance-single:
     :
     Medium:
     6:
     0.353319,0.410889,0.244953,0.395085,0.039509,313.000000,282.000000,31.000000,50.000000,0.000000,0.000000,0.353319,0.410889,0.244953,0.395085,0.039509,313.000000,282.000000,31.000000,50.000000,0.000000,0.000000:
0000
0000
0000
0000
,
0000
0000
0000
0000
,
0000
0000
0000
0000
,
0010
0000
0000
0010
0000
0000
0010
0000
0000
0000
0000
0000
1000
0000
0001
0000
,
1001
0000
0010
0000
0100
0010
0100
0000
,
0010
0000
1000
0000
0001
0010
0100
0010
,
0001
0000
0100
0000
0010
1000
0010
0000
,
1000
0000
0100
0000
0010
0100
0010
0100
,
0010
0000
0001
0000
0100
0100
0100
0000
,
0010
0000
1010
0000
1000
0100
1000
0100
,
0010
0100
0010
0100
0010
0001
0010
0001
,
0100
0000
0000
0100
0000
0000
0010
0000
0010
0000
0000
0010
0000
0000
1000
0000
,
1000
0000
0000
1000
0000
0000
0001
0000
0001
0000
0000
0001
0000
0000
0010
0000
,
0010
0000
0000
0010
0000
0000
0100
0000
0100
0000
0000
0100
0000
0000
1000
0000
,
0001
0000
0000
1000
0000
0000
0001
0000
1000
0000
0000
0001
0000
0000
0100
0000
,
0010
1000
0100
0010
,
0011
0000
0100
0000
0010
0100
0010
0000
,
1000
0000
0100
0000
0010
0100
0010
0000
,
0001
0000
1000
0000
0001
0100
0001
0000
,
0010
0000
0100
0000
1000
0010
1000
0000
,
1001
0000
0100
0100
0100
0000
0010
0000
,
1000
0100
1000
0000
0010
0000
0100
0000
,
0001
0010
0001
0000
0100
0000
0010
0000
,
1000
0100
0010
0000
0001
0000
0101
0000
,
0220
0000
0000
0000
0330
0000
2000
0002
,
0000
0000
0000
3003
0000
1000
0200
0020
,
0000
0000
0000
0000
0330
0000
0001
0020
,
0000
0230
0000
2300
0000
3002
0000
0203
,
0000
0000
0000
0000
0300
0010
1000
0200
,
0000
0310
0001
0200
0000
0310
2000
0200
,
0000
0000
0000
0000
3300
0100
0020
0002
,
0000
0000
0033
0200
0000
0320
0000
0230
,
0000
0000
0001
0000
0301
0010
0100
2000
,
0000
0000
0000
3002
0000
0023
0000
0200
,
0000
0000
0000
0000
0330
1000
0100
0010
,
0002
0000
0000
0000
0013
0000
0200
0000
0000
0000
1000
0000
0000
1000
0300
0000
,
2002
0000
0000
0000
3003
1000
0100
0020
,
0000
0031
0100
0020
0000
1030
0200
0020
,
0000
0000
0000
0000
0330
0001
0100
0020
,
0000
0000
0030
2000
0000
3002
0000
0103
,
0010
0110
0100
0110
,
1000
1010
0010
1010
,
0100
1100
1000
1100
,
0001
0011
0010
0011
,
0010
1100
0010
0101
,
1000
0101
1000
0011
,
0100
1001
0010
1001
,
0120
0100
0100
0200
,
0000
0000
0330
0010
,
1001
0000
0100
0000
0010
0000
1000
0100
,
0010
0000
0100
0000
1000
0000
0001
0100
,
0010
0000
1000
0000
0010
0000
1000
0100
,
0000
1000
0000
1100
0000
0001
0000
0101
,
0000
0000
0100
0000
0010
1000
0010
2000
,
0000
3001
0010
0002
0000
1003
0100
2000
,
0000
0000
3010
0000
0100
0001
0100
0002
,
0000
0000
0000
1000
0000
0103
0000
0001
,
1000
0000
1100
0000
0101
0000
0100
0020
,
0000
0000
1000
0000
1030
0100
0010
0002
,
0000
0000
0010
0000
1003
0000
0001
0100
,
0000
0101
0000
1000
0000
1010
0000
2001
,
0000
0000
0100
0000
3100
0010
0100
0020
,
0000
0031
1000
0002
0000
1003
0001
2000
,
0000
0000
0010
0000
3010
0100
0001
0020
,
0000
0000
0000
0230
0000
2300
0000
3001
,
0101
0000
0000
0000
;

//---------------dance-single - C. Picardy----------------
#NOTES:
     dance-single:
     :
     Easy:
     3:
     0.234793,0.259768,0.237051,0.576824,0.000000,208.000000,178.000000,30.000000,73.000000,0.000000,0.000000,0.234793,0.259768,0.237051,0.576824,0.000000,208.000000,178.000000,30.000000,73.000000,0.000000,0.000000:
// measure 0
0000
0000
0000
0000
,  // measure 1
0000
0000
0000
0000
,  // measure 2
0000
0000
0000
0000
,  // measure 3
0020
0000
0000
0130
,  // measure 4
1001
0000
0100
0100
,  // measure 5
0000
0001
1000
0100
,  // measure 6
1001
0000
0010
0010
,  // measure 7
0000
1000
0001
0001
,  // measure 8
0110
0000
1000
1000
,  // measure 9
0000
0100
0010
0010
,  // measure 10
0001
0001
1000
1000
,  // measure 11
0100
0000
0100
0000
,  // measure 12
0010
0000
0010
0000
,  // measure 13
0001
0000
0001
0000
,  // measure 14
1000
0000
0001
0000
,  // measure 15
0100
0000
0010
0000
,  // measure 16
2002
3003
0100
0010
,  // measure 17
0002
0000
0013
0100
,  // measure 18
2000
0000
3010
0100
,  // measure 19
0002
0000
1003
0100
,  // measure 20
0020
0000
0031
1000
,  // measure 21
0020
0000
1030
0010
,  // measure 22
0200
0000
0301
1000
,  // measure 23
0200
0000
0310
0001
,  // measure 24
2002
0000
3003
0010
,  // measure 25
0220
0000
0330
1000
,  // measure 26
2200
0000
3300
0010
,  // measure 27
0001
0010
0100
1000
,  // measure 28
0202
0000
0303
1000
,  // measure 29
2020
3030
0022
0033
,  // measure 30
2002
0000
3003
0100
,  // measure 31
0220
0330
1000
1000
,  // measure 32
2002
0000
3003
0010
,  // measure 33
2020
3030
0200
0300
,  // measure 34
0022
0000
0033
0100
,  // measure 35
0020
0000
2030
0000
,  // measure 36
3200
0000
0310
0001
,  // measure 37
0202
0303
2200
3300
,  // measure 38
0220
0000
0330
0100
,  // measure 39
2002
3003
0100
0100
,  // measure 40
0010
0100
0010
0100
,  // measure 41
0001
1000
0001
1000
,  // measure 42
0100
1000
0100
0010
,  // measure 43
0100
1000
0001
0100
,  // measure 44
0001
0010
0001
0100
,  // measure 45
0010
1000
0100
1000
,  // measure 46
0010
0100
0001
1000
,  // measure 47
0100
0100
0100
0220
,  // measure 48
0000
0000
0330
0010
,  // measure 49
2002
3003
0001
0100
,  // measure 50
2020
3030
0100
0010
,  // measure 51
0022
0033
1000
0010
,  // measure 52
1000
1000
0001
0001
,  // measure 53
2200
0000
3300
0001
,  // measure 54
2000
3001
2000
3010
,  // measure 55
0220
0000
0330
1000
,  // measure 56
0002
0000
0013
0100
,  // measure 57
2002
3003
0100
0010
,  // measure 58
0202
0303
1000
0100
,  // measure 59
0022
0033
0100
0001
,  // measure 60
0010
0100
1000
0010
,  // measure 61
0220
0000
0330
0100
,  // measure 62
0020
0130
0020
1030
,  // measure 63
0002
0000
1003
0010
,  // measure 64
0200
0300
0001
0010
,  // measure 65
2200
0000
0000
3300
;
