#TITLE:Ride on Time;
#SUBTITLE:;
#ARTIST:DJ Manian;
#TITLETRANSLIT:;
#SUBTITLETRANSLIT:;
#ARTISTTRANSLIT:;
#GENRE:;
#CREDIT:;
#BANNER:rideontimebn.png;
#BACKGROUND:rideontimebg.png;
#LYRICSPATH:;
#CDTITLE:;
#MUSIC:rideontime.ogg;
#OFFSET:-0.563000;
#SAMPLESTART:29.299992;
#SAMPLELENGTH:13.400000;
#SELECTABLE:YES;
#DISPLAYBPM:71.000000:142.000000;
#BPMS:0.000000=71.004997
,33.000000=142.009995
,34.000000=284.019989
,36.000000=142.009995
;
#STOPS:100.000000=0.010000
;
#BGCHANGES:8.000=slowdown.mp4=1.000=1=0=1=SongBgWithMovieViz==CrossFade==,
16.000=slowdown.mp4=1.000=1=0=1===CrossFade==,
32.000=rideontimebg.png=1.000=0=0=1===CrossFade_Fastest==,
33.000=flash=1.800=0=0=1=====,
33.250=rideontimebg.png=1.000=0=0=1=====,
34.000=flash=1.800=0=0=1=====,
34.250=rideontimebg.png=1.000=0=0=1=====,
36.000=flash=1.600=0=0=1=====,
36.250=spacetravel.mp4=1.000=0=1=1=StretchRewind====,
68.000=flash=1.600=0=0=1=====,
68.250=bluegeometry.mp4=1.000=0=0=0=StretchNoLoop====,
100.000=flash=1.600=0=0=1=====,
100.250=slowdown.mp4=2.000=0=0=0=StretchNoLoop====,
132.000=flash=1.600=0=0=1=====,
132.250=spacetravel.mp4=1.000=0=0=0=StretchNoLoop====,
160.000=spacetravel.mp4=1.000=1=0=1=SongBgWithMovieViz==CrossFade==,
164.000=flash=1.600=0=0=1=====,
164.250=bluegeometry.mp4=1.000=0=0=0=StretchNoLoop====,
180.000=flash=1.600=0=0=1=====,
180.250=slowdown.mp4=2.000=0=0=0=StretchNoLoop====,
196.000=flash=1.600=0=0=1=====,
196.250=rideontimebg.png=1.000=0=0=1=====,
99999=-nosongbg-=1.000=0=0=0 // don't automatically add -songbackground-
;
#KEYSOUNDS:;
#ATTACKS:;

//---------------dance-single - C. Picardy----------------
#NOTES:
     dance-single:
     :
     Beginner:
     1:
     0.084288,0.124616,0.061036,0.000000,0.000000,58.000000,52.000000,6.000000,0.000000,0.000000,0.000000,0.084288,0.124616,0.061036,0.000000,0.000000,58.000000,52.000000,6.000000,0.000000,0.000000,0.000000:
0000
0000
0000
0000
,
0000
0000
0000
0000
,
0000
0000
0000
0000
,
0000
0000
0000
0000
,
1001
0000
0000
0000
,
0000
0000
0000
0000
,
0000
0000
0000
0000
,
0000
0000
0000
0000
,
0110
0000
0000
0000
,
0000
0000
0000
0000
,
0100
0000
0000
0000
,
0010
0000
0000
0000
,
0100
0000
0000
0000
,
0001
0000
0000
0000
,
1000
0000
0000
0000
,
0001
0000
0000
0000
,
1000
0000
0000
0000
,
0010
0000
0010
0000
,
0010
0000
0000
0000
,
0100
0000
0100
0000
,
0100
0000
0000
0000
,
0001
0000
0001
0000
,
0001
0000
0000
0000
,
1000
0000
1000
0000
,
1000
0000
0000
0000
,
1001
0000
0000
0000
,
0100
0000
0000
0000
,
0010
0000
0000
0000
,
0100
0000
0000
0000
,
0001
0000
0000
0000
,
1000
0000
0000
0000
,
0001
0000
0000
0000
,
1000
0000
0000
0000
,
0001
0000
0001
0000
,
0001
0000
0000
0000
,
1000
0000
1000
0000
,
1000
0000
0000
0000
,
0010
0000
0010
0000
,
0010
0000
0000
0000
,
0100
0000
0100
0000
,
0100
0000
0000
0000
,
1001
0000
0000
0000
,
1000
0000
0000
0000
,
0001
0000
0000
0000
,
0100
0000
0000
0000
,
0110
0000
0000
0000
,
1000
0000
1000
0000
,
1000
0000
0000
0000
,
0010
0000
0010
0000
,
1001
0000
0000
0000
;

//---------------dance-single - C. Picardy----------------
#NOTES:
     dance-single:
     :
     Easy:
     3:
     0.248505,0.327308,0.193282,0.132246,0.000000,171.000000,152.000000,19.000000,13.000000,0.000000,0.000000,0.248505,0.327308,0.193282,0.132246,0.000000,171.000000,152.000000,19.000000,13.000000,0.000000,0.000000:
// measure 0
0000
0000
0000
0000
,  // measure 1
0000
0000
0000
0000
,  // measure 2
2000
0000
3000
0000
,  // measure 3
0002
0000
0003
0000
,  // measure 4
0100
0000
0010
0000
,  // measure 5
1000
0000
0001
0000
,  // measure 6
0010
0000
0100
0000
,  // measure 7
1000
0000
0001
0000
,  // measure 8
1001
0010
0010
0000
,  // measure 9
0010
0100
0010
0000
,  // measure 10
2000
3000
0002
0003
,  // measure 11
1000
0100
1000
0000
,  // measure 12
0020
0030
0200
0300
,  // measure 13
0001
1000
0001
0000
,  // measure 14
0200
0300
0020
0030
,  // measure 15
1000
1000
1000
0000
,  // measure 16
0001
0001
0001
0001
,  // measure 17
1001
0100
0010
0000
,  // measure 18
0100
0010
1000
0001
,  // measure 19
1000
1000
1000
0000
,  // measure 20
0010
0100
0001
0010
,  // measure 21
0100
0100
0100
0000
,  // measure 22
1000
0100
0010
0001
,  // measure 23
0010
0010
0010
0000
,  // measure 24
2002
0000
0000
3003
,  // measure 25
0110
1000
0001
1000
,  // measure 26
0010
0100
0010
0100
,  // measure 27
0001
0010
0001
0010
,  // measure 28
0100
1000
0010
0010
,  // measure 29
1001
0010
0100
0010
,  // measure 30
0001
0100
0001
0100
,  // measure 31
0010
1000
0010
1000
,  // measure 32
0100
0010
0100
0100
,  // measure 33
1001
0100
0010
1000
,  // measure 34
0001
0100
0010
1000
,  // measure 35
0001
0010
0100
1000
,  // measure 36
0001
0010
0001
0001
,  // measure 37
0110
0010
0001
1000
,  // measure 38
0100
0010
0001
1000
,  // measure 39
0010
0100
0001
1000
,  // measure 40
0020
0000
1000
0130
,  // measure 41
0110
0000
1001
0000
,  // measure 42
0110
0110
1001
0010
,  // measure 43
1001
0000
0110
0000
,  // measure 44
1001
1001
0110
0010
,  // measure 45
1001
1000
0001
1000
,  // measure 46
0100
0100
0010
0001
,  // measure 47
1000
0010
0100
0001
,  // measure 48
1000
1000
0010
0100
,  // measure 49
2002
0000
3003
0000
;

//---------------dance-single - C. Picardy----------------
#NOTES:
     dance-single:
     :
     Challenge:
     9:
     0.534795,0.753418,0.579846,0.915546,0.183109,368.000000,311.000000,57.000000,90.000000,35.000000,10.000000,0.534795,0.753418,0.579846,0.915546,0.183109,368.000000,311.000000,57.000000,90.000000,35.000000,10.000000:
0000
0000
0000
0000
,
0000
0000
0000
0000
,
0001
0000
1000
0000
0200
0000
0000
0000
1300
1000
0001
0100
0000
0100
0010
0000
,
1000
0000
1000
0000
2002
0000
3003
0000
1000
0001
0100
0010
0000
0100
0010
0000
,
1001
0000
0010
0000
0200
0000
0000
0000
1300
0100
0010
0002
0000
0100
0103
0010
,
1000
0000
0001
0000
2000
0000
0000
0001
3001
1000
0100
0020
0000
0130
1000
0000
,
0001
0000
0100
0000
2000
0000
0000
0000
3100
0010
1000
0020
0000
0130
0001
0000
,
0001
0000
0010
0000
2000
0000
0000
0000
3010
0001
0010
0100
0000
1000
0001
0000
,
0110
0000
0100
0010
1001
0000
0100
0000
1001
0000
0000
0000
MM1M
0000
0000
0000
,
2MM2
0000
0000
3003
0202
0000
0000
0303
0220
0000
0000
0330
0000
0000
1MM0
0000
,
0001
0100
0010
2000
0000
0100
3100
0010
,
0022
0000
0000
0033
0220
0000
0000
0330
2200
0000
0000
3300
0000
0000
0MM1
0000
,
0100
1000
0100
0002
0000
0010
0013
00MM
,
0202
0000
0000
0303
2020
0000
0000
3030
0220
0000
0000
0000
0330
0000
0MM0
0000
,
1000
0010
0100
0002
0000
1000
1003
M00M
,
2020
0000
0000
3030
0220
0000
0000
0330
2002
0000
0000
0000
3003
0000
M00M
0000
,
1000
0001
0100
0010
0000
0100
0100
0010
,
2002
0000
0010
0000
0010
0000
3003
0001
,
0100
0010
1000
0200
0000
0010
0310
0002
,
0200
0000
0010
0000
1000
0000
0303
0001
,
0100
1000
0200
0020
0000
1000
1000
0330
,
0002
2000
0010
3003
,
0001
0010
0200
2000
0000
0010
0010
3300
,
0200
0020
0001
0330
,
1000
0100
0010
0001
0000
0010
0010
0100
,
0200
0000
0000
0000
0320
0000
0000
0031
0010
0000
0001
0000
0100
0000
0010
0000
,
2000
0000
0000
0000
3200
0000
0000
0301
0100
0000
1000
0000
0001
0000
0010
0000
,
0200
0000
0000
0000
2300
0000
0000
3010
0001
0000
0010
0000
1000
0000
0100
0000
,
0002
0000
0000
0000
0103
0000
0010
0001
0010
0000
0100
0000
0010
0000
0001
0000
,
2000
0000
0000
0000
3020
0000
M000
0130
1000
0000
0100
0000
0001
0000
0100
0000
,
0020
0000
0000
0000
2030
0000
00M0
3001
0010
0000
1000
0000
0010
0000
0001
0000
,
0200
0000
0000
0000
0320
0000
0M00
1030
0100
0000
0001
0000
0100
0000
1000
0000
,
0002
0000
0000
0000
1003
0000
001M
1000
0010
0000
0100
0000
0100
0000
0001
0000
,
2002
0000
0000
0000
0000
0000
0000
0000
0000
0000
0000
0000
3003
0000
0000
0000
0220
0000
0000
0000
0000
0000
0000
0000
0000
0000
0000
0330
1000
0000
0000
0000
0001
0000
0000
0000
0000
0000
0000
0000
0100
0000
0000
0000
0000
0000
0000
0000
0010
0000
0000
0000
0000
0000
0000
0000
1000
0000
0000
0000
0000
0000
0000
0000
,
2200
0000
0000
0000
0000
0000
0000
0000
0000
0000
0000
0000
3300
0000
0000
0000
0022
0000
0000
0000
0000
0000
0000
0000
0000
0000
0000
0033
1000
0000
0000
0000
0100
0000
0000
0000
0000
0000
0000
0000
0010
0000
0000
0000
0000
0000
0000
0000
0001
0000
0000
0000
0000
0000
0000
0000
0100
0000
0000
0000
0000
0000
0000
0000
,
2020
0000
0000
0000
0000
0000
0000
0000
0000
0000
0000
0000
3030
0000
0000
0000
0202
0000
0000
0000
0000
0000
0000
0000
0000
0000
0000
0303
0010
0000
0000
0000
0100
0000
0000
0000
0000
0000
0000
0000
1000
0000
0000
0000
0000
0000
0000
0000
0100
0000
0000
0000
0000
0000
0000
0000
0001
0000
0000
0000
0000
0000
0000
0000
,
0202
0000
0000
0303
0110
0000
0010
0001
0010
0000
0100
0000
1000
0000
0010
0000
,
2002
0000
0000
3003
0110
0000
0MM0
1000
0001
0000
0100
0000
0010
0000
1000
0000
,
2020
0000
0000
3030
0011
0000
00MM
1000
0100
0000
0001
0000
0100
0000
1000
0000
,
2002
0000
0000
3003
0101
0000
0M0M
0100
1000
0000
0100
0000
0001
0000
0010
0000
,
0200
0000
2000
0300
0002
3000
0020
0003
0000
0000
0100
0000
0130
0000
1000
0000
,
1001
M00M
0100
0000
1010
M0M0
0001
0001
,
0101
0000
1100
0000
1010
0000
0010
0010
,
0110
0MM0
1000
0000
0101
0M0M
0001
0010
,
0011
0000
1100
0000
0101
0000
0001
1000
,
1001
0010
0100
0010
0110
0100
0001
1000
,
0010
0010
0100
0100
0001
0001
1000
0010
,
1100
1000
0011
0001
0101
1000
1010
0001
,
1100
1100
0011
0011
0101
0101
1001
1001
,
0220
0000
0000
0330
0000
0000
0000
0000
;

//---------------dance-single - C. Picardy----------------
#NOTES:
     dance-single:
     :
     Medium:
     5:
     0.342966,0.398771,0.264491,0.081382,0.000000,236.000000,210.000000,26.000000,8.000000,0.000000,0.000000,0.342966,0.398771,0.264491,0.081382,0.000000,236.000000,210.000000,26.000000,8.000000,0.000000,0.000000:
0000
0000
0000
0000
,
0000
0000
0000
0000
,
2000
3002
0103
0100
,
0010
0020
1030
1000
,
0001
0100
0010
1000
,
0100
0010
0100
1000
,
0001
1000
0010
0100
,
0001
0001
0001
0000
1000
0000
0010
0000
,
0200
0000
0000
0000
,
0310
1000
0001
1000
,
0010
0000
0100
0000
0001
0000
0010
0100
,
0010
0001
1000
0010
,
0100
0010
1000
1000
,
1100
0110
0011
1000
,
0010
0100
0001
0010
,
0100
0100
0110
0001
,
1000
0100
0010
0001
0000
0100
0010
0000
,
1001
0100
0010
0100
,
0001
0000
0010
0000
0100
0000
1000
0100
,
1000
0010
0100
0001
,
1000
0000
0010
0000
0100
0000
0001
0010
,
0001
0001
1000
0010
,
1000
0010
0100
0000
0010
0000
0100
0000
,
1001
0110
1001
0100
,
0002
0000
0000
2000
0000
0000
3003
0000
,
1001
0000
0100
0000
0010
0100
0010
0000
,
1000
0000
0001
0000
0010
0100
0010
0000
,
0001
0000
1000
0000
0001
0010
0001
0000
,
1000
0000
0010
0000
1000
0010
1000
0000
,
0001
0000
0100
0000
0001
0100
0010
0000
,
1000
0000
0100
0000
1000
0100
0010
0000
,
0100
0000
1000
0000
0100
0010
0001
0000
,
0100
0000
0010
0000
1000
0001
0100
0000
,
1001
0000
0010
0000
1000
0010
0100
0000
,
0110
0000
0001
0000
1000
0100
0010
0000
,
1100
0000
0001
0000
0010
0001
0100
0000
,
1010
0000
0100
0000
0001
0100
1000
0000
,
0110
0000
1001
0000
1000
0100
0010
0000
,
1001
0000
0110
0000
0010
0100
1000
0000
,
0110
0000
0011
0000
0001
0100
0010
0000
,
2002
0000
0000
3003
,
1001
0000
0010
0000
1001
0000
0100
0100
,
0010
0000
0010
0000
0100
0000
0100
0100
,
0001
0000
0010
0000
0110
0000
0100
0100
,
1000
1000
0001
1000
,
0110
0000
1000
0000
0110
0000
0001
0100
,
0010
0000
0010
0000
1000
0000
1000
0100
,
0010
0010
0001
0001
,
1000
0100
1000
0000
0001
0100
0001
0000
,
1001
0000
0000
0000
;

//---------------dance-single - C. Picardy----------------
#NOTES:
     dance-single:
     :
     Hard:
     7:
     0.433068,0.425856,0.274664,0.213627,0.071209,298.000000,271.000000,27.000000,21.000000,0.000000,0.000000,0.433068,0.425856,0.274664,0.213627,0.071209,298.000000,271.000000,27.000000,21.000000,0.000000,0.000000:
0000
0000
0000
0000
,
0000
0000
0000
0000
,
1000
0000
0001
0000
0200
0000
0000
0000
0320
0000
0000
2030
0000
0000
3001
0000
,
0100
0000
0010
0000
0100
0000
0000
0000
0002
0000
0000
0020
0000
0000
0033
0000
,
0100
1000
0001
0000
0200
0000
0320
0000
,
1030
0010
1000
0000
0200
0000
0320
0000
,
0031
0100
1000
0000
0200
0000
0302
0000
,
0013
0000
0100
0000
1000
0000
0000
0000
0001
0010
0100
1000
0000
0010
0100
0000
,
1001
0100
0110
0000
,
1001
0100
1001
0010
,
1000
0100
0010
0001
0000
0100
0010
0000
,
1010
0100
1010
0001
,
0001
0100
0010
1000
0000
0100
0100
0000
,
0011
0100
0011
1000
,
0001
0010
0100
1000
0000
0010
0100
0000
,
0101
1000
0101
0010
,
1000
0010
0100
0001
0000
0010
0100
0000
,
1001
0010
0110
1000
,
0001
0010
0100
2000
0000
0100
3100
0010
,
0001
0000
0100
0000
0010
0000
1000
0010
,
0100
0010
1000
0200
0000
0010
0310
0000
,
0001
0010
0001
0100
,
0010
1000
0100
0020
0000
0130
0010
0000
,
1001
0100
1001
0010
,
1000
0001
0100
0020
0000
0100
0130
0000
,
1001
0000
0010
0000
1000
0100
0010
0100
,
1000
0000
0001
0000
0100
0001
0010
0001
,
0100
0000
0010
0000
1000
0001
0100
0010
,
1000
0000
0000
0000
0001
0000
0100
0010
0100
0000
0001
0000
0100
0000
0100
0000
,
0010
0000
1010
0000
0001
0100
1000
0100
,
0001
0000
0110
0000
0001
0010
0100
1000
,
0010
0000
1001
0000
0100
0010
1000
0100
,
0010
0000
0000
0000
0100
0000
0010
0100
0010
0000
0001
0000
0001
0000
1000
0000
,
0001
0000
0000
0000
1000
0000
0000
0100
0010
0000
0001
0000
0010
0000
0100
0000
,
1000
0000
0000
0000
0010
0000
0000
0100
0010
0000
0100
0000
0001
0000
0100
0000
,
0010
0000
0000
0000
1000
0000
0000
0001
1000
0000
0100
0000
0010
0000
0100
0000
,
1000
0000
0000
0000
0001
0000
0100
0001
0100
0000
0010
0000
1000
0000
1000
0000
,
1002
0000
0000
0000
0103
0000
0000
0001
0100
0000
0001
0000
0010
0000
0001
0000
,
0200
0000
0000
0000
0310
0000
0000
1000
0100
0000
0010
0000
0100
0000
1000
0000
,
0020
0000
0000
0000
0130
0000
0000
0001
0010
0000
0100
0000
1000
0000
0100
0000
,
0010
0010
0100
2000
0000
0001
3001
0000
,
1001
0000
0100
0000
0010
0000
1000
0100
,
0010
0000
0010
0000
0001
0000
0001
0100
,
0010
0000
0100
0000
0010
0000
1000
0001
,
0100
0000
0100
0000
0010
0000
0010
1000
,
1001
0000
0100
0000
0101
0000
0010
1000
,
1000
0000
0110
0000
1001
0000
0010
0100
,
0010
0010
1001
1001
,
1000
0001
0100
0010
1000
0100
0010
0001
,
2002
3003
0000
0000
;
