#TITLE:Remember Me;
#SUBTITLE:;
#ARTIST:Leslie Parrish;
#TITLETRANSLIT:;
#SUBTITLETRANSLIT:;
#ARTISTTRANSLIT:;
#GENRE:;
#CREDIT:;
#BANNER:remembermebn.png;
#BACKGROUND:remembermebg.png;
#LYRICSPATH:;
#CDTITLE:;
#MUSIC:rememberme.ogg;
#OFFSET:-0.075000;
#SAMPLESTART:44.140320;
#SAMPLELENGTH:12.000000;
#SELECTABLE:YES;
#BPMS:0.000000=153.750000
;
#STOPS:212.000000=0.023000
;
#BGCHANGES:12.000=bluerain.mp4=1.000=1=0=1=SongBgWithMovieViz==CrossFade=#FF00FF=,
16.000=bluerain.mp4=1.000=1=0=1===CrossFade=#FF00FF=,
48.000=4Kvalentine.mp4=1.000=0=0=0=StretchNoLoop==CrossFade_Fastest==,
112.000=remembermebg.png=1.000=1=0=1===CrossFade==,
116.000=goldenstrips.mp4=1.000=0=0=0=StretchNoLoop==CrossFade_Fastest==,
177.000=goldenstrips.mp4=1.000=0=0=1=SongBgWithMovieViz==CrossFade_Faster==,
180.000=bluerain.mp4=1.000=0=0=0=StretchNoLoop==CrossFade_Fastest=#FF00FF=,
236.000=bluerain.mp4=1.000=1=0=1=SongBgWithMovieViz==CrossFade=#FF00FF=,
242.000=remembermebg.png=1.000=0=0=1===CrossFade_Fastest==,
99999=-nosongbg-=1.000=0=0=0 // don't automatically add -songbackground-
;
#KEYSOUNDS:;
#ATTACKS:;

//---------------dance-single - C. Picardy----------------
#NOTES:
     dance-single:
     :
     Beginner:
     1:
     0.110920,0.190437,0.052462,0.000000,0.000000,74.000000,69.000000,5.000000,0.000000,0.000000,0.000000,0.110920,0.190437,0.052462,0.000000,0.000000,74.000000,69.000000,5.000000,0.000000,0.000000,0.000000:
// measure 0
0000
0000
0000
0000
,  // measure 1
0000
0000
0000
0000
,  // measure 2
0000
0000
0000
0000
,  // measure 3
0000
0000
0000
0000
,  // measure 4
1000
0000
1000
0000
,  // measure 5
1000
0000
0000
0000
,  // measure 6
0001
0000
0001
0000
,  // measure 7
0001
0000
0000
0000
,  // measure 8
0100
0000
0100
0000
,  // measure 9
0100
0000
0000
0000
,  // measure 10
0010
0000
0010
0000
,  // measure 11
0010
0000
0000
0000
,  // measure 12
0100
0000
0000
0000
,  // measure 13
0100
0000
0000
0000
,  // measure 14
0010
0000
0000
0000
,  // measure 15
0010
0000
0000
0000
,  // measure 16
1000
0000
0000
0000
,  // measure 17
1000
0000
0000
0000
,  // measure 18
0001
0000
0000
0000
,  // measure 19
0001
0000
0000
0000
,  // measure 20
1001
0000
0000
0000
,  // measure 21
1000
0000
0000
0000
,  // measure 22
0100
0000
0000
0000
,  // measure 23
0010
0000
0000
0000
,  // measure 24
0001
0000
0000
0000
,  // measure 25
1000
0000
0000
0000
,  // measure 26
0010
0000
0000
0000
,  // measure 27
0100
0000
0000
0000
,  // measure 28
0000
0000
0000
0000
,  // measure 29
1001
0000
0000
0000
,  // measure 30
0100
0000
0000
0000
,  // measure 31
0010
0000
0000
0000
,  // measure 32
1000
0000
0000
0000
,  // measure 33
0001
0000
0001
0000
,  // measure 34
0000
0000
0000
0000
,  // measure 35
1000
0000
0000
0000
,  // measure 36
0001
0000
0000
0000
,  // measure 37
0110
0000
0100
0000
,  // measure 38
0100
0000
0010
0000
,  // measure 39
0010
0000
1000
0000
,  // measure 40
1000
0000
0001
0000
,  // measure 41
0001
0000
0001
0000
,  // measure 42
0000
0000
0000
0000
,  // measure 43
1000
0000
0000
0000
,  // measure 44
0100
0000
0000
0000
,  // measure 45
1001
0000
0000
0000
,  // measure 46
0100
0000
0000
0000
,  // measure 47
0010
0000
0000
0000
,  // measure 48
1000
0000
0000
0000
,  // measure 49
0001
0000
0000
0000
,  // measure 50
0100
0000
0000
0000
,  // measure 51
0010
0000
0000
0000
,  // measure 52
1000
0000
0000
0000
,  // measure 53
0001
0000
0001
0000
,  // measure 54
0001
0000
0000
0000
,  // measure 55
1000
0000
1000
0000
,  // measure 56
1000
0000
0000
0000
,  // measure 57
0010
0000
0010
0000
,  // measure 58
0010
0000
0000
0000
,  // measure 59
0100
0000
0100
0000
,  // measure 60
0100
0000
1001
0000
;

//---------------dance-single - C. Picardy----------------
#NOTES:
     dance-single:
     :
     Easy:
     3:
     0.254816,0.349135,0.125909,0.136401,0.000000,170.000000,158.000000,12.000000,13.000000,0.000000,0.000000,0.254816,0.349135,0.125909,0.136401,0.000000,170.000000,158.000000,12.000000,13.000000,0.000000,0.000000:
0000
0000
0000
0000
,
0000
0000
0000
0000
,
0000
0000
0000
0000
,
0000
0000
0000
0000
,
1000
0000
0001
0000
,
0100
0000
0010
0010
,
0010
0000
1000
0000
,
0100
0000
1000
1000
,
1000
0000
0001
0000
,
0010
0000
0100
0100
,
0100
0000
1000
0000
,
0001
0001
0001
0000
,
1001
0000
0100
0000
,
0010
0000
1000
0001
,
1000
0000
0001
0000
,
0100
0000
0010
0100
,
0010
0000
1000
1000
,
0001
0000
0100
0100
,
0010
1000
0001
1000
,
0000
0100
0100
0010
,
1002
0003
0200
0300
,
0020
0030
2000
3000
,
0002
0003
2000
3000
,
0200
0300
0020
0030
,
0200
0300
2000
3000
,
0002
0003
0200
0300
,
0020
0030
0000
1000
,
0001
0100
0010
0010
,
0000
0000
0000
0000
,
1001
1000
0001
0000
,
0100
0000
0010
0000
,
1000
0001
1000
1000
,
0100
0000
0010
0001
,
1001
0000
1001
0000
,
0100
0000
0010
0010
,
1000
0001
0000
0000
,
1000
0001
0100
0010
,
1001
0010
0100
0010
,
1001
0010
0100
1000
,
0001
0001
1000
0001
,
1000
0100
0010
0001
,
0110
0000
0110
0000
,
0001
0000
1000
0001
,
0100
0100
0000
0000
,
0010
1000
0100
0010
,
1001
0000
0100
0000
,
0010
0000
1000
0000
,
0001
0000
0010
0000
,
0100
0000
0010
0000
,
0001
0000
1000
0000
,
0010
0000
0100
0000
,
0001
0000
1000
0000
,
0100
0000
0010
0000
,
1001
1000
0001
1000
,
0010
0100
0010
0100
,
0001
1000
0001
1000
,
0001
0100
0001
0100
,
0010
1000
0100
1000
,
0010
0100
0001
0010
,
0100
0010
0001
1000
,
0100
0010
1001
0000
;

//---------------dance-single - C. Picardy----------------
#NOTES:
     dance-single:
     :
     Medium:
     5:
     0.382223,0.412614,0.220341,0.104924,0.000000,255.000000,234.000000,21.000000,10.000000,0.000000,0.000000,0.382223,0.412614,0.220341,0.104924,0.000000,255.000000,234.000000,21.000000,10.000000,0.000000,0.000000:
0000
0000
0000
0000
,
0000
0000
0000
0000
,
0000
0000
0000
0000
,
0000
0000
0000
0000
,
1000
0100
1000
0010
,
0100
0000
0001
0000
0010
0000
0100
0010
,
0100
1000
0010
0100
,
0010
0000
1000
0000
0001
0000
0010
0100
,
0010
0001
0100
0010
,
1000
0000
0100
0000
1000
0000
0010
0100
,
0001
0000
1000
0000
0100
0000
0010
0100
,
1000
1000
0202
0303
,
1010
1000
0100
0010
,
0001
0000
1000
0100
0000
0100
0000
0010
,
0000
0001
1000
0010
,
0100
0000
0001
1000
0000
1000
0000
0001
,
0000
0000
1000
0000
0100
0000
0010
0100
,
0000
0000
1000
0000
0001
0000
0100
0010
,
0000
0010
0100
0000
0002
0000
2003
0000
,
3000
0000
0100
0000
0010
0000
0001
0100
,
0010
0000
1000
0000
0001
0000
0100
0100
,
0000
0100
0000
0000
0010
0000
1000
0000
,
0001
0000
0010
0000
0100
0000
1000
1000
,
0000
1000
0000
0000
0001
0000
1000
0100
,
0010
0000
0001
0000
1000
0000
0001
0100
,
0000
0010
0000
0100
0000
0001
0000
1001
,
0000
0000
0100
0010
,
1000
0001
0100
0010
0000
0020
0000
0000
,
0000
0000
0000
0030
,
1001
0100
0010
1000
,
0001
0010
0100
0010
,
0001
0000
1000
0100
1000
0000
0010
0000
,
0100
0001
1000
0010
,
0101
1100
0101
1100
,
0010
0000
0100
0000
0001
0000
1000
0010
,
0000
0010
0000
0000
0100
0000
0100
0100
,
0000
0010
1000
0100
,
0011
1000
0101
0010
,
1100
0010
1001
0100
,
0001
0000
0010
0000
0100
1000
0001
0000
,
0100
0000
0010
0000
1000
0100
0010
0000
,
1001
0000
0000
1001
0000
2002
0000
0000
,
3003
0000
0010
0000
0100
0000
0010
1000
,
0000
1000
0000
0000
0001
0000
0100
0010
,
0000
0000
1000
0000
0001
0002
0000
0003
,
1000
0010
0100
0001
,
0010
0000
0100
0000
0010
0000
0001
0100
,
0010
1000
0001
0010
,
0100
0000
0010
0000
0001
0000
0010
0100
,
1000
0010
0100
0001
,
0100
0000
0010
0000
1000
0000
0100
0010
,
0001
1000
0010
0100
,
0101
1100
2002
3003
,
0001
1000
0010
0100
,
0001
0000
0100
0000
1000
0000
0100
0010
,
1000
0100
0010
0100
,
1000
0000
0001
0000
0010
0000
0001
0100
,
1000
0100
0010
1000
,
0100
0000
0001
0000
0100
0000
1000
0100
,
0001
0100
1000
0010
,
0101
1100
1001
0000
;

//---------------dance-single - C. Picardy----------------
#NOTES:
     dance-single:
     :
     Hard:
     7:
     0.526119,0.539015,0.283295,0.188863,0.078693,351.000000,324.000000,27.000000,18.000000,0.000000,0.000000,0.526119,0.539015,0.283295,0.188863,0.078693,351.000000,324.000000,27.000000,18.000000,0.000000,0.000000:
0000
0000
0000
0000
,
0000
0000
0000
0000
,
0000
0000
0000
0000
,
0000
0000
0000
0000
,
0020
0000
0230
0000
1300
0100
0010
0100
,
1000
0000
0100
0000
0010
0000
0001
0100
0000
0001
0100
0000
0010
0000
1000
0000
,
0002
0000
2003
0000
3001
0100
0010
0100
,
0001
0000
0100
0000
0010
0000
1000
0010
0000
1000
0010
0000
1000
0000
0100
0000
,
0020
0000
0032
0000
1003
0001
0100
0001
,
1000
0000
0001
0000
0100
0000
0010
0100
0000
0010
0100
0000
0001
0000
0100
0000
,
0020
0000
2030
0000
3001
0010
0100
0010
,
0001
0000
0010
0000
0100
0000
1000
0001
0000
0000
0000
0000
0000
0000
0000
0000
,
1010
1000
0001
0100
,
0010
0000
1000
0010
0000
1000
0000
0010
,
0100
0001
0010
0100
,
0010
0000
0001
0100
0000
0010
0000
1000
,
0001
0000
1000
0000
0001
0010
0100
1000
,
0000
0000
0001
0000
1000
0100
0010
0001
,
0000
0100
0010
0000
1010
0000
0101
0000
,
1000
0000
0001
0000
1000
0100
0010
0001
,
0100
0000
1001
0000
0010
0000
0100
0010
,
0000
0010
0000
0000
1000
0000
0001
0010
,
0100
0000
1000
0000
0001
0000
0010
0100
,
0000
0010
0000
0000
0001
0000
1000
0100
,
0010
0001
0010
0100
1000
0001
0100
0010
,
0000
1000
0000
0001
0000
1000
0100
1000
,
0010
0010
0100
0100
,
0001
0100
0010
1000
0000
1002
0000
0000
,
0000
0010
0010
0013
,
1100
0000
0010
0000
0100
0000
0001
0100
,
0010
0000
1000
0000
0101
0000
1000
0100
,
0000
0010
0100
1000
0010
0100
0000
1001
,
0000
0000
0001
0100
0010
1000
0100
0000
,
1001
0000
0010
0100
0000
0110
0000
0000
,
1000
0000
0001
0000
0100
0010
1000
0001
,
0000
0001
0000
0000
1000
0000
0001
0100
,
0000
0000
0010
0000
1000
0000
0001
0100
,
0010
0000
1010
0000
0011
0000
1000
0100
,
0010
1100
0101
1000
,
0110
0000
1001
0000
0010
0100
1000
0001
,
0100
0000
0010
0100
0010
0100
0001
0000
,
1100
0000
0001
1000
0000
1001
0000
0000
,
0100
0000
0010
0000
1000
0001
0100
0010
,
0000
0010
0000
0000
1001
0000
0010
0100
,
0000
0000
0010
0000
0001
0100
0000
0100
,
0020
0000
2030
0000
3001
0100
0010
0100
,
0001
0000
1000
0000
0010
0000
1000
0010
0000
1000
0010
0000
1000
0000
0100
0000
,
0020
0000
0032
0000
1003
0100
0010
0100
,
1000
0000
0100
0000
0010
0000
0100
1000
0000
0100
1000
0000
0001
0000
0010
0000
,
0200
0000
2300
0000
3001
0010
0100
0010
,
0001
0000
0100
0000
0010
0000
0100
0001
0000
0100
0001
0000
0010
0000
0100
0000
,
2000
0000
3002
0000
0103
0010
0100
0010
,
1000
0000
0001
0000
1000
0000
0001
2000
0000
0000
0001
0000
3001
0000
0000
0000
,
0101
0000
1100
0000
0010
1000
0100
1000
,
0010
1000
0100
0010
0001
0010
0100
0000
,
1100
0000
0101
0000
0001
0100
0010
0100
,
0001
0100
0010
1000
0100
0010
0001
0000
,
0011
0000
1010
0000
0100
0010
1000
0010
,
0100
0001
0010
0001
0100
0010
1000
0000
,
1001
0000
0110
0000
1000
0100
0010
0001
,
0010
0000
0100
0000
1000
0000
0001
1000
0000
0000
0000
0000
0000
0000
0000
0000
;

//---------------dance-single - C. Picardy----------------
#NOTES:
     dance-single:
     :
     Challenge:
     10:
     0.809414,0.824375,0.188863,0.325265,0.734469,540.000000,522.000000,18.000000,31.000000,7.000000,3.000000,0.809414,0.824375,0.188863,0.325265,0.734469,540.000000,522.000000,18.000000,31.000000,7.000000,3.000000:
0000
0000
0000
0000
,
0000
0000
0000
0000
,
0000
0000
0000
0000
,
0001
0000
0100
0000
0001
0000
1000
0000
0000
0000
0001
0010
0001
0010
0100
1000
,
0002
0000
0000
0003
0101
0000
0000
0100
0000
0010
1000
0000
0001
1000
0001
0000
,
1000
0100
1000
0100
1000
0000
0001
0010
0000
0010
0100
0000
0010
0001
0010
0001
,
0020
0000
0000
0030
1100
0000
0000
0010
0000
0100
0001
0000
1000
0010
1000
0010
,
1000
0001
1000
0100
1000
0000
0001
0100
0000
0001
0010
0000
0100
0010
0001
0010
,
0200
0000
0000
0300
0011
0000
0000
1000
0000
0001
0010
0000
0100
0000
1000
0000
,
0010
0100
0010
0100
0010
0000
1000
0001
0000
0001
1000
0000
0100
0010
0001
0010
,
0200
0000
0000
0000
1300
0000
1000
0010
0000
0010
0100
0000
0001
0010
0001
0010
,
0100
1000
0100
1000
0001
0100
0001
0010
0000
0000
0000
0000
MMMM
0000
0000
0000
,
0110
0010
0001
0010
0100
0010
0001
0010
,
0001
0000
0100
0000
0010
0000
0100
0000
0001
0000
0100
0000
0010
1000
0010
1000
,
0010
1000
0001
0100
1000
0100
0001
0100
,
1000
0000
0100
0000
0001
0000
0010
0000
0100
0000
1000
0000
0001
0010
0001
0010
,
0001
1000
0100
0010
0100
1000
0100
0010
,
0001
0000
1000
0000
0100
0000
1000
0000
0001
0000
0100
0000
0010
0000
0100
0010
,
1000
0001
0010
0020
0100
0230
1000
2300
,
3001
0100
0001
0100
0010
0000
1000
0010
1000
0010
0100
0000
0001
0000
1000
0000
,
1100
0100
0010
0001
0100
0010
1000
0001
,
0010
0100
0010
0100
0010
0001
0010
0001
,
0100
0010
0100
0010
1000
0010
1000
0010
,
1000
0000
0001
0000
0100
0000
0010
1000
0010
0000
1000
0000
0001
0010
0001
0010
,
0100
1000
0100
0010
0001
0100
0010
0100
,
0001
0000
0010
0000
0100
0000
1000
0000
0001
0000
0100
0000
0010
0000
1000
0001
,
0100
0100
0010
0010
1000
1000
0001
0001
,
1000
0000
0100
0000
0010
0000
0001
0000
0001
0000
1000
0100
1000
0000
0020
0000
,
0000
0000
M100
0000
0M01
0000
100M
1030
,
0101
0000
0020
0000
2030
0000
3001
0100
,
1000
0100
0002
0000
0023
0000
0130
2000
,
0000
3001
0010
0100
1000
0010
0000
1001
,
0000
0000
0000
0000
1000
0000
0001
0100
0001
0000
1000
0000
0010
0100
0010
0100
,
0020
0000
0000
0000
1030
0000
2200
0000
0000
3300
0022
0000
0000
0033
1000
0000
,
0100
0000
0000
0000
0010
0000
0000
0000
0001
0000
0100
0000
0010
0000
1000
0001
,
0010
0000
0100
0000
1000
0000
0001
0010
,
0001
0100
0001
0100
0010
0000
1000
0000
0100
0010
0100
0010
0001
0000
1000
0000
,
0001
0010
0100
0010
1000
0010
0001
0100
,
1000
0100
0010
0001
0010
1000
0100
0001
,
0100
0010
1000
0010
0100
1000
0010
0100
,
0001
0000
0100
0000
1000
0000
0100
0010
1000
0000
0001
0000
1000
0010
1000
0010
,
0200
0000
0001
0002
0000
1000
0000
0000
,
0010
0000
0000
0000
1000
0000
0000
0303
0001
0000
0100
0000
0010
0000
1000
0000
,
0000
2200
0000
3300
0011
0000
1000
0100
,
0010
0001
0010
0001
0100
0001
0100
0000
0010
0000
0020
0000
0000
0000
1030
0000
,
1001
0000
0000
0000
0101
0000
0000
0100
0000
0100
0010
0000
1000
0010
1000
0000
,
0010
0100
0010
0100
0010
0000
1000
0001
0000
0001
1000
0000
0100
0010
0001
0010
,
0200
0000
0000
0300
1002
0000
0000
0013
0000
0010
0100
0000
1000
0100
1000
0100
,
0010
0001
0010
0001
0010
0000
0100
1000
0000
1000
0100
0000
0010
0100
0010
0100
,
2000
0000
0000
3000
0101
0000
0001
0010
0000
0100
1000
0000
0001
0100
0001
0100
,
0010
1000
0010
1000
0010
0000
1000
0001
0000
0001
0100
0000
0001
0010
0001
0010
,
0002
0000
0000
0003
1100
0000
1000
0010
0000
0010
0100
0000
0001
0010
0001
0010
,
0100
1000
0100
0000
0010
0000
0001
0200
0000
0000
0310
1000
0010
1000
0001
0100
,
0001
0000
0000
0000
1100
0000
0000
0010
0000
0100
0010
0000
1000
0001
0100
0000
,
0010
1000
0100
0010
0100
0000
0010
0001
0000
1000
0010
0000
0100
0001
0010
0001
,
0200
0000
0000
0000
0310
0000
0000
1000
0000
0100
0010
0000
0001
0010
0100
1000
,
0001
0100
0001
0100
0010
0000
1000
0001
0000
0100
0010
0000
1000
0001
0100
0010
,
2000
0000
0000
3000
0001
0000
0001
0100
0000
0100
1000
0000
0100
0010
1000
0010
,
0100
0001
0010
0100
1000
0000
0100
0001
0000
0001
0100
0000
1000
0010
0001
0010
,
2000
0000
0000
3000
0101
0000
0001
0010
0000
0100
0010
0000
0001
0010
0100
0010
,
0001
1000
0100
0010
0001
0000
1000
0001
0000
0000
0000
0000
0000
0000
0000
0000
;
