#TITLE:Rainspark;
#SUBTITLE:;
#ARTIST:Sanxion7;
#TITLETRANSLIT:;
#SUBTITLETRANSLIT:;
#ARTISTTRANSLIT:;
#GENRE:;
#CREDIT:;
#BANNER:rainsparkbn.png;
#BACKGROUND:rainsparkbg.png;
#LYRICSPATH:;
#CDTITLE:;
#MUSIC:rainspark.ogg;
#OFFSET:-0.032162;
#SAMPLESTART:86.410133;
#SAMPLELENGTH:12.000000;
#SELECTABLE:YES;
#BPMS:0.000000=125.010010
;
#STOPS:
;
#BGCHANGES:12.000=Free Desert Loop!!.mp4=1.000=1=0=1=SongBgWithMovieViz==CrossFade==,
16.000=flash=1.000=0=0=1=====,
16.250=Free Desert Loop!!.mp4=1.000=0=0=0=StretchNoLoop====,
48.000=flash=1.000=0=0=1=====,
48.250=animateddesertloop.mp4=1.000=0=0=1=====,
80.000=flash=1.000=0=0=1=====,
80.250=Sunset Ambient.mp4=1.000=0=0=1=====,
112.000=flash=1.000=0=0=1=====,
112.250=Sunset Ambient.mp4=1.000=0=0=0=StretchNoLoop====,
144.000=flash=1.000=0=0=1=====,
144.250=Free Desert Loop!!.mp4=1.000=0=0=0=StretchNoLoop====,
160.000=flash=1.000=0=0=1=====,
160.250=Free Desert Loop!!.mp4=1.000=0=0=1=====,
176.000=rainsparkbg.png=1.000=1=0=1===CrossFade==,
180.000=flash=1.000=0=0=1=====,
180.250=Sunset Ambient.mp4=1.000=0=0=0=StretchNoLoop====,
212.000=flash=1.000=0=0=1=====,
212.250=animateddesertloop.mp4=1.000=0=0=0=StretchNoLoop====,
244.000=flash=1.000=0=0=1=====,
244.250=rainsparkbg.png=1.000=0=0=1=====,
99999=-nosongbg-=1.000=0=0=0 // don't automatically add -songbackground-
;
#KEYSOUNDS:;
#ATTACKS:;

//---------------dance-single - C. Picardy----------------
#NOTES:
     dance-single:
     :
     Beginner:
     1:
     0.077741,0.125740,0.057717,0.000000,0.000000,66.000000,59.000000,7.000000,0.000000,0.000000,0.000000,0.077741,0.125740,0.057717,0.000000,0.000000,66.000000,59.000000,7.000000,0.000000,0.000000,0.000000:
0000
0000
0000
0000
,
0000
0000
0000
0000
,
0000
0000
0000
0000
,
0000
0000
0000
0000
,
0010
0000
0000
0000
,
0010
0000
0000
0000
,
0100
0000
0000
0000
,
0100
0000
0000
0000
,
0001
0000
0000
0000
,
0001
0000
0000
0000
,
1000
0000
0000
0000
,
1000
0000
0000
0000
,
0110
0000
0000
0000
,
1000
0000
0000
0000
,
0001
0000
0000
0000
,
1000
0000
0000
0000
,
0010
0000
0000
0000
,
0100
0000
0000
0000
,
0010
0000
0000
0000
,
0000
0000
0000
0000
,
1001
0000
0000
0000
,
0001
0000
0000
0000
,
1000
0000
0000
0000
,
0100
0000
0000
0000
,
0010
0000
0000
0000
,
0001
0000
0000
0000
,
1000
0000
0000
0000
,
0100
0000
0000
0000
,
0110
0000
0000
0000
,
0100
0000
0000
0000
,
0010
0000
0000
0000
,
1000
0000
0000
0000
,
0001
0000
0000
0000
,
0100
0000
0000
0000
,
0010
0000
0000
0000
,
0000
0000
0000
0000
,
1001
0000
0000
0000
,
1000
0000
1000
0000
,
1000
0000
0000
0000
,
0001
0000
0001
0000
,
0001
0000
0000
0000
,
1000
0000
1000
0000
,
1000
0000
0000
0000
,
0100
0000
0100
0000
,
0000
0000
0000
0000
,
1001
0000
0000
0000
,
0100
0000
0000
0000
,
0010
0000
0000
0000
,
0100
0000
0000
0000
,
0001
0000
0000
0000
,
1000
0000
0000
0000
,
0001
0000
0000
0000
,
1000
0000
0000
0000
,
0110
0000
0000
0000
,
1000
0000
0000
0000
,
0001
0000
0000
0000
,
1000
0000
0000
0000
,
0100
0000
0000
0000
,
0010
0000
0000
0000
,
0100
0000
0000
0000
,
0010
0000
0000
0000
,
1001
0000
0000
0000
;

//---------------dance-single - C. Picardy----------------
#NOTES:
     dance-single:
     :
     Easy:
     3:
     0.240290,0.276628,0.123679,0.156660,0.000000,204.000000,189.000000,15.000000,19.000000,0.000000,0.000000,0.240290,0.276628,0.123679,0.156660,0.000000,204.000000,189.000000,15.000000,19.000000,0.000000,0.000000:
0000
0000
0000
0000
,
0000
0000
0000
0000
,
1000
0000
0001
0000
,
0200
0000
0000
0300
,
0000
1000
0001
1000
,
0100
0010
0001
0010
,
0100
0100
0200
0300
,
0001
0001
0002
0003
,
0000
1000
0010
1000
,
0001
0100
0001
1000
,
0010
0010
0020
0030
,
1000
1000
2000
3000
,
1001
0100
0010
0100
,
0001
1000
0100
0010
,
0001
0100
2002
3003
,
0100
0010
2002
3003
,
1001
0100
0010
0100
,
0001
1000
0001
1000
,
0001
0100
1000
0100
,
0001
0100
1000
0010
,
0110
0000
1000
0000
,
0001
0000
0100
0010
,
0000
1000
0100
0001
,
0010
1000
0100
0001
,
1001
0000
1000
0000
,
0010
0000
0100
0000
,
0000
0001
0100
1000
,
0010
0001
0100
1000
,
0110
1000
0100
0000
,
0010
0001
0100
0010
,
0000
1000
0010
0001
,
0100
1000
0010
0001
,
1100
0000
0011
0000
,
0110
0000
1001
2002
,
3003
0010
0001
0100
,
0010
0100
0001
1000
,
0010
0000
1000
0000
,
0100
0000
0010
0010
,
0001
0000
0100
0000
,
0010
0000
1000
1000
,
0100
0010
0000
0001
,
0010
0100
0000
1000
,
0100
0010
0000
0001
,
1000
0010
0100
0002
,
2000
0000
0000
3003
,
1001
0100
0010
0100
,
0001
1000
0001
1000
,
0100
0100
0020
0030
,
0001
0001
0200
0300
,
0010
1000
0010
1000
,
0001
0100
0001
0100
,
0010
0010
2000
3000
,
0010
0010
0200
0300
,
1001
1000
0100
0001
,
0010
1000
0100
0001
,
0010
0010
2000
3000
,
0001
0001
0020
0030
,
0100
1000
0010
0001
,
0100
1000
0010
0001
,
1000
0100
0001
0010
,
1000
0000
0001
0000
,
0011
0000
0000
0000
;

//---------------dance-single - C. Picardy----------------
#NOTES:
     dance-single:
     :
     Medium:
     5:
     0.309786,0.326924,0.115433,0.107188,0.000000,263.000000,249.000000,14.000000,13.000000,0.000000,0.000000,0.309786,0.326924,0.115433,0.107188,0.000000,263.000000,249.000000,14.000000,13.000000,0.000000,0.000000:
0000
0000
0000
0000
,
0000
0000
0000
0000
,
0000
0000
0000
0000
,
0220
0000
0000
0330
,
0001
1000
0010
0010
,
0100
0000
0001
0000
0010
0001
0010
0000
,
0100
0000
0100
0000
0100
1000
0100
0000
,
0010
0000
0010
0000
0010
0100
0010
0000
,
0001
0100
0010
0100
,
0001
0000
1000
0000
0001
1000
0001
0000
,
1000
0000
1000
0000
1000
0100
1000
0000
,
0001
0001
2002
3003
,
1001
0010
1000
0100
,
0010
0000
0001
0000
0100
0001
0010
0000
,
0100
0000
0100
0000
0010
0001
0100
0000
,
0010
0000
0010
0000
1000
0100
0010
0000
,
0011
0100
0010
1000
,
0100
0000
0010
0000
0100
1000
0010
0000
,
0010
0100
0001
0000
0010
0001
1000
0000
,
0220
0000
0000
0330
,
0001
0000
1000
0000
0100
0000
0000
0010
,
0001
0000
0000
0010
0001
0000
1000
0000
,
0000
0100
0010
0000
0000
0100
0010
0000
,
0000
0001
0100
0000
0010
0000
1000
0000
,
0001
0000
0010
0000
0001
0000
0000
1000
,
0100
0000
0000
1000
0100
0000
0100
0000
,
0000
0001
1000
0000
0000
0001
1000
0000
,
0000
0001
1000
0000
0100
0000
0010
0000
,
2100
0000
0010
0000
0001
3000
0000
0001
,
0100
0000
0000
0100
0010
0000
2000
0000
,
0000
0100
0100
0000
0000
0010
0010
0000
,
0000
0100
3100
0000
0010
0000
0001
0000
,
0201
0000
0010
0000
0001
0300
0000
1000
,
0010
0000
0000
0002
1000
0000
2003
0000
,
0000
0001
0001
0000
0000
0010
0010
0000
,
0000
0001
0001
0000
0000
0100
3100
0000
,
1000
0100
1000
0000
,
0001
0001
0000
0001
0001
0000
0100
0000
,
0010
0000
1000
0000
0010
0000
0000
0100
,
0100
0000
0000
0100
0100
0000
0010
0000
,
1010
0000
0100
0000
0001
0000
0000
1000
,
1000
0000
0000
1000
1000
0000
0010
0000
,
0001
0000
0001
0000
0001
0000
0000
0010
,
0010
0000
0000
0010
0010
0000
0100
0000
,
2020
0000
3030
0000
,
1100
0001
0100
0010
,
1000
0000
0100
0000
1000
0100
0010
0000
,
0001
0000
0001
0000
0001
0010
0100
0000
,
1000
0000
1000
0000
1000
0100
0010
0000
,
1001
0010
0001
0100
,
0010
0000
1000
0000
0001
0100
1000
0000
,
0010
0000
0010
0000
0010
0100
0010
0000
,
1000
0000
1000
0000
1000
0010
1000
0000
,
0101
0000
1000
0001
0100
0000
0010
0000
,
1000
0000
0100
0000
0010
0001
1000
0000
,
0001
0000
0001
0000
0001
1000
0001
0000
,
1000
0000
1000
0000
1000
0001
1000
0000
,
0110
0000
1000
0001
0010
0000
0100
0000
,
1000
0000
0010
0000
0100
0001
1000
0000
,
0010
0100
0010
0000
0100
0010
0100
0000
,
0001
0000
1000
0000
0100
0010
0001
0000
,
1100
0000
0000
0000
;

//---------------dance-single - C. Picardy----------------
#NOTES:
     dance-single:
     :
     Challenge:
     9:
     0.649019,0.603552,0.247357,0.453489,0.519451,551.000000,521.000000,30.000000,55.000000,4.000000,2.000000,0.649019,0.603552,0.247357,0.453489,0.519451,551.000000,521.000000,30.000000,55.000000,4.000000,2.000000:
// measure 0
0000
0000
0000
0000
,  // measure 1
0000
0000
0000
0000
,  // measure 2
0000
0000
0010
0000
0100
0010
0000
0100
0010
0000
0000
0100
0000
0000
0010
0001
,  // measure 3
2000
0000
3002
0000
2003
0000
3000
MMMM
,  // measure 4
0110
0000
0000
0000
0001
0100
0001
0000
0100
0000
0010
0000
0100
0000
0001
0000
,  // measure 5
0010
0000
0001
0010
0001
0000
0100
0000
0001
0100
0001
0000
0100
0000
0010
0000
,  // measure 6
1000
0000
0010
1000
0000
1000
0010
1000
0010
0000
0010
0000
2020
0000
0000
3030
,  // measure 7
0001
0000
1000
0001
0000
0001
1000
0001
1000
0000
1000
0000
2002
0000
0000
3003
,  // measure 8
1100
0000
0000
0000
1000
0100
1000
0000
0100
0000
0010
0000
0100
0000
1000
0000
,  // measure 9
0100
0000
0010
0100
0010
0000
0100
0000
1000
0100
1000
0000
0100
0000
0010
0000
,  // measure 10
0001
0000
0100
0001
0000
0100
0001
0100
0001
0000
0001
0000
0202
0000
0000
0303
,  // measure 11
0010
0000
0100
0010
0000
0100
0010
0100
0010
0000
0010
0000
0220
0000
0000
0330
,  // measure 12
1001
0000
0000
0000
1000
0100
0010
0000
0001
0000
0010
0000
0100
0000
0010
0000
,  // measure 13
0001
0000
1000
0100
0010
0000
0001
0000
0010
0100
1000
0000
0001
0000
0100
0000
,  // measure 14
0010
0000
1000
0100
0000
1000
0100
0010
0001
0000
0001
0000
2200
0000
0000
3300
,  // measure 15
0001
0000
0100
0010
0000
0010
1000
0100
0010
0000
0010
0000
2002
0000
0000
3003
,  // measure 16
0110
0000
0000
0000
0001
0100
1000
0000
0100
0000
0010
0000
1000
0000
0100
0000
,  // measure 17
0001
0000
0100
0010
0001
0000
0100
0000
1000
0100
1000
0000
0100
0000
0001
0000
,  // measure 18
1000
0000
0001
0100
1000
0000
0100
0000
0010
1000
0100
0000
0001
0000
0100
0000
,  // measure 19
1000
0000
0010
0001
0010
0000
1000
0000
0100
0001
0100
0000
1000
0000
0001
0000
,  // measure 20
2001
0000
3100
0010
0002
0000
0000
0103
,  // measure 21
0020
0000
2000
0000
0000
0030
3020
0000
0002
0030
2000
0003
0200
3000
0002
0300
,  // measure 22
0000
0003
0100
1000
0001
0000
0100
0000
0000
0000
0010
1000
0001
0000
0010
0000
,  // measure 23
0000
0000
0100
0010
0001
0000
0100
0000
0010
1000
0010
1000
0010
0000
1010
0000
,  // measure 24
1001
0000
0100
0000
0010
0000
0002
0000
0200
0000
0000
0000
0000
0303
0020
0000
,  // measure 25
2000
0030
0200
0000
3000
0000
0320
0000
0002
0000
0000
0000
1000
0000
0033
0000
,  // measure 26
0000
0000
0001
0100
1000
0000
0100
0000
0000
0000
0001
0100
1000
0000
0100
0000
,  // measure 27
0000
0000
0001
0010
0001
0000
1000
0000
0001
0010
0001
0010
0100
0000
1100
0000
,  // measure 28
1001
1000
0100
1000
0020
0100
0130
0002
,  // measure 29
0010
0000
0013
0000
0200
0000
0001
0000
0301
0000
0200
0000
2000
0300
0020
3000
,  // measure 30
0000
0030
0100
0001
0100
0000
0010
0000
0000
0000
0100
0001
0100
0000
0010
0000
,  // measure 31
0000
0000
1000
0100
0001
0000
0100
0000
1000
0010
0001
0010
0100
0000
0010
0000
,  // measure 32
1010
0100
0001
0100
0020
1000
1030
0200
,  // measure 33
0010
0310
0002
0100
0200
0000
1000
0303
,  // measure 34
0000
0000
0001
0010
1000
0000
0010
0000
0000
0000
0001
0010
1000
0000
0010
0000
,  // measure 35
0000
0000
0100
1000
0010
0000
1000
0000
0000
0000
0100
2000
0020
0000
0000
3030
,  // measure 36
1010
0000
0100
0000
0001
0100
0000
0100
0010
0000
0010
0100
0000
0100
0001
0000
,  // measure 37
0010
0001
0010
0001
0010
0000
0100
0000
1000
0000
0100
1000
0010
1000
0001
0000
,  // measure 38
1000
0000
1000
0000
0100
1000
0000
0001
1000
0000
0100
0010
0000
0100
1000
0000
,  // measure 39
0010
0100
0010
0100
0010
0000
1000
0000
0001
0000
1000
0100
1000
0100
1000
0000
,  // measure 40
1001
0000
0100
0000
1000
0010
0000
0100
0010
0000
1000
0001
0000
0100
0001
0000
,  // measure 41
1000
0010
1000
0010
1000
0000
0001
0000
0100
0000
0010
1000
0001
0100
0010
0000
,  // measure 42
1000
0000
0001
0000
0100
0010
0000
1000
0100
0000
0010
0001
0000
0100
1000
0000
,  // measure 43
0100
0010
1000
0010
0100
0000
1000
0000
0001
0010
0100
0010
0001
0000
0010
0000
,  // measure 44
0400
0040
0000
0000
0000
0000
0000
0000
0000
0330
0000
0000
1000
0001
1000
0001
,  // measure 45
1001
0000
0100
0000
0010
1000
0010
0000
0100
0000
0001
0000
0010
0000
1000
0000
,  // measure 46
0010
0000
0001
0100
0001
0000
1000
0000
0100
0001
0100
0000
1000
0000
0010
0000
,  // measure 47
0100
0000
0100
0001
0000
0001
0100
0001
0100
0000
0100
0000
0202
0000
0000
0303
,  // measure 48
1000
0000
1000
0001
0000
0001
1000
0001
1000
0000
1000
0000
2002
0000
0000
3003
,  // measure 49
0110
0000
0000
0000
1000
0100
0010
0000
0100
0000
0001
0000
0100
0000
1000
0000
,  // measure 50
0001
0000
0010
0100
1000
0000
0100
0000
0001
0100
0010
0000
0001
0000
0100
0000
,  // measure 51
0010
0000
1000
0010
0000
1000
0010
1000
0001
0000
0001
0000
2200
0000
0000
3300
,  // measure 52
0010
0000
0100
0010
0000
0100
0010
0100
0010
0000
0010
0000
0220
0000
0000
0330
,  // measure 53
1001
0000
0000
0000
1000
0100
0001
0000
0100
0000
1000
0000
0001
0000
0010
0000
,  // measure 54
1000
0000
0010
0001
0010
0000
0100
0000
0001
0100
0001
0000
1000
0000
0010
0000
,  // measure 55
0001
0000
0001
0100
0000
0100
1000
0100
1000
0000
0100
0000
0202
0000
0000
0303
,  // measure 56
0100
0000
0010
0001
0000
0010
0001
0010
0100
0000
0010
0000
0022
0000
0000
0033
,  // measure 57
1100
0000
0000
0000
0001
0010
1000
0000
0100
0000
0010
0000
1000
0000
0001
0000
,  // measure 58
0100
0000
0010
0001
0100
0000
0001
0000
0100
0010
1000
0000
0100
0000
0010
0000
,  // measure 59
0001
0000
1000
0100
1000
0000
0001
0000
1000
0100
1000
0000
0001
0000
0010
0000
,  // measure 60
0100
0000
0010
0001
0010
0000
0100
0000
1000
0010
1000
0000
0100
0000
1100
0000
,  // measure 61
0101
0000
0000
0000
;

//---------------dance-single - C. Picardy----------------
#NOTES:
     dance-single:
     :
     Hard:
     8:
     0.478224,0.560058,0.140169,0.107188,0.222622,406.000000,389.000000,17.000000,13.000000,0.000000,0.000000,0.478224,0.560058,0.140169,0.107188,0.222622,406.000000,389.000000,17.000000,13.000000,0.000000,0.000000:
0000
0000
0000
0000
,
0000
0000
0000
0000
,
0000
0000
0000
0000
,
0010
0001
0100
0000
0020
0000
0000
0000
,
1030
0000
0000
0000
0001
0100
0001
0000
0100
0000
0000
0000
0100
0000
0000
0000
,
0100
0000
0010
0100
0010
0000
0000
0000
1000
0010
1000
0000
0001
0000
0000
0000
,
1000
0000
0000
0001
0000
0000
1000
0000
0100
0000
0010
0000
0001
0000
0000
0000
,
0100
0000
0000
0010
0000
0000
0100
0000
0010
0000
1000
0000
0001
0000
0000
0000
,
0110
0000
0000
0000
0010
0001
0010
0000
0100
0000
0000
0000
0100
0000
0000
0000
,
0100
0000
1000
0100
1000
0000
0000
0000
0100
0010
0100
0000
0010
0000
0000
0000
,
0001
0000
0000
0010
0000
0000
0001
0000
0010
0000
0001
0000
0100
0000
0000
0000
,
0010
0000
0000
1000
0000
0000
0010
0000
1000
0000
0100
0000
0010
0000
0000
0000
,
1001
0000
0001
0100
1000
0100
0001
0100
,
1000
0000
0100
0010
0100
0000
0010
0000
2000
0000
0000
0000
3100
0000
0000
0000
,
0010
0000
0010
0001
0000
0000
1000
0000
0100
0000
0100
0000
0020
0000
0000
0000
,
0031
0000
1000
0001
0000
0000
0100
0000
0010
0000
0010
0000
2000
0000
0000
0000
,
3001
0000
0000
0000
1000
0100
1000
0000
0100
0000
0010
0000
0001
0000
0010
0000
,
0100
0000
0010
0001
0010
0000
0100
0000
0010
0001
0010
0000
0100
0000
1000
0000
,
0001
0000
1000
0001
1000
0000
0100
0000
0010
0100
0010
0000
0100
0000
1000
0000
,
0002
0000
0010
1003
,
0100
0010
0001
0010
0100
0000
0000
1000
,
0100
0001
0000
1000
0100
0001
0100
1000
,
0000
0000
0001
0100
0001
0000
1000
0000
0000
0000
0001
0100
0001
0000
1000
0000
,
0000
0100
0020
0000
0001
0001
0031
0000
,
1001
0000
0001
0100
1000
0000
0000
0100
,
0010
1000
0000
0001
2000
0000
3010
0000
,
0000
0000
0100
1000
0100
0000
1000
0000
0000
0000
0100
1000
0100
0000
1000
0000
,
0000
0001
2000
0000
0010
0010
3010
0000
,
0110
0000
1000
0100
0010
0000
0000
0001
,
0010
0001
0000
0100
0001
0010
0001
0100
,
0000
0010
1000
0100
0000
0010
0001
0100
,
0000
0000
0010
0000
1000
0000
0100
0000
0010
0001
0010
0001
0010
0000
0000
0000
,
1100
0000
0010
0001
1000
0000
0000
0010
,
0100
0010
0000
1000
0002
0000
0013
0000
,
0000
0000
0100
0010
0001
0000
0010
0000
0000
0000
0100
0010
0001
0000
0010
0000
,
0000
0000
1000
0100
0010
0000
0100
0000
0000
0000
1000
0100
0020
0000
0000
0000
,
0031
0000
1000
0000
0000
0001
1000
0000
,
0100
0100
0010
0000
0000
0001
0010
0000
,
0001
1000
1000
0000
0000
0010
1000
0000
,
0001
0001
0001
0000
0000
1000
0100
1000
,
1010
0000
0100
0000
0000
0100
0010
0000
,
0001
0000
0000
0000
1000
0000
0000
0010
0000
0000
0010
0000
0100
0000
0000
0000
,
0100
0000
0010
0000
1000
0000
0000
0000
0000
0000
0001
0000
1000
0100
0000
0000
,
1000
0000
0001
0000
0001
0000
0000
1000
0000
0000
1000
0000
0000
0100
0000
0000
,
0000
0020
0000
0000
0000
0000
0000
0000
0000
0000
0030
0000
0001
1000
0001
0000
,
1001
0000
1000
0010
0100
0010
1000
0100
,
0010
0000
0001
0010
0001
0000
0100
0000
0001
0010
0001
0000
0100
0000
0010
0000
,
1000
0000
0000
0001
0000
0000
1000
0000
0100
0000
0100
0000
0110
0000
0000
0000
,
0010
0000
0000
0001
0000
0000
0100
0000
0010
0000
0010
0000
0110
0000
0000
0000
,
1001
0000
0001
0100
0010
0100
0001
0100
,
0010
0000
1000
0010
1000
0000
0100
0000
0010
0001
0010
0000
0100
0000
1000
0000
,
0001
0000
0000
1000
0000
0000
0100
0000
0010
0000
0010
0000
0011
0000
0000
0000
,
1000
0000
0000
0001
0000
0000
1000
0000
0100
0000
0100
0000
1100
0000
0000
0000
,
0110
0000
0000
0000
1000
0100
1000
0000
0100
0000
1000
0000
0100
0000
1000
0000
,
0001
0000
0100
0001
0100
0000
0001
0000
0100
0001
0100
0000
0010
0000
1000
0000
,
0100
0000
0100
0010
0000
0000
0001
0000
0010
0000
0010
0000
1001
0000
0000
0000
,
0100
0000
0100
0010
0000
0000
1000
0000
0001
0000
0001
0000
1010
0000
0000
0000
,
1100
0000
0000
0000
0010
0100
0010
0000
0100
0000
1000
0000
0100
0000
0010
0000
,
0001
0000
1000
0010
1000
0000
0001
0000
1000
0100
1000
0000
0100
0000
0010
0000
,
0001
0000
0010
0100
0010
0000
0001
0000
0010
0100
0010
0000
0001
0000
0100
0000
,
0010
0000
1000
0010
1000
0000
0001
0000
1000
0001
0100
0000
0010
0000
0010
0000
,
2020
0000
0000
3030
;
