#TITLE:Raining Up;
#SUBTITLE:;
#ARTIST:Sanxion7;
#TITLETRANSLIT:;
#SUBTITLETRANSLIT:;
#ARTISTTRANSLIT:;
#GENRE:;
#CREDIT:;
#BANNER:rainingupbn.png;
#BACKGROUND:rainingupbg.png;
#LYRICSPATH:;
#CDTITLE:;
#MUSIC:rainingup.ogg;
#OFFSET:-0.177552;
#SAMPLESTART:48.149921;
#SAMPLELENGTH:13.760007;
#SELECTABLE:YES;
#BPMS:0.000000=140.005005
;
#STOPS:
;
#BGCHANGES:16.000=Raining UpTrim.mp4=1.000=0=0=1=SongBgWithMovieViz====,
24.000=flash=1.000=0=0=1=====,
24.250=Raining UpTrim.mp4=1.000=0=0=1=SongBgWithMovieViz====,
32.000=flash=1.000=0=0=1=====,
32.250=Raining UpTrim.mp4=1.000=0=0=0=StretchNoLoop====,
40.000=flash=1.000=0=0=1=====,
40.250=Raining UpTrim.mp4=1.000=0=0=1=====,
44.000=Raining UpTrim.mp4=1.000=0=0=1=SongBgWithMovieViz====,
48.000=flash=1.000=0=0=1=====,
48.250=Raining UpTrim.mp4=1.000=0=0=0=StretchNoLoop====,
80.000=flash=1.000=0=0=1=====,
80.250=Raining UpTrim.mp4=1.000=0=0=0=StretchNoLoop====,
108.000=flash=1.000=0=0=1=====,
108.250=bluerain.mp4=1.000=0=0=1=SongBgWithMovieViz====,
112.000=flash=1.000=0=0=1=====,
112.250=bluerain.mp4=1.000=0=0=0=StretchNoLoop====,
144.000=flash=1.000=0=0=1=====,
144.250=bluerain.mp4=1.000=0=0=0=StretchNoLoop====,
176.000=bluerain.mp4=1.000=0=0=1====#FF00FF=,
208.000=bluerain.mp4=1.000=0=0=1=SongBgWithMovieViz===#FF00FF=,
240.000=rainingupbg.jpg=1.000=0=0=1===CrossFade_Fastest==,
99999=-nosongbg-=1.000=0=0=0 // don't automatically add -songbackground-
;
#KEYSOUNDS:;
#ATTACKS:;

//---------------dance-single - C. Picardy----------------
#NOTES:
     dance-single:
     :
     Beginner:
     1:
     0.093989,0.143026,0.104886,0.000000,0.000000,69.000000,58.000000,11.000000,0.000000,0.000000,0.000000,0.093989,0.143026,0.104886,0.000000,0.000000,69.000000,58.000000,11.000000,0.000000,0.000000,0.000000:
// measure 0
0000
0000
0000
0000
,  // measure 1
0000
0000
0000
0000
,  // measure 2
0000
0000
0000
0000
,  // measure 3
0000
0000
0000
0000
,  // measure 4
1001
0000
0000
0000
,  // measure 5
0000
0000
0000
0000
,  // measure 6
1001
0000
0000
0000
,  // measure 7
0000
0000
0000
0000
,  // measure 8
1001
0000
0000
0000
,  // measure 9
0000
0000
0000
0000
,  // measure 10
1001
0000
0000
0000
,  // measure 11
1001
0000
0000
0000
,  // measure 12
1000
0000
0000
0000
,  // measure 13
1000
0000
0000
0000
,  // measure 14
0001
0000
0000
0000
,  // measure 15
0001
0000
0000
0000
,  // measure 16
0100
0000
0000
0000
,  // measure 17
0100
0000
0000
0000
,  // measure 18
0010
0000
0000
0000
,  // measure 19
0010
0000
0000
0000
,  // measure 20
1001
0000
0000
0000
,  // measure 21
0100
0000
0000
0000
,  // measure 22
0010
0000
0000
0000
,  // measure 23
1000
0000
0000
0000
,  // measure 24
0001
0000
0000
0000
,  // measure 25
0100
0000
0000
0000
,  // measure 26
1000
0000
0000
0000
,  // measure 27
0110
0000
0000
0000
,  // measure 28
0001
0000
0000
0000
,  // measure 29
0100
0000
0000
0000
,  // measure 30
0010
0000
0000
0000
,  // measure 31
1000
0000
0000
0000
,  // measure 32
0100
0000
0000
0000
,  // measure 33
0010
0000
0000
0000
,  // measure 34
0001
0000
0000
0000
,  // measure 35
1000
0000
0000
0000
,  // measure 36
1001
0000
0000
0000
,  // measure 37
0100
0000
0000
0000
,  // measure 38
0010
0000
0000
0000
,  // measure 39
1000
0000
0000
0000
,  // measure 40
0001
0000
0000
0000
,  // measure 41
0100
0000
0000
0000
,  // measure 42
1000
0000
0000
0000
,  // measure 43
0010
0000
0000
0000
,  // measure 44
1001
0000
0000
0000
,  // measure 45
0100
0000
0000
0000
,  // measure 46
0010
0000
0000
0000
,  // measure 47
1000
0000
0000
0000
,  // measure 48
0001
0000
0000
0000
,  // measure 49
0100
0000
0000
0000
,  // measure 50
0010
0000
0000
0000
,  // measure 51
1000
0000
0000
0000
,  // measure 52
1001
0100
0100
0000
,  // measure 53
0000
0000
0000
0000
,  // measure 54
0001
0001
0001
0000
,  // measure 55
0000
0000
0000
0000
,  // measure 56
1000
1000
1000
0000
,  // measure 57
0000
0000
0000
0000
,  // measure 58
0010
0010
0010
0000
,  // measure 59
0000
0000
0000
0000
,  // measure 60
1001
0000
0000
0000
;

//---------------dance-single - C. Picardy----------------
#NOTES:
     dance-single:
     :
     Easy:
     3:
     0.281966,0.400473,0.219307,0.152561,0.000000,207.000000,184.000000,23.000000,16.000000,0.000000,0.000000,0.281966,0.400473,0.219307,0.152561,0.000000,207.000000,184.000000,23.000000,16.000000,0.000000,0.000000:
0000
0000
0000
0000
,
0000
0000
0000
0000
,
0000
0000
0000
0000
,
0000
0000
0000
0000
,
1001
0000
0000
0000
,
0010
0000
0000
0000
,
0110
0000
0000
0000
,
0100
0000
0000
0000
,
1001
0000
1000
0000
,
0100
0000
0010
0000
,
0110
0000
0001
0000
,
2002
0000
0000
3003
,
1000
0100
0010
0010
,
0001
0100
0010
0010
,
1000
0100
1000
1000
,
0010
0100
0001
0001
,
1000
1000
0100
0010
,
0001
0001
1000
0100
,
0010
0010
0001
0100
,
0010
0010
1000
0100
,
1001
0100
1100
1100
,
0010
0001
0101
0101
,
0010
1000
0110
0110
,
1000
0100
0011
0011
,
1000
1001
0001
1001
,
0100
0110
0010
0110
,
0010
1001
0100
0010
,
2002
0000
0000
3003
,
0100
0010
0010
0000
,
1000
0100
0001
0100
,
0010
0001
0001
0000
,
0100
1000
0001
0010
,
1000
0100
0100
0000
,
0001
0010
0001
1000
,
0010
0100
0100
0000
,
0001
1000
1000
0000
,
0110
0010
0010
1000
,
0100
0001
0100
1000
,
0010
0010
0010
0100
,
0001
0010
1000
0010
,
0100
0100
0100
0010
,
0001
0100
0010
0100
,
1000
1000
1000
0100
,
0001
0001
0001
0000
,
0002
0000
0013
0100
,
2000
0000
3100
0010
,
0200
0000
1300
0010
,
0200
0000
0301
1000
,
0200
0310
0002
0103
,
0020
1030
0002
0103
,
0020
1030
0200
0310
,
0200
1300
0020
0130
,
1001
0100
0100
0000
,
0010
0001
0100
0000
,
0010
0010
0010
0000
,
1000
0010
0100
0000
,
1000
1000
1000
0000
,
0001
0010
1000
0000
,
0001
0001
0001
0000
,
0100
0010
1000
0100
,
1100
0000
0000
0000
;

//---------------dance-single - C. Picardy----------------
#NOTES:
     dance-single:
     :
     Medium:
     6:
     0.393662,0.461497,0.209772,0.143026,0.047675,289.000000,267.000000,22.000000,15.000000,0.000000,0.000000,0.393662,0.461497,0.209772,0.143026,0.047675,289.000000,267.000000,22.000000,15.000000,0.000000,0.000000:
0000
0000
0000
0000
,
0000
0000
0000
0000
,
0000
0000
0000
0000
,
0000
0000
0000
0000
,
1001
0001
0001
0001
,
1000
1000
1000
1000
,
0110
0010
0010
0010
,
0100
0000
0100
0000
0100
0000
0100
0001
,
1001
0001
0001
0001
,
1000
1000
1000
1000
,
1100
0100
0100
0100
,
1001
0000
0000
0000
,
0010
0000
0001
0000
0100
0000
0010
1000
,
0100
0000
1000
0000
0010
0000
0100
0001
,
0010
0000
0100
0000
0010
0000
0001
0010
,
0100
0000
1000
0000
1000
0100
1000
0100
,
1000
0000
0010
0000
0100
0000
0001
0010
,
0100
0000
0010
0000
0001
0000
0100
0010
,
1000
0000
0100
0000
0010
0000
0001
0010
,
0100
0000
1000
0000
0001
0100
0001
0100
,
0101
0000
1000
0000
0010
0100
0010
0100
,
0010
0000
1000
0000
0100
0010
0100
0010
,
0100
0000
0010
0000
0001
0010
0001
0010
,
0001
0000
1000
0000
0010
1000
0010
1000
,
0010
0000
0100
0000
0001
0010
0100
0010
,
0001
0000
0100
0000
0010
1000
0010
0100
,
0010
0000
1000
0000
0100
0010
0001
1000
,
1001
0000
0000
0000
,
0001
0000
0001
0000
0001
0000
0000
0200
0000
0000
0000
0300
0010
0000
0000
0000
,
1000
0000
0100
0000
0010
0001
0100
0000
,
0010
0000
0010
0000
0010
0000
0000
2000
0000
0000
0000
3000
0100
0000
0000
0000
,
0010
0000
0100
0000
1000
0100
0010
0000
,
0100
0000
0100
0000
0100
0000
0000
0020
0000
0000
0000
0030
0001
0000
0000
0000
,
0100
0000
0001
0000
0010
0001
0100
0000
,
1000
0000
1000
0000
1000
0000
0000
0002
0000
0000
0000
0003
1000
0000
0000
0000
,
0010
0000
0010
0000
0010
0000
0000
0200
0000
0000
0000
0300
0010
0000
0000
0000
,
1000
0000
0001
0000
0100
0000
0000
0002
0000
0000
0000
0003
1000
0000
0000
0000
,
0100
0000
0010
0000
0001
0000
0100
0001
,
1000
0000
0100
0000
0010
0000
0000
0200
0000
0000
0000
0300
1000
0000
0000
0000
,
0100
0000
0010
0000
0001
0000
0100
0010
,
1000
0000
0100
0000
0010
0000
0000
0020
0000
0000
0000
0030
0100
0000
0000
0000
,
1000
0000
0010
0000
0100
0000
0010
1000
,
0100
0000
0010
0000
0001
0000
0000
2000
0000
0000
0000
3000
0001
0000
0000
0000
,
0100
0000
0010
0000
0100
0000
0000
0020
0000
0000
0000
0030
0100
0000
0000
0000
,
1100
0000
1100
0000
0010
0100
1000
0000
,
1010
0000
1010
0000
0001
0100
1000
0000
,
0110
0000
0110
0000
0001
0010
0100
0000
,
0011
0000
0011
0000
1000
0100
0010
0000
,
1001
0000
0100
0000
0010
1000
0100
0000
,
1010
0000
0100
0000
0001
0100
0010
0000
,
1010
0000
0100
0000
0010
0001
0100
0000
,
1010
0000
1001
0000
0100
0010
0100
0000
,
1001
0001
0100
0010
,
0100
1000
0100
0010
,
1000
0100
1000
0010
,
0100
0001
0010
0001
,
2000
0100
3010
0001
,
0100
0001
0010
1000
,
0020
0001
0130
1000
,
0020
0100
0001
0030
,
2020
0000
3030
0000
;

//---------------dance-single - C. Picardy----------------
#NOTES:
     dance-single:
     :
     Challenge:
     10:
     0.864967,0.802615,0.200236,0.009535,1.172814,635.000000,614.000000,21.000000,1.000000,54.000000,0.000000,0.864967,0.802615,0.200236,0.009535,1.172814,635.000000,614.000000,21.000000,1.000000,54.000000,0.000000:
0000
0000
0000
0000
,
0000
0000
0000
0000
,
0000
0000
0000
0000
,
0000
0000
0000
0000
,
1100
0000
0100
0000
0010
0000
0001
0010
0001
0010
0001
0010
0001
0000
0100
0000
,
0010
0000
1000
0000
0100
0000
1000
0100
1000
0100
1000
0100
1000
0000
0100
0000
,
0110
0000
0010
0000
0001
0000
0100
0001
0100
0001
0100
0001
0100
0000
0010
0000
,
1000
0000
0001
0000
0100
0000
0010
1000
0010
1000
0010
1000
0010
0000
1000
0000
,
1001
0000
0001
0000
0100
0000
0010
1000
0010
1000
0001
0100
0001
0100
0010
0000
,
1000
0000
0100
0000
0010
0000
0100
1000
0100
1000
0001
0010
0001
0010
0001
0000
,
1001
0000
0100
0000
0010
0000
1000
0001
1000
0001
0100
0010
0100
0010
0100
0000
,
1001
M00M
M00M
M00M
M00M
M00M
M02M
M00M
,
1030
0000
0100
0000
0010
0000
0001
0010
0100
1000
0100
0010
0001
0010
0100
0000
,
1000
0000
0010
0000
0100
0000
0001
0100
0010
1000
0010
0100
0001
0100
0010
0000
,
1000
0000
0100
0000
0010
0000
0100
1000
0100
0010
0001
0010
0100
1000
0001
0000
,
0010
0000
0100
0000
1000
0000
0100
0010
0001
0010
0100
1000
0100
0010
0001
0000
,
1000
0000
0010
0000
0100
0000
0001
0100
0010
0100
1000
0100
0001
0100
0010
0000
,
1000
0000
0100
0000
0010
0000
0001
0010
0100
0010
1000
0010
0100
0010
0001
0000
,
1000
0000
0100
0000
0010
0000
0100
0010
0001
0010
0100
0010
1000
0010
0100
0000
,
0010
0000
0100
0000
1000
0000
0100
0010
0100
0001
0100
0010
0100
1000
0010
0000
,
0100
0000
0001
0000
1001
0000
0100
0010
1000
0001
0100
0010
1000
0100
0010
0000
,
0001
0000
1000
0000
1100
0000
0001
0010
0100
1000
0100
0010
0001
1000
0001
0000
,
1000
0000
0010
0000
0110
0000
1000
0001
0100
0010
1000
0100
0010
0001
0100
0000
,
0010
0000
1000
0000
1001
0000
0001
0100
0010
1000
0010
0100
0001
0100
0010
0000
,
1000
0000
0001
0000
0101
0000
0001
0100
0010
0100
1000
0100
0001
0100
0010
0000
,
1000
0000
0100
0000
0011
0000
1000
0100
0010
0100
0001
0100
0010
0100
1000
0000
,
0001
0000
0100
0000
1010
0000
1000
0010
0100
0010
0001
0010
1000
0100
0010
0000
,
0110
0000
0MM0
0000
0MM0
0000
0MM0
0000
0MM0
0000
0MM0
0000
1MM0
0001
1000
0001
,
0100
0010
1000
0000
0100
1000
0000
1000
0010
0100
0001
0100
0010
1000
0100
0000
,
0010
0000
0001
0000
0100
0000
0001
0100
0010
1000
0010
0100
0001
0100
0010
0000
,
1000
0001
0100
0000
0100
0010
0000
0010
1000
0001
0100
0010
1000
0001
0100
0000
,
0010
0000
1000
0000
0100
0000
1000
0100
0010
0100
1000
0100
0010
0001
0010
0000
,
0100
1000
0010
0000
0100
0001
0000
0001
1000
0001
0100
0010
0100
0001
0010
0000
,
0100
0000
0010
0000
0001
0000
0010
0100
0010
0001
0010
0100
0010
0001
0100
0000
,
0001
0100
0010
0000
1000
0010
0000
0010
1000
0100
0010
0001
0010
0100
1000
0000
,
0001
0100
0010
0000
0010
0000
1000
0001
0000
0000
MMMM
0000
1001
0000
MMMM
0000
,
1000
0100
0010
0000
0001
0010
0000
0010
0001
0100
0010
1000
0010
0100
0001
0000
,
1000
0000
0100
0000
1100
0000
0001
0010
0100
1000
0100
0010
0001
0010
0001
0000
,
0100
0010
1000
0000
1000
0010
0000
0010
1000
0001
0100
0010
1000
0100
0010
0000
,
0001
0000
1000
0000
0011
0000
1000
0100
0010
0001
0010
0100
1000
0100
1000
0000
,
0001
0100
0010
0000
0010
0100
0000
0100
0001
0010
0100
0010
0001
0010
0100
0000
,
0010
0000
0001
0000
1100
0000
0010
0100
1000
0100
0010
0001
0010
0100
1000
0000
,
0100
0010
0001
0000
0001
0010
0000
0010
0100
1000
0100
0010
0001
0100
0010
0000
,
1000
0001
0100
0000
0010
0000
0010
1000
0000
0000
0001
0000
1MM1
0000
1MM1
0000
,
0100
0000
0100
0010
0000
0010
1000
0000
1000
0100
0000
1000
0100
1000
0100
0010
,
0001
0000
0001
0100
0000
0100
0010
0000
0010
1000
0000
0001
1000
0010
0100
0001
,
1000
0000
1000
0100
0000
0100
0001
0000
0001
0100
0000
0100
1000
0100
0010
0100
,
1000
0000
1000
0010
0000
0010
0001
0000
0001
0010
0000
0010
0100
0001
0100
0010
,
1000
0000
1000
0001
0000
0001
0100
0000
0100
1000
0000
1000
0100
0010
0100
0010
,
1000
0000
1000
0010
0000
0010
0100
0000
0100
0010
0000
0010
0001
0010
0100
0010
,
1000
0000
1000
0100
0000
0100
0001
0000
0001
0100
0000
0100
0010
0001
0010
0100
,
0001
0000
0001
0100
0000
0100
1000
0000
1000
0001
0000
1000
0001
1000
0001
0100
,
0101
0000
0100
0000
0010
1000
0000
0001
0000
000M
0000
0000
1000
0000
0000
0000
,
1000
0100
0000
0M00
1000
0100
0000
0M00
1000
0100
0000
0M00
0010
0100
0010
0000
,
0001
0010
0001
0000
0100
0010
0000
0100
0000
0M00
0000
0000
0010
0000
0000
0000
,
0100
0001
0000
000M
0100
0001
0000
000M
0100
0010
0000
00M0
0100
0010
0100
0000
,
0001
0100
0001
0000
1000
0010
0000
0100
0000
0M00
0000
0000
0010
0000
0000
0000
,
0010
1000
0001
M000
0001
0000
0000
0000
0010
1000
0001
M000
0001
0000
0000
0000
,
1000
0100
1000
0000
0001
0010
0000
0010
0000
00M0
0000
0000
0010
0000
0000
0000
,
0000
0001
0100
0000
0010
0000
1000
0001
0000
M00M
0000
0000
0000
0000
0000
0000
,
1100
MM00
0000
0000
0000
0000
0000
0000
;

//---------------dance-single - C. Picardy----------------
#NOTES:
     dance-single:
     :
     Hard:
     9:
     0.570742,0.629315,0.286052,0.181166,0.405240,419.000000,389.000000,30.000000,19.000000,8.000000,0.000000,0.570742,0.629315,0.286052,0.181166,0.405240,419.000000,389.000000,30.000000,19.000000,8.000000,0.000000:
0000
0000
0000
0000
,
0000
0000
0000
0000
,
0000
0000
0000
0000
,
0000
0000
0000
0000
,
0110
0000
0010
0000
0010
0000
0010
0001
,
0100
0000
0100
0000
0100
0000
0100
0010
,
0001
0000
0001
0000
0001
0000
0001
0010
,
1000
0000
1000
0000
1000
0000
1000
0001
,
0101
0000
0000
0000
0100
0000
0000
0000
0100
0010
0100
0000
0010
0000
0010
0000
,
1000
0000
0000
0000
1000
0000
0000
0000
1000
0001
1000
0000
0100
0000
0010
0000
,
0001
0000
0000
0000
0001
0000
0000
0000
0001
0010
0001
0000
0100
0000
0010
0000
,
1001
0000
MMMM
0000
,
1001
0000
0000
0000
0101
0000
0000
0000
0100
0010
0100
0000
0010
0000
0000
0000
,
1010
0000
0000
0000
0110
0000
0000
0000
1000
0010
1000
0000
0001
0000
0000
0000
,
1100
0000
0000
0000
0110
0000
0000
0000
0001
0010
0001
0000
0100
0000
0000
0000
,
0110
0000
0000
0000
1001
0000
0000
0000
1000
0001
1000
0000
0001
0000
1000
0000
,
0100
0000
0010
0000
0001
0000
0000
0000
1000
0100
1000
0000
0001
0000
0010
0000
,
0100
0000
1000
0000
1000
0000
0000
0000
0100
0010
0100
0000
0010
0000
0001
0000
,
0100
0000
0010
0000
0010
0000
0000
0000
0100
0010
0100
0000
0001
0000
0100
0000
,
0010
0000
1000
0000
1000
0000
0000
0000
0001
0100
0001
0000
1000
0000
0100
0000
,
0010
0000
0100
0000
1000
0000
0100
0000
0010
0001
0010
0001
0010
0000
0000
0000
,
0100
0000
0010
0000
0001
0000
0100
0000
0001
0010
0001
0010
0001
0000
0000
0000
,
0100
0000
0010
0000
1000
0000
0100
0000
1000
0010
1000
0010
1000
0000
0000
0000
,
0100
0000
0010
0000
0001
0000
0100
0000
0010
1000
0010
1000
0010
0000
0000
0000
,
1000
0000
0001
0000
0100
0000
0010
0000
1000
0100
1000
0100
1000
0000
0100
0000
,
0010
0000
0001
0000
0100
0000
0010
0000
0100
0001
0100
0001
0100
0000
0010
0000
,
1000
0000
0100
0000
0010
0000
0001
0000
1000
0001
1000
0001
1000
0000
0100
0000
,
0110
0000
0000
0000
0000
0000
0000
0000
MMMM
0000
0000
0000
1000
0001
1000
0000
,
1001
0000
0100
0000
0010
1000
0000
0010
0000
0000
0000
0000
0100
0000
0000
0000
,
0010
0000
0000
0000
0101
0000
0000
0000
0001
0100
0010
0000
1000
0000
0000
0000
,
0000
0100
1000
0000
0100
0010
0000
0010
0000
0000
0000
0000
1100
0000
0000
0000
,
0001
0000
0000
0000
1100
0000
0000
0000
0010
0100
1000
0000
0001
0000
0000
0000
,
0000
0100
0001
0000
0001
0100
0000
0010
0000
0000
0000
0000
1001
0000
0000
0000
,
0100
0000
0000
0000
0011
0000
0000
0000
0010
0001
0100
0000
0100
0000
0000
0000
,
0000
0001
0010
0000
0010
0100
0000
1000
0000
0000
0000
0000
1010
0000
0000
0000
,
0000
0001
1000
0000
0001
0000
0100
0010
0000
0000
0000
0000
1001
0000
1001
0000
,
1001
0000
0100
0000
0010
0001
0000
0001
0010
0000
0100
0000
1000
0000
0100
0000
,
0010
0000
0001
0000
0100
0000
0001
0000
0010
0100
0010
0000
0001
0000
1000
0000
,
0010
0000
0100
0000
0010
1000
0000
0010
0100
0000
0001
0000
0010
0000
0001
0000
,
0100
0000
0010
0000
1000
0000
0100
0000
0010
0100
0010
0000
0100
0000
1000
0000
,
0001
0000
0100
0000
1000
0100
0000
0100
0010
0000
1000
0000
0100
0000
0001
0000
,
0100
0000
0010
0000
0001
0000
0100
0000
0010
0000
0001
0000
0010
1000
0010
0000
,
0100
0000
0001
0000
0010
1000
0000
1000
0010
0000
0001
0000
0100
0000
1000
0000
,
0100
0000
0010
0000
0001
0000
0010
1000
0000
0000
0001
0000
0101
0000
0101
0000
,
0101
0000
0000
1000
0000
0000
0010
0000
0000
0100
0000
0000
0001
0000
0100
0000
,
1000
0000
0000
0100
0000
0000
0010
0000
0000
1000
0000
0000
0010
0000
0001
0000
,
0010
0000
0000
1000
0000
0000
0100
0000
0000
0010
0000
0000
0001
0000
0010
0000
,
1000
0000
0000
0010
0000
0000
0001
0000
0000
1000
0000
0000
0100
0000
1000
0000
,
0010
0000
0100
0001
0000
0100
0010
0000
0100
0001
0000
0000
0100
0000
0010
0000
,
1000
0000
0010
1000
0000
0100
1000
0000
0010
1000
0000
0000
0001
0000
0100
0000
,
1000
0000
0100
1000
0000
0100
0010
0000
0100
1000
0000
0000
0100
0000
0010
0000
,
1000
0000
0010
0100
0000
0010
0001
0000
0010
1000
0000
0000
1001
0000
1001
0000
,
1001
0000
0200
0000
0020
0300
0002
0030
,
0200
0003
0020
0300
2000
0030
0002
3000
,
0003
1000
0001
0000
0001
0100
0000
0100
0000
0000
0000
0000
0200
0000
0000
0000
,
0020
0300
2000
0030
0200
3000
2000
0300
,
3000
0100
0010
0000
0010
0001
0000
0001
0000
0000
0000
0000
0200
0000
0000
0000
,
2000
0300
0200
3000
0020
0300
0002
0030
,
0003
1000
0001
0000
0001
1000
0000
1000
0000
0000
0000
0000
0101
0000
0000
0000
,
0000
0100
0010
0000
1000
0000
0200
0020
0000
0000
0000
0000
0000
0000
0330
0000
,
1001
0000
0000
0000
;
