#TITLE:Quasar;
#SUBTITLE:;
#ARTIST:Outphase;
#TITLETRANSLIT:;
#SUBTITLETRANSLIT:;
#ARTISTTRANSLIT:;
#GENRE:;
#CREDIT:;
#BANNER:quasar.png;
#BACKGROUND:quasar-bg.png;
#LYRICSPATH:;
#CDTITLE:;
#MUSIC:quasar.ogg;
#OFFSET:-2.356419;
#SAMPLESTART:34.776283;
#SAMPLELENGTH:12.000000;
#SELECTABLE:YES;
#BPMS:0.000000=155.000000
;
#STOPS:
;
#BGCHANGES:20.000=plasmawatertunnel.mp4=1.000=1=0=1=SongBgWithMovieViz==CrossFade==,
52.000=plasmawatertunnel.mp4=1.000=1=0=1===CrossFade==,
84.000=particles.mp4=1.000=0=0=0=StretchNoLoop==CrossFade_Fastest=#0000FF=,
116.000=darkplasma4K.mp4=1.000=1=0=0=StretchNoLoop==CrossFade==,
148.000=darkplasma4K.mp4=1.000=1=0=0=StretchNoLoop==CrossFade==,
148.250=darkplasma4K.mp4=1.000=1=0=1=SongBgWithMovieViz==CrossFade==,
180.000=flash=1.600=0=0=1=====,
180.250=plasmawatertunnel.mp4=1.000=0=0=0=StretchNoLoop====,
180.500=plasmawatertunnel.mp4=1.000=0=0=1=SongBgWithMovieViz====,
212.000=flash=1.600=0=0=1=====,
212.250=plasmawatertunnel.mp4=1.000=0=0=0=StretchNoLoop====,
244.000=flash=1.600=0=0=1=====,
244.250=particles.mp4=1.000=0=0=0=StretchNoLoop====,
276.000=flash=1.000=0=0=1=====,
276.250=quasar-bg.png=1.000=0=0=1=====,
284.000=darkplasma4K.mp4=1.000=1=0=0=StretchNoLoop==CrossFade==,
284.250=darkplasma4K.mp4=1.000=1=0=1=SongBgWithMovieViz==CrossFade==,
310.000=quasar-bg.png=1.000=1=0=1===CrossFade==,
99999=-nosongbg-=1.000=0=0=0 // don't automatically add -songbackground-
;
#KEYSOUNDS:;
#ATTACKS:;

//---------------dance-single - C. Picardy----------------
#NOTES:
     dance-single:
     :
     Beginner:
     1:
     0.073619,0.124002,0.056364,0.000000,0.000000,64.000000,57.000000,7.000000,0.000000,0.000000,0.000000,0.073619,0.124002,0.056364,0.000000,0.000000,64.000000,57.000000,7.000000,0.000000,0.000000,0.000000:
0000
0000
0000
0000
,
0000
0000
0000
0000
,
0000
0000
0000
0000
,
0000
0000
0000
0000
,
0000
0000
0000
0000
,
0001
0000
0000
0000
,
0000
0000
0000
0000
,
1000
0000
0000
0000
,
0000
0000
0000
0000
,
1000
0000
0000
0000
,
0000
0000
0000
0000
,
0100
0000
0000
0000
,
0000
0000
0000
0000
,
0010
0000
0000
0000
,
1000
0000
0000
0000
,
0001
0000
0000
0000
,
1000
0000
0000
0000
,
0010
0000
0000
0000
,
0100
0000
0000
0000
,
0001
0000
0000
0000
,
1000
0000
0000
0000
,
1001
0000
0000
0000
,
0010
0000
0000
0000
,
1000
0000
0000
0000
,
0001
0000
0000
0000
,
1001
0000
0000
0000
,
0100
0000
0000
0000
,
0010
0000
0000
1001
,
0000
0000
0000
0000
,
0000
0000
0000
0000
,
1000
0000
0000
0000
,
0000
0000
0000
0000
,
0010
0000
0000
0000
,
0000
0000
0000
0000
,
0100
0000
0000
0000
,
0000
0000
0000
0000
,
0001
0000
0000
0000
,
1000
0000
0000
0000
,
0000
0000
0000
0000
,
0010
0000
0000
0000
,
0000
0000
0000
0000
,
1000
0000
0000
0000
,
0000
0000
0000
0000
,
0001
0000
0000
0000
,
0000
0000
0000
0000
,
1001
0000
0000
0000
,
1000
0000
0000
0000
,
0010
0000
0000
0000
,
0001
0000
0000
0000
,
1000
0000
0000
0000
,
0010
0000
0000
0000
,
0100
0000
0000
0000
,
0001
0000
0000
0000
,
0110
0000
0000
0000
,
1000
0000
0000
0000
,
0001
0000
0000
0000
,
0010
0000
0000
0000
,
0100
0000
0000
0000
,
1000
0000
0000
0000
,
0001
0000
0000
0000
,
0010
0000
0000
0000
,
0110
0000
0000
0000
,
1000
0000
0000
0000
,
0001
0000
0000
0000
,
0010
0000
0000
0000
,
0100
0000
0000
0000
,
1000
0000
0000
0000
,
0001
0000
0000
0000
,
0100
0000
0000
0000
,
1001
0000
0000
0000
,
0000
0000
0000
0000
,
0010
0000
0000
0000
,
0000
0000
0000
0000
,
0000
0000
0000
0000
,
0000
0000
0000
0000
,
0100
0000
0000
0000
,
1000
0000
0000
0000
,
0010
0000
0000
0000
;

//---------------dance-single - C. Picardy----------------
#NOTES:
     dance-single:
     :
     Easy:
     3:
     0.228908,0.372005,0.120781,0.112729,0.000000,199.000000,184.000000,15.000000,14.000000,0.000000,0.000000,0.228908,0.372005,0.120781,0.112729,0.000000,199.000000,184.000000,15.000000,14.000000,0.000000,0.000000:
0000
0000
0000
0000
,
0000
0000
0000
0000
,
0000
0000
0000
0000
,
0010
0000
0100
0000
,
0010
0000
0100
0000
,
0020
0000
0030
0000
,
0200
0000
0300
0000
,
0010
0000
0001
0000
,
0010
0000
0100
0000
,
2000
0000
3002
0000
,
2003
0000
3002
0000
,
0013
0000
0100
0000
,
1000
0000
0001
1001
,
0100
0001
0100
0000
,
0010
0000
1000
0000
,
0100
0000
0010
0000
,
0001
0000
1001
0000
,
0010
1000
0010
0000
,
0100
0000
0010
0000
,
1000
0000
0001
0000
,
0010
0000
0100
0000
,
1001
1000
1000
0000
,
0001
0001
0001
0000
,
0010
0001
0010
0000
,
1000
0010
1000
0000
,
0010
0100
0010
0000
,
1000
1000
0010
0000
,
0001
0010
0100
1000
,
0110
0000
0000
0000
,
0000
0000
0000
0000
,
0020
0000
0030
0000
,
0002
0000
0003
0000
,
1000
0000
1000
0000
,
2000
3000
0001
0000
,
0200
0300
0010
0000
,
2000
3000
0001
0000
,
0200
0300
0010
0000
,
1000
0000
0000
0001
,
1001
0000
0000
0010
,
0110
0000
0000
1000
,
1001
0000
0000
0100
,
0110
0000
0000
0010
,
1001
0000
0000
0100
,
1001
0000
1000
0000
,
0010
0000
0100
0000
,
1000
0100
0010
0000
,
0001
0010
0100
0000
,
1000
0100
0001
0000
,
0001
0100
1000
0000
,
1000
0010
0010
0000
,
0001
0010
0010
0000
,
0100
0001
0001
0000
,
1000
0100
0100
0000
,
1001
0100
0010
1000
,
0100
0010
0010
0000
,
0001
1000
0010
0100
,
0001
0100
0100
0000
,
0010
1000
0001
1000
,
0010
0100
0010
0000
,
1000
0100
1000
0100
,
0010
0001
1000
0000
,
0010
0100
0001
1000
,
0001
0001
1000
1000
,
0010
0100
0001
1000
,
0100
0100
0010
0010
,
0100
1000
0001
1001
,
0100
0010
1000
1001
,
0100
0010
0100
0110
,
0001
0100
0010
1000
,
1001
0000
0000
0000
,
0000
0000
0000
0000
,
0010
0000
0100
0000
,
0001
0000
0001
0000
,
1000
0000
0010
0000
,
0100
0000
0010
0000
,
2000
0000
3000
0000
,
0002
0000
0003
0000
,
0100
0000
0000
0000
;

//---------------dance-single - C. Picardy----------------
#NOTES:
     dance-single:
     :
     Medium:
     6:
     0.319781,0.439642,0.193249,0.362342,0.000000,278.000000,254.000000,24.000000,45.000000,0.000000,0.000000,0.319781,0.439642,0.193249,0.362342,0.000000,278.000000,254.000000,24.000000,45.000000,0.000000,0.000000:
0000
0000
0000
0000
,
0000
0000
0000
0000
,
0000
0000
0000
0000
,
1000
0000
0010
0000
,
0100
0001
1000
0100
,
0220
0330
0022
0033
,
0202
0303
2200
3300
,
1000
0010
1000
0010
,
0100
0001
0100
0001
,
2020
3030
0220
0330
,
2200
3300
2002
3003
,
0001
0000
0001
0000
0000
0100
0000
0000
,
0100
0000
0000
0200
0000
0300
0000
0000
,
0010
1000
0001
1000
,
0100
0010
0010
0001
,
1001
0000
0010
0000
0000
0020
0000
0030
,
0002
0000
0003
2000
0000
3000
0000
0000
,
1100
0010
0001
0010
,
0100
1000
0100
0010
,
0001
0000
1000
0000
0000
2000
0000
3000
,
0002
0000
0003
0020
0000
0030
0000
0000
,
0011
0001
0100
0010
,
1000
0000
0010
0000
0100
0001
1000
0000
,
1010
0100
0001
0010
,
0001
0000
0100
0000
0010
1000
0100
0000
,
1010
0100
0010
1000
,
0100
0000
0010
0000
0100
1000
0010
0000
,
1000
0100
0001
0000
0001
0100
1000
0000
,
2002
0000
3003
0000
,
2000
0000
3010
0000
,
0200
0000
0310
0000
,
0002
0000
0013
0000
,
0200
0000
1300
0000
,
0020
0000
0230
0000
,
0302
0000
0023
0000
,
0230
0000
0302
0000
,
0203
0000
2300
0000
,
3001
0000
0110
0000
,
1000
0000
0110
0000
,
0010
0000
1100
0000
,
0010
0000
0101
0000
,
0002
0003
1100
0000
,
0020
0030
0101
0000
,
2000
3000
0110
0000
,
2000
3000
1001
0000
,
0001
0010
0100
0100
,
1000
0000
0001
0000
0100
0010
1000
0000
,
0100
0010
0001
0001
,
0100
0000
1000
0000
0001
0100
0010
0000
,
1000
1000
0010
0001
,
0010
0000
0010
0000
0001
0100
0010
0000
,
1000
1000
0100
0001
,
0010
0000
0010
0000
0100
1000
0001
0000
,
1001
0000
0100
0000
0010
1000
0100
0000
,
0010
0000
0001
0000
0010
0001
0100
0000
,
0010
0000
1000
0000
0100
1000
0010
0000
,
0100
0000
0001
0000
1000
0100
0001
0000
,
0100
0000
1000
0000
0010
1000
1000
0000
,
0100
0000
0001
0000
0010
0001
0001
0000
,
0001
0000
0100
0000
0010
0100
0100
0000
,
0001
1000
0001
1000
0001
0000
0000
0000
,
0110
0000
1000
0000
0100
0010
0001
0000
,
0001
0010
0100
0000
0100
0010
0001
0000
,
0001
0100
1000
0000
1000
0100
0001
0000
,
0001
0100
0010
0000
0010
0100
0001
0000
,
1000
0100
1000
0000
0010
1000
0010
0000
,
1000
0001
1000
0000
0001
0100
0001
0000
,
0010
0001
0100
0000
0010
1000
0100
0000
,
0010
0100
1000
0001
0100
0000
0010
0200
,
0000
0000
0000
0000
,
0300
0000
0000
0000
,
0010
0000
1000
0000
,
0010
0000
0100
0000
,
0001
0000
1000
0000
,
0100
0000
0010
0000
,
0002
0000
0000
0003
,
0200
0000
0000
0300
,
2000
0000
0000
0000
,
3000
0000
0000
0000
;

//---------------dance-single - C. Picardy----------------
#NOTES:
     dance-single:
     :
     Hard:
     8:
     0.488874,0.628060,0.209353,0.402602,0.157015,425.000000,399.000000,26.000000,50.000000,8.000000,0.000000,0.488874,0.628060,0.209353,0.402602,0.157015,425.000000,399.000000,26.000000,50.000000,8.000000,0.000000:
0000
0000
0000
0000
,
0000
0000
0000
0000
,
0100
0100
0100
0100
,
0001
0001
0001
0001
,
0002
0000
0103
0010
1000
0001
0100
0000
,
0001
0100
0020
0000
1030
0100
0020
0000
,
0031
0000
0100
0000
2000
0000
0000
3000
1000
0000
0100
0000
0002
0000
0000
0000
,
0103
0000
0001
0000
0110
0000
0010
1000
,
1000
0000
0100
0000
1000
0000
1000
0100
,
0100
0000
1000
0100
0002
0000
0103
0010
,
0002
0000
1003
0100
0002
0000
0103
0000
,
0010
0000
0001
0000
1000
1001
0000
0000
,
0101
0000
0000
0110
0000
1000
1000
0000
,
0001
0100
1000
0100
0001
0010
0001
0000
,
0200
0000
0310
0000
0100
0001
0010
0000
,
0200
0000
1000
0000
0310
0001
0000
0000
,
0001
0000
0000
0101
0000
0100
0100
0000
,
0010
1000
0100
0010
0001
0100
0010
0000
,
1000
0000
0001
0000
1000
0100
1100
0000
,
0001
0000
1000
0000
0000
0200
0000
0300
,
0020
0000
0030
0200
0000
0300
1001
0000
,
1000
0000
0001
0000
0100
0000
0001
0000
1000
0000
0001
0100
0000
0000
0000
0000
,
0001
0100
0000
0000
0100
0000
0001
0000
0000
0000
1000
0000
1001
0000
0000
0000
,
0001
0000
1000
0000
0100
0000
1000
0000
0010
0000
1000
0001
0000
0000
0000
0000
,
1000
0010
0000
0000
1000
0000
0002
0000
0000
0000
1003
0000
1010
0000
0000
0000
,
0010
0000
1000
0000
0010
0000
0100
0000
0010
0000
1000
0010
0000
0000
0000
0000
,
0001
0100
0000
0000
0000
0000
0020
0000
0000
0030
0010
0000
2000
0000
0000
3000
,
1000
0010
0001
0010
1000
0001
0100
0010
,
0110
0000
0000
0000
0000
0000
0000
0020
,
0000
0000
0000
0000
0030
0000
0000
2000
0000
0000
0000
0000
3000
0000
0000
0002
,
0000
0M00
0003
0000
0200
0000
0300
0000
,
0002
00M0
0003
0000
0200
M000
0300
0000
,
0020
0000
0030
0000
2000
0000
3000
000M
,
0200
0300
0020
0030
,
0202
M303
0020
0030
,
2020
0M00
3030
0000
0200
0000
0300
0000
,
M002
0000
0003
0000
2002
0M00
3003
0000
,
1000
0000
0000
1000
0000
0000
1000
0000
0000
0000
0001
0000
0100
0000
0000
0000
,
0010
0000
0000
0010
0000
0000
0010
0000
0000
0000
0100
0000
0001
0000
0000
0000
,
0010
0000
0000
0001
0000
0000
0010
0000
0000
0000
0000
0000
0001
0000
1000
0000
,
0100
0000
0000
0100
0000
0000
0010
0000
0000
0000
0000
0000
0100
0000
1000
0000
,
0001
0000
0000
0100
0000
0000
0010
0000
1000
0000
0000
0100
0000
0000
1000
0000
,
0001
0000
0000
0010
0000
0000
0001
0000
1000
0000
0000
0010
0000
0000
1000
0000
,
0001
0000
0000
0010
0000
0000
0100
0000
1000
0000
0000
0100
0000
0000
0010
0000
,
0001
0000
0000
0100
0000
0000
0001
0000
0100
0000
0010
0000
1000
0000
0100
0000
,
0010
0000
0011
0000
0010
0100
0010
0001
,
0100
0000
0110
0000
0010
1000
0010
0100
,
0010
0000
1010
0000
1000
0100
0001
0100
,
1000
0000
1010
0000
1000
0001
0100
0001
,
0010
0001
0000
0000
0011
0000
0000
0000
0010
0000
0100
0000
0010
0000
0100
0000
,
1000
0100
0000
0000
0110
0000
0000
0000
0010
0000
0001
0000
0100
0000
0010
0000
,
0100
0001
0000
0000
0101
0000
0000
0000
0001
0000
1000
0000
0100
0000
1000
0000
,
0010
0100
0000
0000
1001
0000
0000
0000
1000
0000
0001
1000
0001
0000
0001
0000
,
1000
0100
0010
0100
1000
0100
0010
0100
,
1000
0100
0001
0100
0010
0100
1000
0100
,
1000
0001
0100
0001
1000
0001
0100
0001
,
0010
0001
1000
0001
0100
0001
1000
0001
,
0100
0001
0100
0010
0100
0001
0100
0010
,
0100
0001
0100
0010
0100
0001
0100
0010
,
1000
0010
0100
0010
1000
0010
0100
0010
,
1000
0000
0000
0000
0000
0000
0001
0000
1001
0000
0000
0000
0000
0000
0001
0100
,
0001
0000
0100
0000
1000
0000
0100
0000
0010
0000
1000
0000
0100
0000
1000
0010
,
1000
0000
0100
0000
0010
0000
0100
0000
1000
0000
0100
0000
0001
0000
0100
1000
,
0100
0000
0010
0000
0001
0000
0100
0000
0010
0000
0100
0000
0001
0000
1000
0010
,
1000
0000
0001
0000
0100
0000
0001
0000
1000
0000
0001
0000
0100
0000
0001
0010
,
0001
0000
0100
0000
0010
0000
1000
0000
0100
0000
0010
0000
0001
0000
0010
0100
,
1000
0000
0100
0000
0010
0000
0100
0000
1000
0000
0100
0000
0010
0000
0001
0100
,
0010
0000
1000
0000
0100
0000
0010
0000
0001
0000
0100
0000
0010
0000
1000
0010
,
0100
0000
0001
0000
0010
0000
0100
0000
0010
0000
0001
0000
1000
0100
0010
0001
,
0000
0000
0000
0000
,
0000
0000
0000
0000
,
0000
2000
0000
0000
0000
0000
0000
3000
0000
0202
0000
0000
0000
0000
0303
0000
,
0000
0020
0000
0000
0000
0000
0030
0000
0000
0000
2200
0000
0000
0000
0000
3300
,
0000
0000
2002
0000
0000
0000
0000
0000
3003
0000
0000
0200
0000
0000
0000
0000
,
0300
0000
0022
0000
0000
0000
0000
0000
0033
0000
0000
0002
0000
0000
0000
0000
,
0003
0200
0000
0000
0000
0000
0000
0000
,
0000
0020
0000
0000
0000
0000
0000
0300
,
0000
2000
0000
0000
0000
0000
0000
0000
,
3030
0000
0000
0000
;

//---------------dance-single - C. Picardy----------------
#NOTES:
     dance-single:
     :
     Challenge:
     11:
     0.884575,1.032977,0.322082,0.354290,1.171573,769.000000,726.000000,40.000000,44.000000,65.000000,21.000000,0.884575,1.032977,0.322082,0.354290,1.171573,769.000000,726.000000,40.000000,44.000000,65.000000,21.000000:
// measure 0
0000
0000
0000
0000
,  // measure 1
0000
0000
0000
0000
,  // measure 2
0101
0100
0101
0001
,  // measure 3
0110
0000
0001
0000
0110
0000
0010
2000
,  // measure 4
0000
0000
0000
0000
3000
0000
0001
1000
0100
0000
0010
0000
0110
0000
0010
0000
,  // measure 5
0001
0011
0100
0010
1100
0010
0001
0100
,  // measure 6
1010
0100
0001
1000
0101
0010
0100
1000
,  // measure 7
0002
0010
1000
0100
0100
0010
1000
0103
,  // measure 8
2000
0010
0100
0010
0001
0100
3010
1000
,  // measure 9
0001
0000
0101
0000
0100
0001
0100
0010
0100
0000
0001
0000
0010
0100
1000
0100
,  // measure 10
0010
0000
0100
0000
1000
0100
0001
0100
1000
0000
0010
0000
1000
0010
0001
0010
,  // measure 11
1000
0000
0001
0000
0100
0010
1000
0010
0100
0000
0220
0000
0000
0000
0000
0330
,  // measure 12
2002
0000
0000
0000
0000
3003
0220
0000
0000
0330
1000
0000
1001
0000
0101
0000
,  // measure 13
0001
0100
0010
1000
0010
0000
0100
0000
0001
0010
0100
0000
1000
0000
0100
0010
,  // measure 14
0001
0010
0100
0000
1000
0010
0100
0000
0010
0000
0010
0000
1010
0000
1100
0000
,  // measure 15
0100
0000
0010
0001
0010
0000
0100
0000
0010
0001
0010
0000
0001
0000
0001
0000
,  // measure 16
0001
0010
0100
0000
0011
0000
0001
0100
0010
0000
0010
0000
0110
0000
1010
0000
,  // measure 17
0010
1000
0001
0100
0010
0000
1000
0100
0010
0000
0001
1000
0100
0000
0010
0000
,  // measure 18
0001
0100
0001
0100
0001
0000
1000
0010
1000
0000
0001
0000
0100
0010
1000
0000
,  // measure 19
0001
0000
0100
0000
0010
0000
1000
0000
0010
0000
0200
0000
0010
0300
10M0
0M00
,  // measure 20
0020
0000
0100
0030
0MM1
0000
0020
0000
0000
0000
0130
0000
0M10
0000
0001
0000
,  // measure 21
0001
0010
0100
1000
0100
0010
0100
1000
0100
0000
0010
0000
0001
0100
1000
0000
,  // measure 22
0100
0010
1000
0000
1100
0000
0010
0001
0200
0000
0010
0000
1000
0000
0010
0300
,  // measure 23
0001
0100
0010
1000
0010
0100
0001
0010
0100
0000
1000
0000
0010
0001
0010
0000
,  // measure 24
1010
0000
0100
0001
0010
0000
0001
0010
0200
0000
0010
0000
1000
0000
0001
0300
,  // measure 25
1000
0100
0001
0100
1000
0001
0010
0100
1000
0000
0001
0010
1000
0000
0001
0000
,  // measure 26
0100
1000
0010
0100
1000
0000
0001
0100
1000
0100
0010
0100
0001
0010
0100
0000
,  // measure 27
1000
0100
1000
0100
0010
0100
0010
0100
0010
0001
0010
0001
0100
0010
1000
0010
,  // measure 28
0220
0000
0000
0000
0000
0000
0000
2000
,  // measure 29
0000
0300
0000
0000
0000
0000
0000
0200
0000
0000
0000
0000
0000
3000
0000
0000
,  // measure 30
0000
0002
0000
0000
0030
0000
0000
0000
2010
0000
0003
0300
0000
0000
0000
0000
,  // measure 31
0120
0000
0000
0000
0000
3000
0000
0000
0102
0000
0000
0030
0000
0000
0000
0000
,  // measure 32
0210
0000
0000
0003
0000
0000
0000
0000
2000
0000
0000
0000
0000
0000
0000
0000
,  // measure 33
0011
3300
0000
0000
0002
0000
0000
0000
,  // measure 34
0200
0000
0000
0000
2010
0303
0000
3000
,  // measure 35
2000
0000
0101
3000
,  // measure 36
0200
0000
1011
0300
,  // measure 37
0001
0010
0001
0010
0000
0100
1000
0000
0010
0100
0001
1000
0000
0100
0010
0000
,  // measure 38
0001
1000
0100
0010
0000
0001
0100
0000
0010
1000
0100
0010
0000
0001
0100
0010
,  // measure 39
1000
0100
0010
0100
0000
1000
0010
0000
1000
0010
0100
0001
0000
0100
0010
0000
,  // measure 40
1000
0010
0100
0001
0000
1000
0100
0010
0001
0100
0010
1000
0000
0001
0100
0010
,  // measure 41
0100
0001
0010
0100
0000
1000
0100
0010
0001
0010
0100
1000
0000
0010
0100
1000
,  // measure 42
0100
0010
1000
0001
0000
1000
0100
0000
1000
0100
1000
0100
1000
0010
1000
0010
,  // measure 43
0100
0001
0010
0001
0000
0100
0010
0000
1000
0010
1000
0010
0000
0100
0001
0000
,  // measure 44
0001
0100
0010
0100
0000
0100
0001
0100
0010
1000
0010
0100
0010
0100
0001
1000
,  // measure 45
0010
1000
0010
0100
0001
0010
0100
0000
1000
0100
0010
0100
1000
0001
0100
0000
,  // measure 46
0001
0100
0010
0100
0001
1000
0010
0000
0100
0001
0010
0100
0010
0001
0100
0000
,  // measure 47
0010
1000
0100
0010
0001
0100
0010
0000
0010
1000
0010
0100
0001
0010
0001
0000
,  // measure 48
0010
0100
1000
0100
0010
0100
1000
0000
0100
0010
0001
0010
0100
1000
0010
0000
,  // measure 49
0100
0010
1000
0001
0100
0010
0100
0000
0001
0100
0001
0100
0010
1000
0010
0000
,  // measure 50
0100
0010
1000
0100
0010
0100
1000
0000
0001
1000
0100
0010
0100
1000
0001
0000
,  // measure 51
1000
0100
0001
0100
0010
0100
1000
0000
1000
0010
0100
0010
1000
0010
0100
0000
,  // measure 52
0100
0001
0100
0010
0100
1000
0100
0010
0001
0010
0100
1000
0100
0010
0100
0010
,  // measure 53
0100
0001
0100
0001
0010
0001
0010
0001
1000
0001
1000
0001
0100
0000
0M0M
0000
,  // measure 54
0010
0100
0010
0100
0010
1000
0010
1000
0100
1000
0100
1000
0100
0000
MM00
0000
,  // measure 55
0010
0100
0010
0100
0010
0001
0010
0001
0100
0001
0100
0001
0010
0000
M0M0
0000
,  // measure 56
0100
0010
0100
0010
0100
1000
0100
1000
0100
0010
0100
0010
0001
0000
00MM
0000
,  // measure 57
0001
0100
0010
1000
0010
0100
0010
1000
0001
0100
0010
1000
0100
0000
M0M0
0000
,  // measure 58
1000
0100
0010
0001
0100
0001
0010
0100
1000
0100
0010
0100
1000
0000
0MM0
0000
,  // measure 59
0010
0001
0100
0010
1000
0100
0010
0001
0100
0010
1000
0100
0010
0000
0000
0000
,  // measure 60
0002
0000
0000
0000
0200
0000
0000
0000
1000
0000
0303
0000
0000
0000
0001
0100
,  // measure 61
0010
1000
0010
0100
0001
0010
0001
0010
0100
0010
0001
0010
0100
1000
0100
1000
,  // measure 62
0100
0010
0100
0010
0001
0100
0001
0100
0010
1000
0100
0010
0100
1000
0100
0010
,  // measure 63
0100
1000
0001
0100
0010
1000
0100
0010
0100
1000
0100
1000
0100
1000
0010
0100
,  // measure 64
0001
0010
0001
0100
0010
0100
0001
0010
0100
0010
1000
0010
0100
0010
0001
0100
,  // measure 65
0010
0100
1000
0100
0010
0001
0010
1000
0100
0010
0100
0001
0100
0010
0100
1000
,  // measure 66
0010
0100
0010
1000
0010
0100
0001
0010
0001
0100
0010
1000
0100
0010
0100
0010
,  // measure 67
0001
0010
0100
0010
0001
1000
0100
0010
0001
0010
0100
0010
0001
0010
0100
0010
,  // measure 68
1000
0010
0001
0100
0010
0100
0001
1000
0100
0010
0001
1000
0100
1000
0001
0010
,  // measure 69
M000
M000
M000
M000
MMMM
0000
MMMM
M00M
M00M
MMMM
0000
M00M
M00M
M00M
M00M
M00M
,  // measure 70
0MM0
0000
MMMM
M000
M000
MMMM
M000
M000
MMMM
0000
0000
0000
0000
0000
0000
0000
,  // measure 71
0000
0020
0000
0000
0000
0000
0000
0000
0000
0000
2100
0000
0000
0000
0000
0000
,  // measure 72
0000
0000
3102
0000
0000
0000
0000
0000
0030
0000
0000
1020
0000
0000
0000
0003
,  // measure 73
0000
0000
0000
0202
0000
0030
0000
0000
0000
0000
0000
0000
2000
0000
0303
0000
,  // measure 74
0000
0110
0000
0000
0000
0011
0000
3000
,  // measure 75
0000
0220
0000
0000
0000
0000
0000
0000
,  // measure 76
0000
2002
0000
0330
0000
0000
0000
3003
,  // measure 77
0000
2112
0000
0000
0000
0000
3003
0000
;
