#TITLE:Power Two;
#SUBTITLE:;
#ARTIST:Hotblade;
#TITLETRANSLIT:;
#SUBTITLETRANSLIT:;
#ARTISTTRANSLIT:;
#GENRE:;
#CREDIT:;
#BANNER:powertwobn.png;
#BACKGROUND:powertwobg.png;
#LYRICSPATH:;
#CDTITLE:;
#MUSIC:powertwo.ogg;
#OFFSET:-0.556823;
#SAMPLESTART:57.819962;
#SAMPLELENGTH:12.000000;
#SELECTABLE:YES;
#BPMS:0.000000=155.000000
;
#STOPS:
;
#BGCHANGES:12.000=flash=1.600=0=0=1=====,
12.250=powertwobg.png=1.000=0=0=1=====,
13.000=flash=1.600=0=0=1=====,
13.250=powertwobg.png=1.000=0=0=1=====,
14.000=flash=1.600=0=0=1=====,
14.250=powertwobg.png=1.000=0=0=1=====,
14.500=flash=1.600=0=0=1=====,
14.750=powertwobg.png=1.000=0=0=1=====,
16.000=blackfade.png=1.000=1=0=1===CrossFade==,
19.000=powertwobg.png=1.000=0=0=1=====,
20.000=flash=1.600=0=0=1=====,
20.250=trafficlights.mp4=1.000=0=1=1=StretchRewind====,
52.000=flash=1.600=0=0=1=====,
52.250=opticalfibers.mp4=1.000=0=1=1=StretchRewind====,
84.000=flash=1.600=0=0=1=====,
84.250=rapidcircles.mp4=1.000=0=1=1=StretchRewind====,
114.000=powertwobg.png=1.000=0=0=1===CrossFade_Fastest==,
116.000=flash=1.600=0=0=1=====,
116.250=fastrays.mp4=1.000=0=1=1=StretchRewind====,
148.000=flash=1.600=0=0=1=====,
148.250=thunderstrike.mp4=1.000=0=1=1=StretchRewind====,
180.000=flash=1.600=0=0=1=====,
180.250=trafficlights.mp4=1.000=0=0=1=====,
212.000=flash=1.600=0=0=1=====,
212.250=fastrays.mp4=1.000=0=0=1=====,
242.000=flash=1.600=0=0=1=====,
242.250=powertwobg.png=1.000=0=0=1=====,
242.500=flash=1.600=0=0=1=====,
242.750=powertwobg.png=1.000=0=0=1=====,
99999=-nosongbg-=1.000=0=0=0 // don't automatically add -songbackground-
;
#KEYSOUNDS:;
#ATTACKS:;

//---------------dance-single - C. Picardy----------------
#NOTES:
     dance-single:
     :
     Beginner:
     1:
     0.102181,0.156789,0.062197,0.031099,0.000000,69.000000,63.000000,6.000000,3.000000,0.000000,0.000000,0.102181,0.156789,0.062197,0.031099,0.000000,69.000000,63.000000,6.000000,3.000000,0.000000,0.000000:
0000
0000
0000
0000
,
0000
0000
0000
0000
,
0000
0000
0000
0000
,
0000
0000
0000
0000
,
0000
0000
0000
0000
,
0010
0000
0010
0000
,
0010
0000
0000
0000
,
1000
0000
1000
0000
,
1000
0000
0000
0000
,
0001
0000
0001
0000
,
0001
0000
0000
0000
,
0200
0000
0300
0000
,
0010
0000
0010
0000
,
1000
0000
0000
0000
,
0001
0000
0000
0000
,
1000
0000
0000
0000
,
0001
0000
0000
0000
,
0100
0000
0000
0000
,
0010
0000
0000
0000
,
0100
0000
0000
0000
,
0010
0000
0000
0000
,
1001
0000
0000
0000
,
0100
0000
0000
0000
,
0010
0000
0000
0000
,
0100
0000
0000
0000
,
0002
0000
0000
0000
,
0003
0000
0000
0000
,
2000
0000
0000
0000
,
3000
0000
0000
0000
,
1001
0000
0000
0000
,
0100
0000
0000
0000
,
0010
0000
0000
0000
,
1000
0000
0000
0000
,
0001
0000
0000
0000
,
0100
0000
0000
0000
,
0010
0000
0000
0000
,
1000
0000
0000
0000
,
0110
0000
0100
0000
,
0100
0000
0000
0000
,
0010
0000
0010
0000
,
0010
0000
0000
0000
,
1000
0000
1000
0000
,
1000
0000
0000
0000
,
0001
0000
0001
0000
,
0001
0000
0000
0000
,
1001
0000
0000
0000
,
0001
0000
0000
0000
,
1000
0000
0000
0000
,
0001
0000
0000
0000
,
1000
0000
0000
0000
,
0100
0000
0000
0000
,
0010
0000
0000
0000
,
0100
0000
0000
0000
,
0110
0000
0000
0000
,
0010
0000
0000
0000
,
0100
0000
0000
0000
,
0010
0000
0000
0000
,
0001
0000
0000
0000
,
1000
0000
0000
0000
,
0010
0000
0000
0000
,
0100
0000
1001
0000
;

//---------------dance-single - C. Picardy----------------
#NOTES:
     dance-single:
     :
     Easy:
     4:
     0.316911,0.407652,0.310987,0.373185,0.000000,214.000000,184.000000,30.000000,36.000000,0.000000,0.000000,0.316911,0.407652,0.310987,0.373185,0.000000,214.000000,184.000000,30.000000,36.000000,0.000000,0.000000:
0000
0000
0000
0000
,
0000
0000
0000
0000
,
0000
0000
0000
0000
,
0010
0010
2002
0000
,
0000
0000
0000
3003
,
0100
0100
0010
0000
,
1000
1000
0001
0100
,
0010
0010
1000
0000
,
0001
0010
0100
1000
,
0001
0001
0100
0000
,
0010
0010
1000
0001
,
0200
0000
0000
0300
,
0010
0010
2002
3003
,
0001
1000
0100
0000
,
0010
0001
1000
0000
,
0010
0000
0100
0000
,
0001
1000
0001
1000
,
0010
0100
0001
0000
,
1000
0100
0010
0000
,
0001
0000
1000
0000
,
1001
0110
2002
3003
,
0100
0010
1000
0000
,
0100
0010
0001
0100
,
0010
0010
1000
1000
,
0001
0100
0010
1000
,
0220
0330
2002
3003
,
0220
0330
1000
0001
,
0200
0000
0320
0000
,
2030
0000
3001
0000
,
0010
0100
0010
0100
,
1001
0000
0100
0010
,
1000
0001
0100
0010
,
0220
0330
2002
3003
,
1000
0001
0100
0010
,
1000
0000
0001
0100
,
2002
0000
3003
0000
,
0001
0100
2002
3003
,
0001
1000
0100
1000
,
0010
1000
0001
0100
,
0010
1000
0001
0100
,
0001
0010
0220
0330
,
1000
0001
0100
0010
,
2000
0000
3001
0100
,
0220
0000
0330
0100
,
1001
0110
2002
3003
,
0100
0010
1000
0100
,
0010
0010
0010
0001
,
1000
0010
0100
0010
,
1000
0100
0010
0001
,
1000
1000
0001
0100
,
0010
0010
0010
0100
,
0002
1000
1003
0000
,
1100
0101
2200
3300
,
1001
0100
0010
1000
,
0001
0001
0001
0100
,
0110
1000
0001
0100
,
0010
1000
0100
0010
,
0011
1100
0011
0100
,
0010
1000
0100
0010
,
2002
0000
3003
0000
,
0011
1100
1001
0000
;

//---------------dance-single - C. Picardy----------------
#NOTES:
     dance-single:
     :
     Medium:
     6:
     0.414650,0.471340,0.404283,0.228057,0.000000,280.000000,241.000000,39.000000,22.000000,0.000000,0.000000,0.414650,0.471340,0.404283,0.228057,0.000000,280.000000,241.000000,39.000000,22.000000,0.000000,0.000000:
0000
0000
0000
0000
,
0000
0000
0000
0000
,
0000
0000
0000
0000
,
1001
0000
0110
0000
1000
2000
0000
0000
,
3002
0000
0000
0103
,
0001
1000
0100
0001
,
0100
0000
1000
0000
0001
0000
0001
0100
,
1000
0100
0001
1000
,
0100
0010
0010
0100
,
0011
1100
0001
1000
,
0010
0000
0100
0000
0001
0000
1000
0100
,
0020
0001
0100
0031
,
1100
0000
0101
0000
1000
0001
0000
0000
,
1000
0000
0100
0000
1000
0000
0010
0100
,
0001
1000
0100
0010
,
0002
0100
0010
1003
,
0001
0100
0010
0000
1000
0100
0010
0100
,
1000
0000
1000
0000
0001
0000
0001
0100
,
0001
0010
0100
1000
,
0020
0100
1000
0130
,
0010
0000
0100
0010
0100
0000
0001
0000
,
1001
0000
0100
0000
0010
0010
0000
0000
,
1000
0000
0001
0000
0100
0000
0100
0010
,
2000
0001
0100
3001
,
0100
0000
0010
0000
1000
0001
0100
0000
,
0202
0000
0303
0000
2200
0000
3300
1001
,
0000
1000
0001
0100
,
1001
0000
0000
0110
0000
0000
2002
0000
,
0000
0000
3003
0000
,
0001
0000
1000
0000
0100
0100
0000
0200
,
0000
0300
0010
0001
,
0100
0000
0101
0000
1000
0100
0000
2000
,
0000
0000
0000
0010
3010
0000
0100
0000
,
0001
0000
1000
0000
0010
0010
0000
0020
,
0000
0000
1030
0000
0001
0000
0010
0100
,
0020
0001
1000
0130
,
0011
0000
1100
0000
0001
1000
0000
0000
,
1001
0000
0110
0000
1000
0001
0000
2002
,
0000
0000
3003
0100
0000
0010
0100
0000
,
1001
0000
0110
0000
1000
1000
0000
0001
,
0000
0100
0000
0010
0010
0000
1000
0000
,
0101
0000
1100
0000
0001
0100
0000
0102
,
0000
0000
1000
0000
0103
0000
0010
1000
,
0200
0010
1000
0301
,
1100
0000
0101
0000
1001
1001
0000
0000
,
0100
0010
1000
0001
,
0010
0000
0100
0000
1000
0000
1000
0100
,
0001
0100
0010
0001
,
1000
0000
0010
0000
0100
0000
0001
0010
,
0100
0010
0001
0100
,
1000
0000
0100
0000
0010
0000
1000
0100
,
0020
0001
0100
0031
,
0110
0000
1001
0000
0100
0010
0000
0000
,
1001
0000
0110
0000
1000
0001
0000
0100
,
0000
0010
0000
1000
0000
0001
0000
1000
,
0100
0000
0110
0000
0001
0010
0000
0100
,
0000
1000
0000
0001
0000
0100
0000
0010
,
0100
0000
1001
0000
0100
0010
0000
1000
,
0000
0001
0000
0100
0000
0010
0100
0000
,
2001
0010
0100
3001
,
0110
0000
1001
0000
0110
0110
0000
0000
;

//---------------dance-single - C. Picardy----------------
#NOTES:
     dance-single:
     :
     Challenge:
     10:
     0.783391,0.790426,0.331720,0.487213,0.523495,529.000000,497.000000,32.000000,47.000000,28.000000,0.000000,0.783391,0.790426,0.331720,0.487213,0.523495,529.000000,497.000000,32.000000,47.000000,28.000000,0.000000:
0000
0000
0000
0000
,
0000
0000
0000
0000
,
0000
0000
0000
0000
,
M1M1
0000
11MM
0000
M1M1
11MM
0000
0000
,
2002
0000
0000
0000
0000
0000
0000
0000
0000
0000
0000
3003
M00M
0000
0000
0000
,
0022
0000
0000
0033
2200
0000
0000
3300
0010
0000
0100
0000
0001
0000
1000
0000
,
0000
0000
0220
0000
0000
0330
2002
0000
0000
3003
1000
0001
0000
1000
0001
0100
,
0010
0MM0
0110
0000
1000
0100
0010
0001
,
1000
0010
0100
0000
0001
0100
0010
0000
1000
0100
0010
0100
1000
0001
0100
0000
,
2002
0000
0000
3003
0220
0000
0000
0330
1000
0000
0100
0000
0001
0000
0100
0000
,
1000
0100
0010
0000
0001
0010
0100
0000
1000
0000
0100
0000
0010
0000
0001
0100
,
0020
0000
1000
0000
0001
0000
1000
0030
,
1000
0010
0100
0000
0001
0010
0100
0000
1100
0000
0202
0000
0000
0000
0303
0000
,
1000
0000
0001
0000
0100
0000
0001
0000
1000
0000
0001
0000
0010
0000
0100
0010
,
0001
0000
1000
0000
0100
0000
1000
0000
0010
0000
0100
0000
0001
0000
1000
0100
,
0010
0000
0100
0000
1000
0000
0001
0000
0100
0000
0010
0000
1000
0000
0001
0100
,
0010
0000
1000
0001
0000
1000
0100
0010
0001
0010
0100
1000
0100
0010
0001
0000
,
1MM1
0000
0000
0000
0110
0000
0000
0000
1000
0000
0001
0000
0100
0000
0010
1000
,
0001
0000
0010
0000
0100
0000
0010
0000
0001
0000
1000
0000
0100
0000
0010
0100
,
1000
0000
0001
0000
0100
0000
0010
1000
0001
0000
0010
0000
0100
0000
1000
0100
,
1000
0000
0001
0100
0000
0010
0100
0000
0001
0100
0001
0100
0010
1000
0010
1000
,
0001
0000
1000
0000
0010
0000
0100
0001
1000
0000
0100
0000
0010
0000
0001
0100
,
0010
0000
1000
0000
0001
0000
0010
0100
1000
0000
0001
0000
0100
0000
0010
1000
,
0100
0000
0010
0000
0001
0000
1000
0001
0100
0000
0010
0000
1000
0000
0001
0100
,
0010
0000
1000
0000
0100
0000
0010
0000
0100
0000
1000
0000
0001
0100
0001
0100
,
0002
0000
0200
0003
200M
0300
0M02
3000
,
M020
0000
0003
0000
200M
0000
0030
0000
00M2
0000
3000
0000
M103
0010
0100
0010
,
0100
0000
0010
1000
0010
1000
0010
0000
1000
0001
1000
0001
1000
0000
0000
0000
,
0100
0010
0100
0010
0001
1000
0001
1000
0100
0000
0000
0000
MMMM
0000
0000
0000
,
0011
0000
0001
0000
0100
0000
0010
0000
1000
0000
0001
0000
0010
0000
0100
1000
,
0100
0000
0020
0000
0001
0000
0031
0000
1000
0000
0100
0010
0001
0000
1000
0010
,
0100
0001
0001
1000
0001
0100
0001
1000
,
0001
0100
0001
0000
1000
0100
1000
0000
0001
0100
0010
1000
0100
0010
0001
0000
,
1001
1000
0100
1000
0010
0100
0001
1000
,
0100
0000
0001
0000
0100
0000
1000
0000
0010
0000
0100
0000
0001
0000
0010
0100
,
0010
0010
0001
0001
0100
0100
0010
0010
,
1000
0000
0100
0000
0010
0000
0001
0000
0010
0100
1000
0001
0100
0010
1000
0000
,
1001
0100
0010
0100
1000
0100
0001
0010
,
1000
0000
0020
0000
0100
0000
0130
0000
0010
0000
0001
1000
0100
0000
0010
0100
,
1000
0100
0001
0100
1000
0010
0001
0010
,
0100
0010
1000
0000
0001
0010
0100
0000
0010
0100
1000
0001
0100
0010
0100
0000
,
1001
0100
0001
0100
1000
0010
0100
0002
,
0010
0000
0010
0000
0013
0000
0100
0000
1000
0000
0010
0100
0010
0000
1000
0100
,
0020
0000
0001
0000
0130
0010
1000
0010
,
0001
0100
0001
0000
1000
0100
1000
0000
0001
0010
0001
0010
0100
1000
0100
0000
,
0022
0000
0000
0033
2200
0000
0000
3300
0001
0000
0100
0000
0010
0000
1000
0000
,
0000
0000
0220
0000
0000
0330
2002
0000
0000
3003
1000
0001
0000
0100
0010
1000
,
0001
0MM0
0110
0000
1000
0100
0010
0100
,
1000
0001
0100
0000
0010
1000
0001
0000
0010
0100
1000
0000
0001
0100
0010
0000
,
2020
0000
0000
3030
0022
0000
0000
0033
1000
0000
0001
0000
0100
0000
0010
0000
,
1000
0100
0010
0000
0010
0100
1000
0000
0001
0100
0010
0000
0100
0000
0001
0010
,
0200
0000
0010
0000
0001
0000
1000
0300
,
1000
0100
1000
0000
0001
0100
0001
0000
1100
0000
0202
0000
0000
0000
0303
0000
,
1000
0010
0100
0010
1000
0100
0001
0100
,
0100
0000
1000
0000
1000
0000
0020
0000
0000
0000
0130
0010
0000
0100
0001
0010
,
0100
0010
0001
0100
1000
0100
0010
1000
,
1000
0010
0100
0000
0001
0010
0100
0000
0010
0100
1000
0100
0010
0001
1000
0000
,
1MM1
0100
1000
0100
0001
0010
1000
0010
,
0001
0000
0100
0000
1000
0000
0100
0000
0001
0100
0010
0000
1000
0000
0100
1000
,
0020
0000
1000
0000
0001
0000
1000
0030
,
0010
1000
0100
0000
0010
0001
0100
0000
1001
0000
0220
0000
0000
0000
0000
0000
,
0330
0000
0000
0000
;

//---------------dance-single - C. Picardy----------------
#NOTES:
     dance-single:
     :
     Hard:
     8:
     0.558296,0.565608,0.487213,0.176226,0.036282,377.000000,330.000000,47.000000,17.000000,0.000000,0.000000,0.558296,0.565608,0.487213,0.176226,0.036282,377.000000,330.000000,47.000000,17.000000,0.000000,0.000000:
// measure 0
0000
0000
0000
0000
,  // measure 1
0000
0000
0000
0000
,  // measure 2
0000
0000
0000
0000
0000
0000
0000
1001
,  // measure 3
0000
0001
0010
0100
1000
1001
0000
0000
,  // measure 4
0200
0000
0000
0310
,  // measure 5
1010
0000
0101
0000
1000
0100
0010
0001
,  // measure 6
0000
1000
0000
0001
0000
1000
0001
0100
,  // measure 7
0010
0000
1001
0000
0010
0100
1000
0001
,  // measure 8
0000
0000
0101
0000
0000
0000
1100
0000
0000
0000
0010
0000
0100
0000
0010
0100
,  // measure 9
0010
0000
1001
0000
1000
0001
0100
0010
,  // measure 10
0000
1000
0000
1001
0000
0001
1000
0100
,  // measure 11
0020
0001
1000
0130
,  // measure 12
0101
0000
1100
0000
1001
1001
0000
0000
,  // measure 13
0010
0000
1001
0000
0100
0000
0010
1000
,  // measure 14
0010
1000
0100
1000
0100
1000
0001
0100
,  // measure 15
0020
0000
1000
0000
0130
0000
0001
0010
,  // measure 16
0100
0000
0010
0100
0000
0010
0100
0000
2000
0000
0000
0000
3001
0000
0100
0000
,  // measure 17
0010
0000
1001
0000
0100
0000
0010
1000
,  // measure 18
0100
0010
0001
0100
0010
0100
0001
0010
,  // measure 19
0200
0010
1000
0310
,  // measure 20
0001
0000
0000
0010
0000
0000
0100
0000
1000
0000
0001
0000
0100
0000
0010
1000
,  // measure 21
0001
0000
0110
0000
1000
0001
0000
1000
,  // measure 22
0100
0000
1000
0000
0010
0100
0001
0100
,  // measure 23
0010
0000
0010
0000
1000
0000
0001
1000
,  // measure 24
0010
0100
0010
1000
0100
0010
0001
1000
,  // measure 25
0200
0000
0010
0000
2300
0000
0000
0010
,  // measure 26
3010
0000
0100
0000
0001
0010
0100
0000
,  // measure 27
2002
0000
3003
0220
0000
0330
2002
0000
,  // measure 28
0000
0000
3003
0000
,  // measure 29
0101
0000
1100
0000
0001
0100
0010
1000
,  // measure 30
0100
0000
1001
0000
0010
0100
0010
0100
,  // measure 31
1000
0000
0101
0000
1000
0100
0010
0100
,  // measure 32
1000
0000
0001
0100
0100
0000
1001
0000
,  // measure 33
0110
0000
1001
0000
0100
0010
1000
0001
,  // measure 34
0010
0000
0100
0010
0001
0010
0100
1000
,  // measure 35
0020
0100
0001
1030
,  // measure 36
0001
0100
0010
1000
0001
1001
0000
0000
,  // measure 37
1010
0000
0011
0000
1000
0100
1000
0100
,  // measure 38
0010
0001
0010
0001
1000
0100
0010
0100
,  // measure 39
1000
0100
0010
0100
1000
0001
0100
0001
,  // measure 40
0010
0001
0100
0010
0010
0000
0100
0000
,  // measure 41
1001
0000
0110
0000
1000
0010
0100
0010
,  // measure 42
1000
0100
0001
0100
1000
0100
0001
0100
,  // measure 43
2000
0010
0001
3100
,  // measure 44
0101
0000
1100
0000
0001
1001
0000
0000
,  // measure 45
0110
0000
1001
0000
1000
0001
0100
0010
,  // measure 46
0000
1000
0000
0001
0000
1000
0100
0010
,  // measure 47
0001
0000
1100
0000
0001
0010
0100
1000
,  // measure 48
0000
0010
0000
0100
0000
0001
0100
0010
,  // measure 49
1000
0000
0110
0000
0001
0100
0010
1000
,  // measure 50
0000
0100
0000
0010
0000
0001
1000
0100
,  // measure 51
0020
0001
1000
0130
,  // measure 52
0011
0000
1010
0000
0001
0101
0000
0000
,  // measure 53
1001
0000
0110
0000
1000
0001
0100
0001
,  // measure 54
1000
0000
0001
0000
0010
0000
0001
0000
1000
0000
0100
0000
0010
0000
0100
0010
,  // measure 55
0100
0010
0001
0010
0100
0010
0001
0100
,  // measure 56
0010
0000
0100
0000
0001
0000
0100
0000
0010
0000
1000
0000
0001
0000
1000
0001
,  // measure 57
1000
0100
0010
0100
1000
0010
0100
0010
,  // measure 58
1000
0001
0100
0010
1000
0001
0010
0100
,  // measure 59
0020
0001
1000
0130
,  // measure 60
1001
0000
0110
0000
1001
1001
0000
0000
;
