#TITLE:Ooh aah...Just a Little Bit;
#SUBTITLE:;
#ARTIST:Gina G;
#TITLETRANSLIT:;
#SUBTITLETRANSLIT:;
#ARTISTTRANSLIT:;
#GENRE:;
#CREDIT:;
#BANNER:oohaahjustallitlebitbn.png;
#BACKGROUND:oohaahjustallitlebitbg.png;
#LYRICSPATH:;
#CDTITLE:;
#MUSIC:oohaahjustalittlebit.ogg;
#OFFSET:-0.615737;
#SAMPLESTART:51.929928;
#SAMPLELENGTH:12.000000;
#SELECTABLE:YES;
#BPMS:0.000000=130.979996
;
#STOPS:112.000000=0.015000
;
#BGCHANGES:14.500=oohahhpart1.mp4=1.000=1=0=1=SongBgWithMovieViz==CrossFade==,
24.000=oohahhpart1.mp4=1.000=1=0=1===CrossFade==,
143.500=oohahhpart2.mp4=1.000=0=0=0=StretchNoLoop====,
99999=-nosongbg-=1.000=0=0=0 // don't automatically add -songbackground-
;
#KEYSOUNDS:;
#ATTACKS:;

//---------------dance-single - C. Picardy----------------
#NOTES:
     dance-single:
     :
     Beginner:
     1:
     0.087775,0.130943,0.070508,0.000000,0.000000,61.000000,54.000000,7.000000,0.000000,0.000000,0.000000,0.087775,0.130943,0.070508,0.000000,0.000000,61.000000,54.000000,7.000000,0.000000,0.000000,0.000000:
0000
0000
0000
0000
,
0000
0000
0000
0000
,
0000
0000
0000
0000
,
0000
0000
0000
0000
,
0001
0000
0000
0000
,
1000
0000
0000
0000
,
0001
0000
0000
0000
,
1000
0000
0000
0000
,
0010
0000
0000
0000
,
0100
0000
0000
0000
,
0010
0000
0000
0000
,
0100
0000
0000
0000
,
1001
0000
0000
0000
,
1000
0000
0000
0000
,
1000
0000
0000
0000
,
0001
0000
0000
0000
,
0010
0000
0000
0000
,
0010
0000
0000
0000
,
0100
0000
0000
0000
,
0100
0000
0000
0000
,
1001
0000
0000
0000
,
0010
0000
0000
0000
,
0100
0000
0000
0000
,
0010
0000
0000
0000
,
0001
0000
0000
0000
,
1000
0000
0000
0000
,
0001
0000
0000
0000
,
1000
0000
0000
0000
,
0010
0000
0010
0000
,
0010
0000
0000
0000
,
0100
0000
0100
0000
,
0100
0000
0000
0000
,
1000
0000
1000
0000
,
1000
0000
0000
0000
,
0001
0000
0001
0000
,
0001
0000
0000
0000
,
0100
0000
0000
0000
,
0110
0000
0000
0000
,
1000
0000
0000
0000
,
1001
0000
0000
0000
,
0001
0000
0000
0000
,
1001
0000
0000
0000
,
0010
0000
0000
0000
,
0110
0000
0000
0000
,
0001
0000
0001
0000
,
0000
0000
0000
0000
,
1000
0000
1000
0000
,
0000
0000
0000
0000
,
0100
0000
0100
0000
,
0000
0000
0000
0000
,
0010
0000
0010
0000
,
0010
0000
0000
0000
,
0110
0000
0000
0000
;

//---------------dance-single - C. Picardy----------------
#NOTES:
     dance-single:
     :
     Easy:
     2:
     0.187061,0.261886,0.110798,0.000000,0.000000,130.000000,119.000000,11.000000,0.000000,0.000000,0.000000,0.187061,0.261886,0.110798,0.000000,0.000000,130.000000,119.000000,11.000000,0.000000,0.000000,0.000000:
0000
0000
0000
0000
,
0000
0000
0000
0000
,
0000
0000
0000
0000
,
0000
0000
0000
0000
,
1000
0000
0001
0000
,
1000
0000
0100
0000
,
0010
0000
0100
0000
,
0010
0000
0100
0000
,
1000
1000
1000
0000
,
0001
0001
0001
0000
,
0100
0100
0100
0000
,
0010
0010
0010
0000
,
1000
0000
0001
0000
,
0100
0000
0010
0000
,
1001
0000
0100
0000
,
1001
0000
0000
0000
,
0001
0000
0100
0000
,
0001
0000
1000
0000
,
0010
0000
0100
0000
,
0110
0000
0000
0000
,
1000
0100
0100
0010
,
0001
0001
0000
1000
,
0001
0000
0100
0000
,
0010
0000
1000
0000
,
1001
0000
0100
0000
,
0010
0000
1000
0000
,
0001
0000
0010
0000
,
0100
0000
0010
0010
,
1001
0000
0100
0010
,
1001
0000
0010
0100
,
1001
0000
0100
0000
,
0010
0000
1000
0000
,
0110
0000
1000
0001
,
0110
0000
0001
1000
,
0110
0000
0100
0000
,
0001
0000
1000
0000
,
0100
0100
0100
0000
,
0010
0010
0010
0000
,
0001
0001
0001
0000
,
1000
0000
0100
0000
,
0010
0001
0010
0000
,
1000
0100
1000
0000
,
0001
0100
0001
0000
,
1000
0000
0010
0000
,
0100
0000
0001
0000
,
1000
0000
0100
0100
,
0010
0000
0001
0000
,
1000
0001
1000
0001
,
0100
0000
0010
0000
,
1000
0000
0010
0010
,
0100
0000
0001
0000
,
0100
0010
0100
0010
,
1001
0000
0000
0000
;

//---------------dance-single - C. Picardy----------------
#NOTES:
     dance-single:
     :
     Medium:
     5:
     0.332393,0.373691,0.251813,0.221595,0.000000,231.000000,206.000000,25.000000,22.000000,0.000000,0.000000,0.332393,0.373691,0.251813,0.221595,0.000000,231.000000,206.000000,25.000000,22.000000,0.000000,0.000000:
0000
0000
0000
0000
,
0000
0000
0000
0000
,
0000
0000
0000
0000
,
0000
0000
0000
0000
,
0001
0010
0001
0100
,
0010
1000
0200
0300
,
0010
0001
1000
0100
,
1000
0010
0200
0300
,
0001
0100
1000
0100
,
0010
1000
0002
0003
,
1000
0100
0010
0001
,
0100
0010
2000
3000
,
0001
0010
0010
0001
,
0100
0010
1000
0001
,
2200
3300
0001
0010
,
2002
0000
3003
0000
0100
0000
0010
0100
,
0010
1000
0001
1000
,
0100
0100
0010
0001
,
2000
0000
3010
0100
,
0001
0000
1000
0000
0010
0000
0100
0010
,
0100
0010
1000
0100
,
0010
0001
0010
0000
0100
0000
1000
0100
,
0020
0001
0130
1000
,
0010
0000
0100
0000
0001
0000
0100
0010
,
0100
0001
1000
0010
,
0100
0000
0001
1000
0100
0000
0010
0000
,
0001
0000
1000
0000
0100
0000
0010
0001
,
1000
0002
2000
3003
,
0100
0000
1001
0000
1000
0100
0010
0000
,
0010
0000
1001
0000
0001
0100
0010
0000
,
1000
0000
0110
0000
1000
0001
0100
0000
,
0020
1000
0100
0130
,
0001
0000
1100
0000
0010
0100
0010
0000
,
1000
0000
0101
0000
0100
0010
0100
0000
,
0010
0000
0101
0000
1000
0001
1000
0000
,
0200
1000
0010
0310
,
0102
0000
1003
0000
0100
0010
0001
0000
,
1020
0000
1030
0000
0001
0100
0010
0000
,
1002
0000
0013
0000
0100
0010
0100
0000
,
0010
0100
1000
0010
,
2010
0000
3100
0000
0010
0100
0010
0000
,
0012
0000
0103
0000
0010
0100
0010
0000
,
2001
0000
3100
0000
1000
0001
1000
0000
,
0010
0010
1010
0101
,
0010
0100
1000
0001
,
0100
0000
0010
0000
1000
0010
1000
0000
,
0001
0010
0100
0010
,
0011
1001
0101
0110
,
1000
0001
0010
0100
,
1000
0000
0001
0000
0010
0100
1000
0000
,
0001
0100
0010
1000
,
1100
0011
0101
0110
,
2002
0000
0000
0000
,
3003
0000
0000
0000
;

//---------------dance-single - C. Picardy----------------
#NOTES:
     dance-single:
     :
     Hard:
     7:
     0.450386,0.453767,0.181305,0.130943,0.040290,313.000000,295.000000,18.000000,13.000000,0.000000,0.000000,0.450386,0.453767,0.181305,0.130943,0.040290,313.000000,295.000000,18.000000,13.000000,0.000000,0.000000:
// measure 0
0000
0000
0000
0000
,  // measure 1
0000
0000
0000
0000
,  // measure 2
0000
0000
0000
0000
,  // measure 3
1000
0010
0001
1001
,  // measure 4
0001
0100
0001
0100
0010
0100
0010
0100
,  // measure 5
0010
1000
0010
1000
0200
0000
0310
0000
,  // measure 6
0001
0010
0001
0010
0100
0010
0100
0010
,  // measure 7
0100
1000
0100
1000
0020
0000
0130
0000
,  // measure 8
0001
0100
0001
0100
0010
0100
0010
0100
,  // measure 9
0001
0010
0001
0010
0200
0000
1300
0000
,  // measure 10
0010
1000
0010
1000
0100
1000
0100
1000
,  // measure 11
0001
0010
0001
0010
0100
0000
1100
0000
,  // measure 12
0011
0000
1000
0100
0001
0000
0001
0100
,  // measure 13
1000
0000
0010
0000
0001
0000
0010
1000
,  // measure 14
0010
0000
0100
0000
0001
0000
0001
0100
,  // measure 15
1000
0000
0100
0000
0010
0000
1000
0001
,  // measure 16
0100
0000
0010
0010
1000
0000
0001
0001
,  // measure 17
0100
0000
0100
0000
0010
0000
1000
0100
,  // measure 18
0020
0000
0001
0000
0100
0000
0031
1000
,  // measure 19
0200
0000
1000
0000
0310
0000
0001
1000
,  // measure 20
1001
0000
0010
1000
0100
0000
0010
0001
,  // measure 21
0100
0010
0100
0000
0101
0000
1000
0100
,  // measure 22
0010
0000
0001
0010
0100
1000
0100
0010
,  // measure 23
0001
1000
0100
0010
,  // measure 24
0011
0000
1000
0100
0001
0100
1000
0100
,  // measure 25
0010
0000
0001
0100
1000
0000
0100
0000
,  // measure 26
0010
0000
1000
0010
1000
0000
0001
0001
,  // measure 27
0100
0010
1010
0101
,  // measure 28
2000
0000
3100
0000
1000
0100
0010
0100
,  // measure 29
2000
0000
3010
0000
0100
0100
0001
0000
,  // measure 30
0200
0000
0301
0000
0100
0001
0010
0001
,  // measure 31
0100
0000
0010
0000
1000
0100
0001
0000
,  // measure 32
2000
0000
3010
0000
0100
0010
0010
0100
,  // measure 33
0020
0000
1030
0000
0001
0100
1000
0000
,  // measure 34
0020
0000
1030
0000
0001
0100
0100
0001
,  // measure 35
0100
0010
0101
1100
,  // measure 36
0001
0000
0000
0000
0011
0000
0000
0000
0010
0000
0001
0010
0000
0001
0010
0000
,  // measure 37
0100
0000
1100
0000
0010
0010
0001
0000
,  // measure 38
0100
0000
0000
0000
0110
0000
0000
0000
0100
0000
0010
0100
0000
0010
0100
0000
,  // measure 39
0001
0000
1000
0000
0100
0010
0001
0010
,  // measure 40
0100
0000
0000
0000
1001
0000
0000
0000
1000
0000
0001
1000
0000
0001
1000
0000
,  // measure 41
0100
0000
1001
0000
0010
0010
0100
0000
,  // measure 42
0001
0000
0000
0000
0110
0000
0000
0000
0001
0000
1000
0001
0000
0001
1000
0000
,  // measure 43
0001
0000
1000
0000
0100
0010
0001
0100
,  // measure 44
0010
0100
0001
0100
0010
0100
0001
0100
,  // measure 45
0010
1000
0100
1000
0010
0010
0100
0000
,  // measure 46
0001
0010
0100
0010
0001
0010
0100
0010
,  // measure 47
0001
1000
0100
1001
,  // measure 48
1000
0100
0010
0100
1000
0100
0010
0100
,  // measure 49
1000
0010
0100
0010
1000
1000
0001
0000
,  // measure 50
0010
0001
0100
0001
0010
0001
0100
0010
,  // measure 51
1000
0100
0001
0010
,  // measure 52
2200
0000
0000
0000
,  // measure 53
3300
0000
0000
0000
;

//---------------dance-single - C. Picardy----------------
#NOTES:
     dance-single:
     :
     Challenge:
     9:
     0.617302,0.664157,0.412973,0.725222,0.569098,429.000000,388.000000,41.000000,72.000000,0.000000,0.000000,0.617302,0.664157,0.412973,0.725222,0.569098,429.000000,388.000000,41.000000,72.000000,0.000000,0.000000:
0000
0000
0000
0000
,
0000
0000
0000
0000
,
0000
0000
0000
0000
,
1000
0001
0000
1000
0001
0100
0000
0001
1000
0100
0010
0001
0010
0001
0010
0000
,
0011
0000
0010
0000
0100
0000
1000
0000
0001
0000
0100
0010
0000
1000
0010
1000
,
0010
0000
0100
0000
0001
0000
0100
0000
0010
0000
1000
0200
0000
0000
0000
0000
,
0310
0000
0001
0000
0100
0000
0001
0000
0010
0000
0100
1000
0000
1000
0100
0010
,
0001
0000
0001
0000
0010
0000
0010
0000
0100
0000
1000
0002
0000
0000
0000
0000
,
0103
0000
0010
0000
1000
0000
0010
0000
0100
0000
0001
1000
0000
0001
0010
0100
,
1000
0000
0100
0000
0010
0000
0001
0000
0100
0000
0010
2000
0000
0000
0000
0000
,
3001
0000
0100
0000
1000
0000
0100
0000
0001
0000
1000
0100
0000
0010
0100
0010
,
0100
0000
1000
0000
0001
0000
0100
0000
0010
0000
1000
0001
1000
0001
1000
0000
,
0101
0000
0100
0100
0020
0000
1030
1000
,
0001
0100
0000
0002
0000
0000
0000
0000
0003
0000
1000
0000
0100
0000
0001
0100
,
0000
0000
0010
0000
0001
0000
0100
0000
0000
0000
0001
0000
0010
0000
0100
1000
,
0000
0000
0001
1000
0001
0000
0100
0000
0001
0100
0001
0000
0100
0001
0100
0000
,
0101
0000
0010
1000
0200
0000
0310
0010
,
0001
0000
0001
0020
0000
0000
0000
0000
0030
0000
0100
0000
0100
0000
1000
0010
,
0000
0000
0100
0000
0010
0000
0001
0000
0000
0000
0100
0000
0000
0010
0000
0000
,
1010
0000
0000
0000
0001
0000
0001
0000
1000
0000
0001
0100
0001
0100
0001
0100
,
0001
0000
0001
0100
2000
0000
3100
0010
,
1000
0001
0000
1000
0000
0000
0100
0000
0100
0000
0010
0000
0001
0000
0100
0010
,
0000
0000
1000
0000
1000
0000
0001
1000
0000
0000
0100
0000
0100
0000
0110
0000
,
0000
0000
0001
0000
1000
0000
0000
0000
1000
0000
1000
0000
1000
0100
1000
0000
,
0001
0000
0000
0000
0100
0000
0100
0000
0010
0000
0000
1000
0000
0000
0001
0000
,
1000
0000
0000
0010
0000
0000
0100
0000
0101
0000
0000
0000
1010
0000
0000
0000
,
0100
0000
0000
0000
0010
0000
0001
0100
0000
0000
0010
0000
1000
0000
0001
0000
,
0100
0010
0000
0100
0010
0100
0000
0001
0100
0001
1000
0001
1000
0100
0010
0000
,
0022
0000
0000
0033
2200
0000
0000
3300
0010
0000
0010
0001
0000
0001
0100
0000
,
0220
0000
0000
0330
2002
0000
0000
3003
1000
0100
0010
0000
0010
0000
0000
0000
,
2200
0000
0000
3300
0220
0000
0000
0330
0001
0000
0001
0010
0000
0010
0100
0000
,
1000
0100
0000
0010
0000
0001
0000
1000
0000
1000
0000
0100
0000
0000
0010
0000
,
0022
0000
0000
0033
2200
0000
0000
3300
0001
0000
0001
0100
0000
0100
0010
0000
,
2020
0000
0000
3030
0202
0000
0000
0303
1000
0100
1000
0000
0100
0000
0000
0000
,
0022
0000
0000
0033
0202
0000
0000
0303
0010
0000
0010
1000
0000
1000
0001
0000
,
1000
0100
0000
1000
0000
0001
0000
0100
0000
0100
0000
0001
0100
0001
0100
0000
,
0220
0000
0000
0330
2002
0000
0000
3003
0100
0000
0100
0010
0000
0010
0100
0000
,
2002
0000
0000
3003
0220
0000
0000
0330
0001
0010
0001
0000
0011
0000
0000
0000
,
2020
0000
0000
3030
0202
0000
0000
0303
1000
0000
1000
0001
0000
0001
0010
0000
,
0100
1000
0000
0001
0000
0010
0000
0001
0000
0100
0000
1000
0000
0000
0100
0000
,
0220
0000
0000
0330
0202
0000
0000
0303
1000
0000
1000
0100
0000
0100
1000
0000
,
2020
0000
0000
3030
0022
0000
0000
0033
0100
0010
0100
0000
0110
0000
0000
0000
,
2002
0000
0000
3003
0220
0000
0000
0330
1000
0000
1000
0001
0000
0001
1000
0100
,
0010
0001
0000
1000
0000
0100
0000
0010
0000
0001
0000
1000
0100
1000
0001
0000
,
1001
0000
1000
0000
0100
0000
0010
0000
0001
0000
0010
0001
0000
0010
0001
0010
,
0100
0000
0010
0000
0001
0000
0100
0000
0010
1000
0010
0000
1010
0000
0000
0000
,
0001
0000
0100
0000
1000
0000
0100
0000
0001
0000
0001
0100
0000
0100
0010
0000
,
2020
0000
0000
3030
0202
0000
0000
0303
2002
0000
0000
3003
2200
0000
0000
3300
,
0100
0000
0010
0000
1000
0000
0010
0000
0001
0000
0100
1000
0000
1000
0100
0010
,
0100
0000
0001
0000
0010
0000
0100
0000
0010
0001
0010
0000
0011
0000
0000
0000
,
0001
0000
0010
0000
1000
0000
0010
0000
0001
0000
1000
0100
0000
0010
0001
0010
,
0002
0000
2000
0003
0200
3000
2000
0300
0002
3000
0200
0003
0001
1300
0001
0000
,
2200
0000
0000
3300
;
