#TITLE:Only You;
#SUBTITLE:;
#ARTIST:Scatman John;
#TITLETRANSLIT:;
#SUBTITLETRANSLIT:;
#ARTISTTRANSLIT:;
#GENRE:;
#CREDIT:;
#BANNER:onlyyoubn.png;
#BACKGROUND:onlyyoubg.png;
#LYRICSPATH:;
#CDTITLE:;
#MUSIC:onlyyou.ogg;
#OFFSET:-0.003356;
#SAMPLESTART:12.569981;
#SAMPLELENGTH:18.000010;
#SELECTABLE:YES;
#BPMS:0.000000=144.000000
;
#STOPS:223.000000=0.035000
;
#BGCHANGES:16.000=4Kvalentine2.mp4=1.000=1=0=1=SongBgWithMovieViz==CrossFade==,
32.000=4Kvalentine2.mp4=1.000=0=0=0=StretchNoLoop==CrossFade_Fastest==,
64.000=rainbowparticle.mp4=1.000=0=0=0=StretchNoLoop==CrossFade_Fastest==,
96.000=colorfulwave.mp4=1.000=0=0=0=StretchNoLoop==CrossFade_Fastest==,
128.000=rainbowparticle.mp4=1.000=0=0=0=StretchNoLoop==CrossFade_Fastest==,
160.000=flash=1.600=0=0=1=====,
160.250=4Kvalentine2.mp4=1.000=0=0=0=StretchNoLoop====,
188.000=4Kvalentine2.mp4=1.000=1=0=1=SongBgWithMovieViz==CrossFade==,
192.000=rainbowparticle.mp4=1.000=0=0=0=StretchNoLoop==CrossFade_Fastest==,
208.000=colorfulwave.mp4=1.000=0=0=0=StretchNoLoop==CrossFade_Fastest==,
224.000=4Kvalentine2.mp4=1.000=0=0=0=StretchNoLoop==CrossFade_Fastest==,
236.000=4Kvalentine2.mp4=1.000=1=0=1=SongBgWithMovieViz==CrossFade==,
240.000=4Kvalentine2.mp4=1.000=0=0=1===CrossFade_Fastest==,
252.000=4Kvalentine2.mp4=1.000=1=0=1=SongBgWithMovieViz==CrossFade==,
256.000=colorfulwave.mp4=1.000=0=0=0=StretchNoLoop==CrossFade_Fastest==,
272.000=rainbowparticle.mp4=1.000=0=0=0=StretchNoLoop==CrossFade_Fastest==,
284.000=flash=1.600=0=0=1=====,
284.250=onlyyoubg.png=1.000=0=0=1=====,
99999=-nosongbg-=1.000=0=0=0 // don't automatically add -songbackground-
;
#KEYSOUNDS:;
#ATTACKS:;

//---------------dance-single - C. Picardy----------------
#NOTES:
     dance-single:
     :
     Beginner:
     1:
     0.106355,0.178174,0.083650,0.000000,0.000000,89.000000,79.000000,10.000000,0.000000,0.000000,0.000000,0.106355,0.178174,0.083650,0.000000,0.000000,89.000000,79.000000,10.000000,0.000000,0.000000,0.000000:
// measure 0
0000
0000
0000
0000
,  // measure 1
0000
0000
0000
0000
,  // measure 2
0000
0000
0000
0000
,  // measure 3
0000
0000
0000
0000
,  // measure 4
0001
0000
0000
0000
,  // measure 5
1000
0000
0000
0000
,  // measure 6
0010
0000
0000
0000
,  // measure 7
0100
0000
0000
0000
,  // measure 8
0010
0000
0000
0000
,  // measure 9
0010
0000
0000
0000
,  // measure 10
0100
0000
0000
0000
,  // measure 11
0100
0000
0000
0000
,  // measure 12
0001
0000
0000
0000
,  // measure 13
0001
0000
0000
0000
,  // measure 14
1000
0000
0000
0000
,  // measure 15
1000
0000
0000
0000
,  // measure 16
0100
0000
0100
0000
,  // measure 17
0100
0000
0000
0000
,  // measure 18
0010
0000
0010
0000
,  // measure 19
0010
0000
0000
0000
,  // measure 20
1000
0000
1000
0000
,  // measure 21
1000
0000
0000
0000
,  // measure 22
0001
0000
0001
0000
,  // measure 23
0001
0000
0000
0000
,  // measure 24
1001
0000
0000
0000
,  // measure 25
0100
0000
0000
0000
,  // measure 26
0010
0000
0000
0000
,  // measure 27
1000
0000
0000
0000
,  // measure 28
0001
0000
0000
0000
,  // measure 29
0010
0000
0000
0000
,  // measure 30
0100
0000
0000
0000
,  // measure 31
1000
0000
0000
0000
,  // measure 32
1001
0000
0000
0000
,  // measure 33
0010
0000
0000
0000
,  // measure 34
1001
0000
0000
0000
,  // measure 35
0100
0000
0000
0000
,  // measure 36
0010
0000
0000
0000
,  // measure 37
1000
0000
0000
0000
,  // measure 38
0001
0000
0000
0000
,  // measure 39
0100
0000
0000
0000
,  // measure 40
0010
0000
0000
0000
,  // measure 41
0100
0000
0000
0000
,  // measure 42
1000
0000
0000
0000
,  // measure 43
0001
0000
0000
0000
,  // measure 44
0010
0000
0000
0000
,  // measure 45
0001
0000
0000
0000
,  // measure 46
1000
0000
0000
0000
,  // measure 47
0100
0000
0000
0000
,  // measure 48
0010
0000
0010
0000
,  // measure 49
0010
0000
0000
0000
,  // measure 50
0001
0000
0001
0000
,  // measure 51
0001
0000
0000
0000
,  // measure 52
1000
0000
1000
0000
,  // measure 53
1000
0000
0000
0000
,  // measure 54
0100
0000
0100
0000
,  // measure 55
0100
0000
0000
0000
,  // measure 56
1001
0000
0000
0000
,  // measure 57
1001
0000
0000
0000
,  // measure 58
1001
0000
0000
0000
,  // measure 59
0000
0000
0000
0000
,  // measure 60
0110
0000
0000
0000
,  // measure 61
0110
0000
0000
0000
,  // measure 62
0110
0000
0000
0000
,  // measure 63
0001
0000
0000
0000
,  // measure 64
1000
0000
0000
0000
,  // measure 65
0100
0000
0000
0000
,  // measure 66
0010
0000
0000
0000
,  // measure 67
0001
0000
0001
0000
,  // measure 68
1000
0000
1000
0000
,  // measure 69
0010
0000
0010
0000
,  // measure 70
0100
0000
0100
0000
,  // measure 71
1001
0000
0000
0000
;

//---------------dance-single - C. Picardy----------------
#NOTES:
     dance-single:
     :
     Easy:
     3:
     0.276044,0.296957,0.158935,0.016730,0.000000,231.000000,212.000000,19.000000,2.000000,0.000000,0.000000,0.276044,0.296957,0.158935,0.016730,0.000000,231.000000,212.000000,19.000000,2.000000,0.000000,0.000000:
0000
0000
0000
0000
,
0000
0000
0000
0000
,
0000
0000
0000
0000
,
0000
0000
0000
0000
,
1000
0000
1000
0000
,
0001
0000
0001
0000
,
0100
0000
0100
0000
,
0010
0000
0010
0000
,
1001
0000
0100
0000
,
0110
0000
1000
0000
,
1001
0000
0010
0010
,
0010
0000
0100
0000
,
1001
0000
0010
0000
,
1001
0000
0100
0000
,
0110
0000
1000
1000
,
1000
0000
0000
0000
,
0010
0100
0010
0000
,
1000
0001
1000
0000
,
0100
0010
0100
0000
,
0001
0010
0001
0000
,
1000
0100
0010
0000
,
0001
0100
0010
0000
,
1000
0010
0100
0000
,
0001
0010
0100
0000
,
1000
0001
1000
0001
,
0100
0010
0100
0000
,
0010
0100
0010
1000
,
0001
1000
0100
0000
,
0010
0001
0100
0010
,
1000
0100
0010
0000
,
0001
0010
0100
1000
,
0220
0000
0330
0000
,
0010
0010
0010
1000
,
0100
0100
0100
0000
,
0001
0001
0001
1000
,
0010
0010
0010
0000
,
0100
0001
1000
0001
,
1000
0100
0010
0000
,
0001
0100
0001
0100
,
0010
1000
0100
0010
,
1001
0000
0010
0100
,
1001
0000
0100
0010
,
1001
0000
0100
0100
,
0010
0000
1000
0001
,
0110
0000
0001
1000
,
0110
0000
1000
0001
,
0110
0000
0100
0001
,
1000
0000
0010
0100
,
0001
0001
0001
1000
,
0100
0100
0100
1000
,
0010
0010
0010
0100
,
0001
0001
0001
1000
,
0100
0010
0100
0000
,
1000
0001
1000
0000
,
0001
0100
0010
0000
,
1000
0100
0010
0001
,
1000
0010
0110
0000
,
0001
0010
0110
0000
,
1000
1000
0001
0001
,
0100
0010
0100
0010
,
1000
0001
1001
0000
,
0010
0100
1001
0000
,
0100
0010
1000
0001
,
1000
1000
0001
0001
,
0100
0010
0100
0010
,
1000
0100
1000
0100
,
0010
0001
0010
0001
,
0100
0000
1001
0000
,
0010
0100
0010
0100
,
0001
1000
0001
1000
,
0100
0010
0001
1000
,
0110
0000
0000
0000
;

//---------------dance-single - C. Picardy----------------
#NOTES:
     dance-single:
     :
     Medium:
     6:
     0.358499,0.447788,0.133840,0.117110,0.033460,300.000000,284.000000,16.000000,14.000000,0.000000,0.000000,0.358499,0.447788,0.133840,0.117110,0.033460,300.000000,284.000000,16.000000,14.000000,0.000000,0.000000:
0000
0000
0000
0000
,
0000
0000
0000
0000
,
0000
0000
0000
0000
,
0000
0000
0000
0000
,
0001
0000
1000
0000
0010
0000
1000
0010
,
0000
0000
0100
0000
0001
0000
1000
0001
,
0000
0000
0010
0000
0100
0000
0010
0001
,
0000
0000
1000
0000
0100
0000
0010
0001
,
0010
0000
0100
0000
1000
0000
0010
1000
,
0010
0000
0100
0000
0001
0000
1000
0001
,
2000
0100
3100
0010
,
0001
0000
1000
0000
0010
0000
0100
0010
,
1000
0000
0100
0000
0010
0000
0001
0010
,
0100
0000
0010
0000
0001
0000
1000
0010
,
0200
0001
0301
1000
,
0100
0010
0001
1000
,
0010
0000
0000
0010
0000
0000
0010
0000
0000
0000
0000
0000
0100
0000
0000
0000
,
0001
0000
0000
0001
0000
0000
0001
0000
0000
0000
0000
0000
1000
0000
0000
0000
,
0100
0000
0000
0100
0000
0000
0100
0000
0000
0000
0000
0000
0100
0000
0000
0000
,
1000
0000
0000
1000
0000
0000
1000
0000
0000
0000
0000
0000
0001
0000
0000
0000
,
0100
0000
0010
0000
0100
0000
0001
0100
,
0010
0000
1000
0000
0010
0000
1000
0100
,
0010
0000
0001
0000
0010
0000
0001
0010
,
0100
1000
0220
0330
,
0001
1000
0001
1000
,
0100
0010
0000
0010
0100
0000
0000
0000
,
0010
0100
0010
0100
,
1000
0001
0000
0001
1000
0000
0000
0000
,
0001
0100
0001
0100
,
0010
0000
1000
0000
0010
0010
0000
1000
,
1000
0000
0100
0000
0010
0000
0100
1000
,
0001
0000
0000
0100
0100
0000
0100
0000
,
1010
0000
1010
0000
1010
0000
0001
0100
,
0010
0100
0001
0000
1010
0000
0000
0000
,
0011
0000
0011
0000
0011
0000
1000
0100
,
0010
0100
1000
0000
0011
0000
0000
0000
,
1000
0001
0100
0010
,
1000
0000
0100
0010
0100
0000
0000
0000
,
0010
0001
1000
0100
,
0010
0000
0010
0000
0001
0000
1000
0100
,
0000
0000
0010
0000
0100
0000
1000
0001
,
0000
0000
0100
0000
0010
0000
1000
0001
,
0000
0000
0100
0000
0010
0100
0010
0000
,
1000
0000
0001
0000
0100
0000
0010
0100
,
0000
0000
0001
0000
1000
0000
0100
0010
,
0000
0000
0001
0000
1000
0000
0100
0010
,
0100
0010
0001
1000
,
0220
0000
0000
0330
,
0001
0000
1000
0000
0100
0000
0010
0100
,
1000
0000
0001
0000
0100
0000
0010
0100
,
0001
0000
1000
0000
0100
0000
0010
0001
,
0100
0010
1000
0100
,
0010
0000
0000
0010
0000
0000
0010
0000
0000
0000
0000
0000
0001
0000
0000
0000
,
1000
0000
0000
1000
0000
0000
1000
0000
0000
0000
0000
0000
0010
0000
0000
0000
,
0100
0000
0000
0100
0000
0000
0100
0000
0000
0000
0000
0000
0100
0000
0000
0000
,
0001
0000
0000
0001
0000
0000
0001
0000
0000
0000
0000
0000
1000
0000
0000
0000
,
0010
0100
2002
3003
,
0010
0001
0220
0330
,
1000
0000
0010
0000
0110
0000
0000
0001
,
0000
1000
0000
0100
0000
0000
0000
0000
,
0001
1000
0202
0303
,
1000
0001
2200
3300
,
0001
0000
0010
0000
0100
0000
1000
0001
,
0000
0100
0000
0010
0000
0100
0010
0000
,
1000
0000
0100
0010
0001
0000
0010
0000
,
0100
0000
1000
0100
0010
0000
0001
0000
,
0100
0000
0010
0100
0001
0000
0000
1000
,
0000
0001
0000
0100
0000
0010
0000
0000
,
1000
0000
0010
0100
0010
0000
1000
0000
,
0001
0000
0010
0100
0010
0000
0100
0000
,
1000
0000
0001
0000
0100
0000
0010
0100
,
0000
0010
0000
1001
0000
0000
0000
0000
;

//---------------dance-single - C. Picardy----------------
#NOTES:
     dance-single:
     :
     Hard:
     8:
     0.500704,0.507493,0.142205,0.083650,0.112927,419.000000,402.000000,17.000000,10.000000,0.000000,0.000000,0.500704,0.507493,0.142205,0.083650,0.112927,419.000000,402.000000,17.000000,10.000000,0.000000,0.000000:
0000
0000
0000
0000
,
0000
0000
0000
0000
,
0000
0000
0000
0000
,
0000
0000
0000
0000
,
0000
0000
0001
0000
0000
1000
0000
0000
0001
0000
0000
1000
0000
0000
0001
0000
,
0000
0000
0100
0000
0000
0010
0000
0000
0100
0000
0000
0010
0000
0000
0100
0000
,
0000
0000
0001
0000
0000
0010
0000
0000
0100
0000
0000
1000
0000
0000
1000
0000
,
0000
0000
0100
0000
0000
0010
0000
0000
0001
0000
0010
0000
0100
0000
1000
0000
,
0000
0100
0010
0000
0001
0100
0010
1000
,
0000
0100
0010
0000
0001
0100
0010
0020
,
0000
0000
1030
0010
0100
0010
0000
1000
,
0000
0001
0001
0000
1000
0001
0100
0010
,
0000
1000
0001
0000
0001
1000
0100
0010
,
0000
0001
1000
0000
0001
1000
0010
0200
,
0000
0000
0310
0010
1000
0100
0000
0010
,
0100
0000
1000
0000
0001
1000
0001
1000
,
0100
0000
0000
0100
0000
0000
0100
0000
0000
0000
0010
0000
0001
0000
0100
0000
,
0010
0000
0000
0010
0000
0000
0010
0000
0000
0000
1000
0000
0100
0000
0010
0000
,
0001
0000
0000
0001
0000
0000
0001
0000
0000
0000
0001
0000
0100
0000
0010
0000
,
1000
0000
0000
1000
0000
0000
1000
0000
0000
0000
0001
0000
1000
0000
0100
0000
,
0010
0000
0000
0001
0000
0000
1000
0000
0000
0000
0010
0000
0100
0000
0001
0000
,
1000
0000
0000
0100
0000
0000
0010
0000
0000
0000
0001
0000
0010
0000
0001
0000
,
0100
0000
0000
0010
0000
0000
0100
0000
0000
0000
0001
0000
0010
0000
0100
0000
,
1000
0000
0000
0010
0000
0000
0100
0000
0000
0000
0001
0000
1001
0000
0000
0000
,
1000
0100
0001
0100
1000
0100
0001
0100
,
1000
0010
0000
0100
0010
0000
0000
0100
,
0001
0100
1000
0100
0001
0100
1000
0100
,
0001
0010
0000
0100
0010
0000
0000
0100
,
1000
0001
0100
0001
1000
0001
0100
0001
,
0000
1000
1000
0100
0010
0001
0000
1000
,
0010
0010
0100
0100
0001
1000
0100
0010
,
0110
0000
0000
0100
0100
0000
1001
0000
,
1000
0000
0100
1000
0000
0100
1000
0000
0000
0000
0000
0000
0100
0000
0100
0000
,
0010
0010
0001
0000
0011
0000
0100
0000
,
0001
0000
0100
0001
0000
0100
0001
0000
0000
0000
0000
0000
1000
0000
0010
0000
,
0010
0100
0001
0000
1100
0000
0000
0100
,
0010
0100
1000
0100
0010
0100
1000
0100
,
0010
0010
0001
0100
1000
0000
0000
0100
,
0010
0100
0001
0100
0010
0100
0001
0100
,
0010
0010
0010
0010
0010
1000
0001
0100
,
0000
0010
0100
0000
0001
0010
0100
1000
,
0000
0100
0010
0000
0001
0010
0100
2000
,
0000
0000
3100
0010
0001
0100
0000
0010
,
1000
0000
0100
0000
0010
0001
0100
0010
,
0000
1000
1000
0000
0001
1000
0100
0010
,
0000
0100
0100
0000
0010
0100
1000
0002
,
0000
0000
1003
1000
0100
0010
0000
0001
,
0100
0011
0101
1001
,
1000
0000
0000
1000
0000
0000
1000
0000
0000
0000
0001
0000
1000
0000
0100
0000
,
0010
0000
0000
0010
0000
0000
0010
0000
0000
0000
0100
0000
1000
0000
0001
0000
,
0100
0000
0000
0100
0000
0000
0100
0000
0000
0000
0010
0000
1000
0000
0100
0000
,
0001
0000
0000
0001
0000
0000
0001
0000
0000
0000
0100
0000
1000
0000
0000
0000
,
0001
0000
0000
0100
0000
0000
0001
0000
0000
0000
0100
0000
0010
0000
1000
0000
,
0100
0000
0000
1000
0000
0000
0100
0000
0000
0000
0010
0000
0100
0000
0010
0000
,
0001
0000
0000
1000
0000
0000
0100
0000
0000
0000
0001
0000
0100
0000
0010
0000
,
0001
0000
0000
1000
0000
0000
0010
0000
0000
0000
0100
0000
0001
0000
2000
0000
,
0000
3100
0100
0010
0001
0000
0010
0002
,
0000
0013
0010
0100
1000
0000
0010
0200
,
0000
0310
0010
1000
0100
0000
0010
0100
,
0000
0011
0000
0100
0000
1010
0000
0200
,
0000
0301
0001
0100
1000
0000
0100
0002
,
0000
1003
1000
0100
0001
0000
0100
2000
,
0000
3001
0001
0010
0100
0000
1000
0001
,
0000
0011
0000
1001
0000
0110
0000
0000
,
1000
0100
0010
0001
0100
0000
0001
0010
,
0100
1000
0100
0010
0001
0000
0010
0100
,
1000
0001
0010
0001
1000
0000
0010
0100
,
0000
0101
0000
1100
0000
0010
0100
0000
,
1000
0100
0001
0100
1000
0000
0001
0100
,
1000
0100
0001
0100
0010
0000
1000
0010
,
0001
0010
1000
0100
0010
0000
0010
0100
,
0000
1001
0000
0110
0000
0000
0000
0000
;

//---------------dance-single - C. Picardy----------------
#NOTES:
     dance-single:
     :
     Challenge:
     9:
     0.657248,0.686608,0.811403,0.209125,0.296957,550.000000,453.000000,97.000000,25.000000,12.000000,0.000000,0.657248,0.686608,0.811403,0.209125,0.296957,550.000000,453.000000,97.000000,25.000000,12.000000,0.000000:
0000
0000
0000
0000
,
0000
0000
0000
0000
,
0000
0000
0000
0000
,
0000
0000
0000
0000
,
0000
0000
0011
0000
0000
0100
0000
0000
1010
0000
0000
0001
0000
0000
1010
0000
,
0000
0000
1100
0000
0000
0001
0000
0000
0110
0000
0000
1000
0000
0000
0101
0000
,
0000
0000
0110
0000
0000
1000
0000
0000
0101
0000
0000
0010
0000
0000
1001
0000
,
0000
0000
1001
0000
0000
0010
0000
0100
1000
0100
1000
0000
0001
0000
0100
0000
,
0000
0000
0010
0000
1000
0100
0000
0000
0010
0000
0100
0000
1000
0000
0010
0000
,
0000
0000
0100
0000
0001
0010
0000
0000
0001
0000
0001
0000
1000
0000
0200
0000
,
0000
0000
0010
0310
0001
1000
0000
0110
,
0000
0000
0001
0000
1000
0100
0000
0000
0001
0000
0100
0000
1000
0000
0010
0000
,
0000
0000
0100
0000
0001
0010
0000
0000
0001
0000
0010
0000
1000
0000
0010
0000
,
0000
0000
0001
0000
0100
1000
0000
0000
0100
0000
0010
0000
1000
0000
0002
0000
,
0000
0000
1000
1003
0100
0010
0000
0001
,
0010
0001
0000
0000
1000
0100
0000
0000
0010
0001
0010
0001
1000
0100
0010
0000
,
M011
0000
0000
0M11
0000
0000
M011
0000
0000
0000
1000
0000
0010
0100
0010
0000
,
M110
0000
0000
011M
0000
0000
M110
0000
0000
0000
0001
0000
1000
0010
1000
0000
,
101M
0000
0000
1M10
0000
0000
101M
0000
0000
0000
0100
0000
1000
0001
1000
0000
,
1M01
0000
0000
10M1
0000
0000
1M01
0000
0000
0000
0100
0000
0010
1000
0001
0000
,
1100
0000
0000
1001
0000
0000
0101
0000
0000
0000
1000
0000
0010
0100
0010
0000
,
0101
0000
0000
0011
0000
0000
0110
0000
0000
0000
1000
0000
0010
1000
0010
0000
,
0110
0000
0000
1010
0000
0000
1001
0000
0000
0000
0001
0000
0010
0100
1000
0000
,
1001
0000
0000
0101
0000
0000
1100
0000
0000
0000
0010
0000
0001
0010
0001
0000
,
0010
0100
0001
0100
0010
0100
0001
0100
,
1000
0010
0000
1001
1001
0000
0000
0001
,
0100
1000
0100
0010
0100
1000
0100
0010
,
1000
0100
0000
0011
0011
0000
0000
0001
,
2000
0100
0010
0100
3002
0010
1000
0100
,
0003
0010
2000
0001
0100
3100
0000
0001
,
1000
0010
0010
0100
0100
0001
0001
1000
,
1001
0000
0000
0000
0000
0000
0100
0010
0000
0100
0000
1000
0001
0000
1001
0000
,
0001
0000
0100
0001
0000
0100
0020
0000
0000
0000
1000
0000
1030
0000
0100
0000
,
0011
0001
0100
0000
2002
0000
3003
0000
,
1000
0000
0010
1000
0000
0010
0200
0000
0000
0000
0001
0000
0301
0000
1000
0000
,
1010
0100
0010
0000
0202
0000
0303
1000
,
0002
0100
0100
0103
0010
2000
0100
0100
,
3200
0010
0010
0310
0011
0000
0000
1000
,
0020
1000
1000
1030
0200
0001
0001
0301
,
0200
1000
1000
1300
0010
0100
0001
1000
,
0000
0000
0100
0000
0010
0001
0000
0000
1000
0000
0100
0000
0010
0000
0001
0000
,
0000
0000
1000
0000
0100
0010
0000
0000
0001
0000
0010
0000
0100
0000
2000
0000
,
0000
0000
0010
3010
0100
0001
0000
1010
,
0000
0000
0010
0000
0100
0001
0000
0000
1000
0000
0100
0000
1000
0000
1001
0000
,
0000
0000
0100
0000
0001
0010
0000
0000
0001
0000
0100
0000
0001
0000
1001
0000
,
0000
0000
0100
0000
1000
0010
0000
0000
0100
0000
0001
0000
1000
0000
2010
0000
,
0000
0000
0001
3001
1000
0010
0000
0100
,
0001
1000
0000
0000
0010
1000
0000
0000
0001
0100
0001
0100
0010
1000
0010
0000
,
1010
0000
0000
0110
0000
0000
0110
0000
0000
0000
0001
0000
0100
0001
0010
0000
,
0011
0000
0000
0110
0000
0000
0110
0000
0000
0000
0010
0000
0010
0100
1000
0000
,
1100
0000
0000
1001
0000
0000
1001
0000
0000
0000
0100
0000
0010
1000
0001
0000
,
1001
0000
0000
0110
0000
0000
0110
0000
0000
0000
1000
0000
0001
1000
0010
0000
,
0110
0000
0000
0101
0000
0000
1001
0000
0000
0000
1000
0000
0010
0100
0010
0000
,
1010
0000
0000
1001
0000
0000
1100
0000
0000
0000
0010
0000
0001
0010
0100
0000
,
0011
0000
0000
1100
0000
0000
0110
0000
0000
0000
0001
0000
1000
0100
0010
0000
,
0110
0000
0000
1001
0000
0000
0110
0000
0000
0000
1000
0000
0100
0010
0002
0000
,
0000
0013
0001
0100
0101
0000
0010
2000
,
0000
3001
1000
0100
1100
0000
0010
0200
,
0000
1300
0001
0010
0011
0000
1000
0001
,
0000
1001
0000
0010
0000
1001
0000
0200
,
0000
0310
1000
0100
0110
0000
0001
0020
,
0000
0031
0100
0010
1010
0000
0001
2000
,
0000
3001
1000
0010
0110
0000
0001
1000
,
0000
0000
1001
0000
0000
0000
0110
0000
0000
0000
1000
0001
1000
0001
1000
0001
,
1000
0100
0010
0001
1001
0000
0001
0100
,
0010
1000
0100
0010
1001
0000
0010
0100
,
0010
0001
0100
0010
1001
0000
0100
0110
,
0000
1001
0000
0110
0000
1001
0000
0100
,
0010
1000
0001
0100
0110
0000
0001
0100
,
0010
1000
0100
0010
1001
0000
0010
0100
,
1000
0001
0100
0010
1001
0000
0010
1010
,
0000
0011
0000
1100
0000
0000
0000
0000
;
