#TITLE:Now is Forever;
#SUBTITLE:;
#ARTIST:Eiffel 65;
#TITLETRANSLIT:;
#SUBTITLETRANSLIT:;
#ARTISTTRANSLIT:;
#GENRE:;
#CREDIT:;
#BANNER:nowisforeverbn.png;
#BACKGROUND:nowisforeverbg.png;
#LYRICSPATH:;
#CDTITLE:;
#MUSIC:nowisforever.ogg;
#OFFSET:0.003688;
#SAMPLESTART:54.301422;
#SAMPLELENGTH:20.299997;
#SELECTABLE:YES;
#BPMS:0.000000=106.000000
;
#STOPS:
;
#BGCHANGES:0.000=solarsystempart1.mp4=1.000=1=0=1=SongBgWithMovieViz==CrossFade==,
16.000=solarsystempart1.mp4=1.000=1=0=1===CrossFade==,
96.000=solarsystempart2.mp4=0.500=0=1=1=StretchRewind==CrossFade_Fastest==,
108.000=solarsystempart2.mp4=1.000=0=0=1=====,
128.000=nowisforeverbg.png=1.000=1=0=1===CrossFade==,
132.000=solarsystempart1.mp4=1.000=0=0=1=SongBgWithMovieViz==CrossFade_Fastest==,
136.000=solarsystempart3.mp4=1.000=0=1=1=StretchRewind==CrossFade_Fastest==,
167.500=solarsystempart3.mp4=1.000=1=0=1=SongBgWithMovieViz==CrossFade==,
172.000=solarsystempart3.mp4=1.000=1=0=1===CrossFade==,
176.000=solarsystempart4.mp4=1.000=0=1=1=StretchRewind==CrossFade_Fastest==,
192.000=solarsystempart4.mp4=0.600=0=0=1=====,
206.000=nowisforeverbg.png=1.000=0=0=1===CrossFade_Fastest==,
99999=-nosongbg-=1.000=0=0=0 // don't automatically add -songbackground-
;
#KEYSOUNDS:;
#ATTACKS:;

//---------------dance-single - C. Picardy----------------
#NOTES:
     dance-single:
     :
     Challenge:
     9:
     0.466698,0.638624,0.162489,0.333530,0.466087,382.000000,363.000000,19.000000,39.000000,35.000000,12.000000,0.466698,0.638624,0.162489,0.333530,0.466087,382.000000,363.000000,19.000000,39.000000,35.000000,12.000000:
0000
0000
0000
0000
,
0000
0000
0000
0000
,
0000
0000
0000
0000
,
0000
0000
0000
0000
,
1000
1000
0100
1000
0000
0001
M010
0000
0001
0001
M100
0001
0101
0000
0000
0000
,
100M
1000
0010
1000
000M
0010
1000
0000
0001
0010
M010
0001
0011
0000
M010
0100
,
0010
0010
M001
0100
0000
0001
M001
0000
0100
0100
0001
1000
1001
0000
1000
0001
,
0020
0000
0000
0001
0000
0000
1000
0000
0000
0031
0100
M000
0010
0000
0100
0000
,
0001
1000
0001
1000
0000
0100
1000
0000
0001
0100
0100
0001
0101
0000
0000
0000
,
1M0M
0000
0100
1000
0000
0001
0000
1000
0100
0100
0010
0001
0010
0010
0001
0010
,
0001
0000
0000
00MM
1100
0000
0001
0100
0000
0010
0000
1000
0001
0000
1000
0000
,
0100
0000
0000
0100
0010
0001
1000
1000
0010
0100
0001
0100
0010
1000
1000
0010
,
1010
0000
0000
M2M2
0000
0000
0000
0303
0101
0000
0001
0100
0010
0000
0000
0000
,
1MM1
0000
0100
0010
0000
1000
0000
0001
0010
0010
0001
0001
1000
0100
0010
0001
,
1000
1000
0010
1000
2000
0000
0000
0000
0200
0000
0000
0000
0010
0000
0010
0000
,
0000
0000
0001
0000
3300
0000
1100
0000
0001
0010
0100
0000
0010
0001
1000
0010
,
0200
0000
0000
0001
0000
0000
1000
0000
0301
0000
1000
0010
0100
0000
0001
0010
,
0100
0000
1000
0200
0000
1000
0000
0010
0000
0300
1000
0001
0100
0000
0010
1000
,
0001
0000
0MM0
0000
1000
0000
0100
1000
0000
0001
0100
0000
0020
0000
2000
0000
,
0030
0000
0100
0000
3010
0000
0100
0001
0010
0001
0100
0000
0110
0000
1000
0001
,
0200
0000
0000
0002
0000
0000
0303
0000
1000
0000
0001
0100
0001
0000
0MM0
0000
,
1000
0000
0100
0010
0000
0001
0000
0001
0000
1000
0100
1000
0010
0000
0100
0001
,
0010
0100
0010
0100
0020
0000
0000
0000
0002
0000
0030
0000
0100
0000
0100
0000
,
0200
0000
0000
0010
0000
0000
1000
0000
0000
0010
0000
0000
1010
0000
0303
0000
,
2001
0000
3200
2000
0000
0010
0000
0010
,
3300
0000
0100
0000
0100
0000
0010
0001
0000
0001
0010
0000
0100
0000
1000
0100
,
0010
0020
0001
0002
0030
0100
0200
0000
,
0000
0303
0100
0000
0100
0000
0010
1000
0000
1000
0001
0000
1000
0000
0001
0000
,
0100
0010
0100
0020
0000
1000
1030
M0M0
,
0200
0000
1000
2000
0000
0001
0000
0001
,
3300
1000
1000
0100
0000
0010
0001
0010
,
0100
0000
1000
0000
0001
0000
0100
0000
0001
0100
0001
0000
0101
0000
1000
0000
,
0020
0000
2030
0002
0000
0010
0000
3003
,
0MM2
0000
0MM0
2000
0MM0
0003
0MM2
3000
1003
0100
1000
0100
0010
0001
0010
0001
,
2000
0000
3010
0200
0000
1000
0000
0301
,
0100
0000
0010
1000
0010
0000
1000
0100
0000
0100
0010
0000
0011
0000
1000
0100
,
0010
0020
0001
0100
0000
0031
0100
0010
,
0100
0000
0001
0010
0001
0000
0100
0010
0000
0010
1000
0000
0010
1000
0100
0000
,
0010
0100
1000
0002
0000
1003
1100
MM00
,
0002
0000
0103
0020
0000
1030
2000
0000
,
3010
0000
0100
0001
0000
0000
0100
0000
0000
0000
0010
0000
1000
0000
1000
0000
,
0001
0000
0100
0000
0010
0000
0110
0000
1000
0001
1000
0000
0001
1000
0001
0000
,
2000
0000
3100
0200
0000
0020
0000
0000
,
0000
0000
0000
0000
0000
0000
0330
0000
0010
0100
1000
0000
0001
0000
0001
0000
,
4001
0000
0000
0040
0000
3000
0430
0000
,
0004
0000
0300
0040
0000
0000
0000
0033
,
0410
0000
0000
4000
0000
0300
0040
3000
,
0004
0000
0000
0000
0033
0000
0010
0000
1000
0001
0010
0000
MM01
0000
0001
1000
,
0400
0000
0000
0040
0000
0300
0400
0030
,
4000
0000
0000
0000
0300
0000
3004
0000
0000
0000
0000
0000
0103
0010
0100
0010
,
0400
0000
0000
0340
0000
0000
4030
0000
,
3004
0000
0000
0400
0303
0000
0000
0000
;

//---------------dance-single - C. Picardy----------------
#NOTES:
     dance-single:
     :
     Beginner:
     1:
     0.069638,0.130846,0.025656,0.025656,0.000000,57.000000,54.000000,3.000000,3.000000,0.000000,0.000000,0.069638,0.130846,0.025656,0.025656,0.000000,57.000000,54.000000,3.000000,3.000000,0.000000,0.000000:
0000
0000
0000
0000
,
0000
0000
0000
0000
,
0000
0000
0000
0000
,
0000
0000
0000
0000
,
1000
0000
0000
0000
,
0001
0000
0000
0000
,
1000
0000
0000
0000
,
0001
0000
0000
0000
,
0100
0000
0000
0000
,
0100
0000
0100
0000
,
0000
0000
0010
0000
,
0010
0000
0000
0000
,
1000
0000
0000
0000
,
0001
0000
0001
0000
,
0000
1000
0000
0000
,
1000
0000
0000
0000
,
1001
0000
0000
0000
,
0100
0000
0100
0000
,
0000
0020
0000
0000
,
0030
0000
0000
0000
,
0010
0000
0000
0000
,
0100
0000
0100
0000
,
0000
1000
1000
1000
,
1000
0000
0000
0000
,
1001
0000
0000
0000
,
0100
0000
0000
0000
,
0010
0000
0000
0000
,
1000
0000
0000
0000
,
0001
0000
0000
0000
,
0100
0000
0000
0000
,
0010
0000
0000
0000
,
1000
0000
0000
0000
,
0001
0000
0000
0000
,
0200
0000
0300
0000
,
1001
0000
0000
0000
,
0010
0000
0000
0000
,
1000
0000
1000
0000
,
1000
0000
0000
0000
,
0001
0000
0000
0000
,
0100
0000
0100
0000
,
0100
0000
0000
0000
,
0010
0000
0000
0000
,
2000
0000
0000
0000
,
3000
0000
0000
0000
,
0100
0000
0000
0000
,
0010
0000
0000
0000
,
0100
0000
0000
0000
,
0010
0000
0000
0000
,
0001
0000
0000
0000
,
1000
0000
0000
0000
,
0001
0000
0000
0000
,
1000
0000
0000
0000
;

//---------------dance-single - C. Picardy----------------
#NOTES:
     dance-single:
     :
     Easy:
     2:
     0.169819,0.220215,0.042760,0.171041,0.000000,139.000000,134.000000,5.000000,20.000000,0.000000,0.000000,0.169819,0.220215,0.042760,0.171041,0.000000,139.000000,134.000000,5.000000,20.000000,0.000000,0.000000:
0000
0000
0000
0000
,
0000
0000
0000
0000
,
0000
0000
0000
0000
,
0000
0000
0000
0000
,
0001
0001
0001
0000
,
0100
0100
0100
0000
,
1000
1000
1000
0000
,
0002
0000
2000
3003
,
0100
0000
0010
0000
,
1000
1000
1000
0000
,
0001
0000
0010
0000
,
0100
0000
1000
0010
,
0010
0010
0000
0100
,
0001
0001
0001
0000
,
1000
0000
0010
0000
,
0100
0000
0001
0000
,
0100
0010
0100
0000
,
0010
0000
1000
0000
,
0001
0200
0000
0000
,
0020
0330
0000
0100
,
0010
0010
0000
1000
,
0100
1000
0100
0000
,
0010
0001
0010
0100
,
2000
0000
0020
3030
,
1001
0000
0100
0010
,
0100
0001
0001
1000
,
0100
1000
0010
0100
,
0000
0001
0001
1000
,
0100
1000
0010
0000
,
0100
0001
1000
0001
,
0100
0000
0000
0010
,
1000
0100
1000
0000
,
0020
0000
0200
0330
,
0001
1000
0100
0010
,
1001
1000
0001
0100
,
0100
0000
0010
1000
,
0001
0001
0010
0100
,
0000
1000
0010
1000
,
0001
0100
0010
0000
,
1000
1000
0001
0010
,
0100
0000
1000
0001
,
0100
0010
1000
0000
,
0002
0000
2000
0000
,
0000
0000
0000
3003
,
1002
0000
0103
0010
,
2000
0000
3200
0000
,
0320
0000
0031
0100
,
0020
0000
1030
0001
,
0120
0000
0130
1000
,
0002
0000
0203
0000
,
0302
0000
0013
0100
,
2001
0000
3001
0000
;

//---------------dance-single - C. Picardy----------------
#NOTES:
     dance-single:
     :
     Medium:
     4:
     0.252896,0.264900,0.145385,0.367738,0.042760,207.000000,190.000000,17.000000,43.000000,0.000000,0.000000,0.252896,0.264900,0.145385,0.367738,0.042760,207.000000,190.000000,17.000000,43.000000,0.000000,0.000000:
0000
0000
0000
0000
,
0000
0000
0000
0000
,
0000
0000
0000
0000
,
0000
0000
0000
0000
,
0010
0000
0000
0010
0000
0000
0010
0000
0000
0000
0000
0000
0110
0000
0000
0000
,
1000
0000
0000
1000
0000
0000
1000
0000
0000
0000
0000
0000
1010
0000
0000
0000
,
0001
0000
0000
0001
0000
0000
0001
0000
0000
0000
0000
0000
0011
0000
0000
0000
,
0100
0000
0000
0010
0000
0000
0100
0000
0000
0000
0000
0000
1001
0000
0000
0000
,
0010
0000
0000
0100
0000
0000
1000
0000
0000
0000
0000
0000
0110
0000
0000
0000
,
0002
0000
1000
0000
0013
0000
1000
0100
,
1000
0000
0000
0000
0010
0000
0000
0010
0000
0000
0000
0000
0100
0000
0000
0000
,
0001
0000
0000
0001
0000
0000
1000
0000
0000
0000
0010
0000
0100
0000
0000
0000
,
0010
0000
0000
0010
0000
0000
0010
0000
0000
0000
0000
0000
0101
0000
0000
0000
,
2000
0000
0100
0000
3010
0000
0001
0010
,
0001
2000
3200
0320
,
0032
0000
0103
0000
0010
1000
0001
0000
,
1100
0000
0000
0100
0000
0000
0100
0000
0000
0000
0000
0000
0011
0000
0000
0000
,
0200
0000
0010
0000
0301
0000
0010
1000
,
0010
0020
0100
0001
,
1000
0000
0130
0000
0001
0000
0010
0100
,
1000
0000
0000
1000
0000
0000
0000
0000
0100
0000
0000
0000
0110
0000
0000
0000
,
0001
0000
1000
0000
0100
0000
0010
0001
,
0010
0200
2300
3002
,
0203
0000
0000
0020
0000
0000
0330
0000
,
1001
0000
0100
0001
0000
0001
0000
2000
,
0000
0010
0001
3100
,
0001
0000
0100
0010
0000
0100
0002
0000
,
0010
1000
0103
0010
,
1000
0000
0100
0020
0000
0000
0130
0000
,
1000
0001
0100
0001
,
0200
0000
0010
0301
,
1000
0000
0001
0001
0000
1000
1000
0000
,
0200
0000
0010
0010
0000
0020
0000
0000
,
0330
0000
0001
0000
1000
1000
0001
0001
,
0100
0000
0001
0100
0000
0010
0000
2010
,
0000
0001
0010
3100
,
0010
0100
0010
0000
0001
0000
0002
0000
,
1000
0100
0013
1000
,
0001
0100
0010
0000
1000
0000
0110
0000
,
1000
0000
0001
0000
0100
0010
0100
0000
,
0010
1000
0100
0010
,
0001
0010
0000
0100
0000
0010
0100
0000
,
2002
0000
0000
0000
,
0000
0000
3003
0000
0100
0100
0100
0000
,
2001
0000
0000
3200
0000
0000
0320
0000
,
0032
0000
0000
0203
0000
0000
0310
0000
,
2010
0000
0000
3020
0000
0000
0230
0000
,
0302
0000
0000
2003
0000
0000
3100
0000
,
0021
0000
0000
0230
0000
0000
2300
0000
,
3020
0000
0000
0230
0000
0000
0301
0000
,
1200
0000
0000
0320
0000
0000
0032
0000
,
0203
0000
0000
0020
0000
0330
0000
0000
;

//---------------dance-single - C. Picardy----------------
#NOTES:
     dance-single:
     :
     Hard:
     7:
     0.378734,0.397350,0.205249,0.419051,0.175317,310.000000,286.000000,24.000000,49.000000,0.000000,0.000000,0.378734,0.397350,0.205249,0.419051,0.175317,310.000000,286.000000,24.000000,49.000000,0.000000,0.000000:
// measure 0
0000
0000
0000
0000
,  // measure 1
0000
0000
0000
0000
,  // measure 2
0000
0000
0000
0000
,  // measure 3
0000
0000
0000
0000
,  // measure 4
1000
0000
0100
1000
0000
0100
1000
0000
0000
0000
0001
0000
0101
0000
0000
0000
,  // measure 5
1000
0000
0010
1000
0000
0010
1000
0000
0000
0000
0100
0000
0110
0000
0000
0000
,  // measure 6
1000
0000
0001
1000
0000
0001
1000
0000
0000
0000
0010
0000
1001
0000
0000
0000
,  // measure 7
0200
0000
0000
0310
0000
0000
2000
0000
0000
0000
3001
0000
0010
0000
0100
0000
,  // measure 8
1000
0000
0100
0000
1000
0000
0100
0010
0000
0000
0100
0000
1001
0000
0000
0000
,  // measure 9
0001
0000
0100
0001
0000
1000
0000
0001
0000
0000
1000
0000
1100
0000
0000
0000
,  // measure 10
0010
0000
0000
0000
0100
0000
0010
0100
0000
0010
0000
1000
0010
0000
1000
0000
,  // measure 11
1000
2000
0000
0001
3001
0100
0010
1000
,  // measure 12
1100
0000
0000
0011
0000
0000
0100
0000
0000
0000
1000
0000
1010
0000
0000
0000
,  // measure 13
0001
0000
0100
0010
0000
0100
0000
0001
0000
1000
0100
0000
0010
0000
0100
0000
,  // measure 14
2000
0000
0010
0000
3002
0000
0010
0100
,  // measure 15
0000
1000
2003
0010
0000
3001
0100
0010
,  // measure 16
1000
0000
0000
0001
0000
0000
2200
0000
0000
0000
3300
0000
0011
0000
0000
0000
,  // measure 17
1000
0000
0100
0010
0000
0100
0000
1000
0000
0001
0100
0000
0001
0000
0000
0000
,  // measure 18
0110
0000
0000
0000
0001
0000
0100
1000
0000
0100
0001
0000
0010
0000
2000
0000
,  // measure 19
0000
0000
3010
0000
0001
0000
0100
0000
0000
0010
0100
0000
0001
0000
0010
0000
,  // measure 20
0200
0000
0000
0001
0000
0000
0310
0000
0000
0000
0100
0000
1001
0000
0000
0000
,  // measure 21
1000
0000
0001
0100
0000
0001
0000
1000
0000
0000
0010
0000
0110
0000
0000
0000
,  // measure 22
0001
0001
0020
0000
0100
0000
0031
1000
,  // measure 23
0100
0000
0000
1000
0000
0000
0010
0000
0000
0100
0000
0000
0101
0000
1001
0000
,  // measure 24
2100
0000
3010
0200
0000
0001
0000
1000
,  // measure 25
0300
0000
0100
0000
0001
0000
0100
0001
0000
0001
0010
0000
0100
0000
1000
0000
,  // measure 26
0001
0001
0100
0200
0000
0010
0020
0000
,  // measure 27
0330
0000
1000
0000
0001
0000
1000
0100
0000
0100
1000
0000
0010
0000
0100
0000
,  // measure 28
0001
0100
0010
0100
0000
0001
1001
0000
,  // measure 29
0110
0000
1000
0100
0010
0100
1000
0010
,  // measure 30
0100
0100
0001
0010
0000
0100
0010
0010
,  // measure 31
0100
1000
0001
0100
1000
0100
0001
0010
,  // measure 32
0200
0000
0310
0002
0000
2000
0000
0003
,  // measure 33
0010
0000
0001
0000
0010
0100
0010
3001
,  // measure 34
0200
0000
0310
0020
0000
2030
0000
3200
,  // measure 35
0000
0000
1000
0000
1300
0000
0100
0001
0000
0001
0100
0000
1000
0000
0001
0000
,  // measure 36
0100
0100
0001
0020
0000
0100
0200
0000
,  // measure 37
0330
0000
1000
0000
0001
0000
0100
0010
0000
0010
0100
0000
0001
0000
1000
0000
,  // measure 38
0100
0010
0100
1000
0000
0010
0110
0000
,  // measure 39
1002
0000
0103
0020
0000
1000
0000
2000
,  // measure 40
0000
0000
0000
0000
3030
0001
0100
1000
,  // measure 41
0100
0001
0010
0100
0010
0001
1000
0100
,  // measure 42
2000
0000
0010
3020
0000
0200
0000
0000
,  // measure 43
0000
0000
0000
0330
,  // measure 44
2001
0000
0100
3200
0000
0010
0310
0000
,  // measure 45
0012
0000
0100
0200
0000
0303
1010
0000
,  // measure 46
0200
0000
0001
0002
0300
0010
0020
0003
,  // measure 47
0200
0030
1000
2000
0000
3300
1001
0100
,  // measure 48
0002
0000
0100
0200
0003
1000
2000
0300
,  // measure 49
0002
3000
0010
0020
0000
0003
1030
0100
,  // measure 50
0002
0000
0100
0200
0003
0010
0020
0300
,  // measure 51
0002
0000
0030
0200
0000
0303
0000
0000
;
