#TITLE:No Gravity for Love;
#SUBTITLE:;
#ARTIST:Ace & Elly;
#TITLETRANSLIT:;
#SUBTITLETRANSLIT:;
#ARTISTTRANSLIT:;
#GENRE:;
#CREDIT:;
#BANNER:nogravityforlovebn.png;
#BACKGROUND:nogravityforlovebg.png;
#LYRICSPATH:;
#CDTITLE:;
#MUSIC:nogravityforlove.ogg;
#OFFSET:-0.001970;
#SAMPLESTART:50.298508;
#SAMPLELENGTH:12.699992;
#SELECTABLE:YES;
#BPMS:0.000000=152.000000
;
#STOPS:
;
#BGCHANGES:16.000=bluesphere.mp4=1.000=0=0=1=SongBgWithMovieViz====,
28.000=flash=2.000=0=0=1=====,
28.250=bluesphere.mp4=1.000=0=0=1=SongBgWithMovieViz====,
28.750=flash=2.000=0=0=1=====,
29.000=bluesphere.mp4=1.000=0=0=1=SongBgWithMovieViz====,
29.500=flash=2.000=0=0=1=====,
29.750=nogravityforlovebg.png=1.000=0=0=1=====,
32.000=flash=2.000=0=0=1=====,
32.250=bluesphere.mp4=1.000=0=0=1=====,
64.000=ringofstarlight.mp4=1.000=0=1=1=StretchRewind==CrossFade_Fastest==,
96.000=ringofstarlight.mp4=1.000=0=0=1=Checkerboard1File2x2====,
126.000=flash=2.000=0=0=1=====,
126.250=nogravityforlovebg.png=1.000=0=0=1=====,
128.000=bluesphere.mp4=1.000=0=1=1=StretchRewind==SlideLeft==,
160.000=bluesphere.mp4=1.000=0=0=1=Checkerboard1File2x2====,
190.000=flash=2.000=0=0=1=====,
190.250=nogravityforlovebg.png=1.000=0=0=1=====,
192.000=ringofstarlight.mp4=1.000=0=0=1===SlideRight==,
208.000=ringofstarlight.mp4=1.000=0=0=1=Checkerboard1File2x2====,
222.500=nogravityforlovebg.png=1.000=0=0=1===CrossFade_Fastest==,
224.000=bluesphere.mp4=1.000=0=0=1===SlideUp==,
240.000=bluesphere.mp4=1.000=0=0=1=Checkerboard1File2x2====,
254.500=flash=2.000=0=0=1=====,
254.750=nogravityforlovebg.png=1.000=0=0=1=====,
99999=-nosongbg-=1.000=0=0=0 // don't automatically add -songbackground-
;
#KEYSOUNDS:;
#ATTACKS:;

//---------------dance-single - C. Picardy----------------
#NOTES:
     dance-single:
     :
     Beginner:
     1:
     0.104182,0.153148,0.068066,0.019447,0.000000,75.000000,68.000000,7.000000,2.000000,0.000000,0.000000,0.104182,0.153148,0.068066,0.019447,0.000000,75.000000,68.000000,7.000000,2.000000,0.000000,0.000000:
0000
0000
0000
0000
,
0000
0000
0000
0000
,
0000
0000
0000
0000
,
0000
0000
0000
0000
,
1001
0000
0000
0000
,
1001
0000
0000
0000
,
1000
0000
1000
0000
,
1000
0000
0000
0000
,
0001
0000
0000
0000
,
1000
0000
0000
0000
,
0001
0000
0000
0000
,
1000
0000
0000
0000
,
0010
0000
0000
0000
,
0100
0000
0000
0000
,
0010
0000
0000
0000
,
0100
0000
0000
0000
,
1001
0000
0000
0000
,
0001
0000
0000
0000
,
0100
0000
0000
0000
,
0010
0000
0000
0000
,
1000
0000
0000
0000
,
0100
0000
0000
0000
,
0010
0000
0000
0000
,
0001
0000
0000
0000
,
0110
0000
0100
0000
,
0100
0000
0000
0000
,
1000
0000
0000
0000
,
0001
0000
0000
0000
,
0100
0000
0000
0000
,
0100
0000
0000
0000
,
0010
0000
0000
0000
,
1001
0000
0000
0000
,
0100
0000
0100
0000
,
0100
0000
0000
0000
,
0001
0000
0000
0000
,
1000
0000
0000
0000
,
0010
0000
0010
0000
,
0010
0000
0000
0000
,
0100
0000
0000
0000
,
0001
0000
0000
0000
,
1000
0000
1000
0000
,
1000
0000
0000
0000
,
0001
0000
0000
0000
,
0010
0000
0000
0000
,
0001
0000
0001
0000
,
0001
0000
0000
0000
,
1000
0000
0000
0000
,
2002
0000
3003
0000
,
0001
0000
0000
0000
,
1000
0000
0000
0000
,
0001
0000
0000
0000
,
1000
0000
0000
0000
,
0010
0000
0000
0000
,
0100
0000
0000
0000
,
0010
0000
0000
0000
,
0100
0000
0000
0000
,
1001
0000
0000
0000
,
0010
0000
0000
0000
,
0100
0000
0100
0000
,
0100
0000
0000
0000
,
0001
0000
0000
0000
,
1000
0000
0000
0000
,
0010
0000
0100
0000
,
0010
0000
0000
0000
;

//---------------dance-single - ----------------
#NOTES:
     dance-single:
     :
     Challenge:
     11:
     0.915412,0.902355,0.447288,0.252815,1.157115,659.000000,613.000000,46.000000,26.000000,30.000000,0.000000,0.915412,0.902355,0.447288,0.252815,1.157115,659.000000,613.000000,46.000000,26.000000,30.000000,0.000000:
0000
0000
0000
0000
,
0000
0000
0000
0000
,
0000
0000
0000
0000
,
0000
0000
0000
0000
,
0001
0000
0100
0000
0020
0000
0000
1000
0000
1030
0000
0100
0010
0000
0100
0000
,
1000
0000
1000
0000
0020
0000
0000
0100
0000
0130
0000
0001
1000
0000
1000
0000
,
0001
0100
0001
0100
0000
0000
0010
0000
1000
0100
1000
0100
0000
0000
1000
0000
,
1010
0000
0000
0101
0000
0000
1100
0000
0000
0000
M00M
0000
0MM0
0000
0000
0000
,
1001
0000
0100
0000
0101
0000
0000
0010
0000
0100
0000
0001
0010
0100
1000
0100
,
0010
0000
0001
0000
0011
0000
0000
1000
0000
0100
0000
1000
0010
1000
0001
0100
,
0010
1000
0001
0100
0000
0000
1001
0000
1000
0100
0010
0001
0000
0000
1100
0000
,
0001
0010
0100
1000
0000
0001
0000
0100
0010
0100
0001
1000
0100
0010
0001
0100
,
0101
0000
0100
0000
0110
0000
0000
0001
0000
0010
0000
0010
0100
1000
0100
0010
,
0001
0000
0100
0000
0110
0000
0000
0010
0000
1000
0000
0001
1000
0100
0010
0100
,
1000
0100
0010
0001
0000
0000
0101
0000
1000
0010
0100
0001
0000
0000
0110
0000
,
1000
0001
0100
0010
0000
1000
0000
0100
0010
0001
1000
1MM1
0000
0000
0000
0000
,
1000
0000
0100
0010
0100
0000
1000
0000
0001
0000
0100
0010
0100
0000
0001
0000
,
1000
0000
0001
0100
0010
0000
1000
0000
0001
0000
1000
0100
0010
0000
0100
0000
,
1000
0000
0001
0100
0010
0000
1000
0000
0100
0000
0010
0100
1000
0000
0001
0000
,
0010
0000
0100
0010
0100
0000
1000
0100
1000
0000
0001
0100
0001
0100
0010
0000
,
1000
0000
0001
0100
0010
0000
0100
0000
0001
0000
1000
0100
0010
0000
0100
0000
,
1000
0000
0001
0100
0010
0100
0010
0000
1000
0010
0100
0010
1000
0010
0100
0000
,
0001
0000
0001
0100
0010
0000
1000
0000
0100
0000
0010
0001
1000
0000
0100
0000
,
0010
0000
0001
0000
0011
0000
1100
0000
0001
0010
0100
1000
0001
0010
0100
1000
,
0001
0000
0000
0001
0100
0000
0000
0000
0010
0000
0100
0000
0001
0000
0010
0000
,
0100
0000
1000
0100
1000
0001
1000
0100
1000
0001
1000
0000
0001
0000
0100
0000
,
0001
0000
0100
0010
0100
0000
0001
0000
1000
0000
0100
1000
0100
0000
0010
0000
,
0100
0000
0010
0001
0010
0000
0001
0100
0001
0100
0010
0000
1000
0010
1000
0001
,
2000
0000
0000
0000
0000
0000
0000
3000
2200
0000
0000
0000
0000
0000
0000
3300
0220
0000
0000
0000
0000
0000
0000
0330
0022
0000
0000
0000
0000
0000
0000
0033
,
0201
0000
0301
0100
1000
0100
0001
0010
,
0100
0000
1000
0100
1000
0100
0010
0001
0010
0001
0010
0100
1000
0100
1000
0000
,
0001
0100
0001
0100
0010
1000
0010
1000
1001
0000
0MM0
0000
M00M
0000
0000
0000
,
0001
0000
0100
0010
0100
0000
0001
0000
1000
0000
0100
0010
0001
0000
1000
0000
,
0100
0000
1000
0100
1000
0010
1000
0000
0001
0100
0001
0100
0010
0100
0010
0000
,
1000
0000
0001
0100
0010
0000
1000
0100
0010
0000
0001
0010
0100
0000
1000
0000
,
0001
0000
100M
0010
0100
0010
100M
0010
0100
0010
100M
0100
0010
0100
100M
0000
,
0001
0000
0010
0100
0010
0000
0001
0000
1000
0000
0010
0100
0001
0000
1000
0000
,
0100
0000
0010
0100
1000
0000
0001
0100
0010
0100
0001
0000
1000
0100
0010
0100
,
2000
0000
0200
3000
0002
M300
2000
0M03
,
0020
000M
3000
0000
0001
0000
0031
0000
0100
00M0
0000
0010
1000
0000
1010
0000
,
1MM1
0000
0010
0100
1000
0000
0001
0100
0010
0000
1000
0001
0100
0000
0010
1000
,
0001
0000
0010
0001
1000
0000
0010
0100
0001
0100
0010
0000
1000
0100
0010
0100
,
1000
0000
0001
0100
0010
0000
1000
0010
0100
0000
0001
0010
0100
0000
1000
0100
,
0010
0001
M100
0010
0100
0001
M010
0100
0010
0001
M100
0010
0100
0001
M010
0100
,
1000
0000
0010
0100
0001
0000
0010
0100
1000
0000
0100
0010
0001
0000
1000
0100
,
0010
0000
0001
0100
0010
0000
1000
0010
0100
0010
1000
0000
0001
0010
0001
0010
,
0002
0000
0200
0003
2000
0300
0002
3000
,
0020
0003
1000
0000
1000
0000
1030
0000
0110
0000
M00M
0000
0MM0
0000
0000
0000
,
1001
0000
0100
0000
1100
0000
0000
0010
0000
0001
0000
1000
0100
0010
0001
0010
,
0100
0000
1000
0000
1001
0000
0000
0010
0000
1000
0000
0001
0100
0010
1000
0010
,
0100
0001
0010
0100
0000
0000
0011
0000
1000
0100
0010
0100
0000
0000
1001
0000
,
0001
0010
0100
1000
0000
0001
0000
1000
0001
0100
0010
0100
0001
1000
0100
0010
,
0110
0000
0010
0000
0011
0000
0000
1000
0000
0100
0000
0010
0100
1000
0001
0100
,
0010
0000
0100
0000
0101
0000
0000
1000
0000
0001
0000
0010
0100
0010
0001
1000
,
0010
0100
0001
1000
0000
0000
0101
0000
1000
0100
0010
0001
0000
0000
1100
0000
,
0010
0100
0010
0001
0000
1000
0000
0001
0100
0010
1000
1MM1
0000
0000
0000
0000
,
1010
0000
0100
0000
0102
0000
0000
1000
0000
0100
0003
0001
0100
1000
0100
0001
,
0010
0000
0100
0000
1200
0000
0000
0010
0000
1000
0300
0100
0001
0100
0010
0001
,
0100
1000
0100
0001
0000
0000
1100
0000
1000
0010
0001
0010
0000
0000
0110
0000
,
0001
0100
1000
0100
0000
0001
0000
0010
1000
0010
0100
0010
0001
1000
0100
0001
,
0101
0000
0100
0000
0120
0000
0000
0001
0000
0100
0030
0010
0001
0100
1000
0100
,
0010
0000
1000
0000
1020
0000
0000
0001
0000
0100
0030
1000
0100
0001
0100
1000
,
0010
0001
0010
1000
0000
0000
0101
0000
0001
0010
1000
0010
0000
0000
0011
0000
,
1000
0100
0010
0001
0000
1000
0000
0010
1000
0001
0100
0202
0000
0000
0000
0000
,
0303
0000
0000
0000
;

//---------------dance-single - C. Picardy----------------
#NOTES:
     dance-single:
     :
     Easy:
     4:
     0.352830,0.402924,0.437564,0.330604,0.000000,254.000000,209.000000,45.000000,34.000000,0.000000,0.000000,0.352830,0.402924,0.437564,0.330604,0.000000,254.000000,209.000000,45.000000,34.000000,0.000000,0.000000:
0000
0000
0000
0000
,
0000
0000
0000
0000
,
0000
0000
0000
0000
,
0000
0000
0000
0000
,
1001
0000
0000
0000
0000
1000
0000
0000
,
0110
0000
0000
0000
0000
0001
0000
0000
,
1100
0100
0010
0010
,
1001
0000
0000
1001
0000
0000
0000
0000
,
1000
0100
1000
0010
,
0001
0100
0001
0010
,
2200
3300
0022
0033
,
1000
1000
0001
1000
,
1010
0010
0010
0100
,
0101
0001
0001
0010
,
2200
3300
0202
0303
,
0010
0010
0220
0330
,
1000
1000
1000
0000
,
0001
0100
0001
0000
,
1000
0000
0100
0000
,
0010
0100
1000
0001
,
0100
0100
0100
0000
,
0010
1010
0101
0100
,
0010
1000
0010
1000
,
0100
0100
0011
1100
,
0001
1000
0001
1000
,
0002
0000
1003
0100
,
0010
0010
0010
0000
,
0001
0001
0001
0000
,
1000
0010
0100
0001
,
1000
0100
0010
0001
,
2000
0000
3010
0100
,
2002
3003
0220
0330
,
1000
0001
0100
0010
,
0010
1000
1010
0011
,
1000
0100
1000
0010
,
0200
0010
0010
0310
,
1000
0001
0100
0001
,
0010
0010
0110
1100
,
0001
0200
0000
0310
,
2020
3030
0202
0303
,
1000
0100
0010
0100
,
1000
0010
0100
0001
,
0010
0100
1000
0010
,
0001
0011
1000
1010
,
0100
0100
0010
0010
,
1000
0001
0100
0010
,
1000
1001
0100
0010
,
0202
0303
2200
3300
,
0001
0010
0001
0100
,
0010
1000
0100
1000
,
2020
3030
0022
0033
,
1000
0100
0010
0001
,
0100
0010
1000
0010
,
0100
0001
0010
0001
,
1000
1000
0001
0001
,
0100
0010
2002
3003
,
1100
1100
0001
0100
,
0011
0011
1000
0100
,
0010
1001
0100
1001
,
0010
0100
1000
0001
,
1010
1010
0001
0010
,
0101
0101
0010
1000
,
0100
1100
0001
0101
,
1000
0100
2002
3003
;

//---------------dance-single - C. Picardy----------------
#NOTES:
     dance-single:
     :
     Medium:
     6:
     0.458401,0.464456,0.320881,0.087513,0.082651,330.000000,297.000000,33.000000,9.000000,0.000000,0.000000,0.458401,0.464456,0.320881,0.087513,0.082651,330.000000,297.000000,33.000000,9.000000,0.000000,0.000000:
0000
0000
0000
0000
,
0000
0000
0000
0000
,
0000
0000
0000
0000
,
0000
0000
0000
0000
,
1010
0000
1000
0000
0000
0101
0000
0000
,
0011
0000
0001
0000
0000
1100
0000
0000
,
0011
0010
0010
0010
,
0100
0000
0000
0100
0000
0000
1001
0000
0000
0000
0000
0000
0000
0000
0000
0000
,
0001
0000
0010
0000
0001
0000
1000
0100
,
0010
0000
0100
0000
1000
0000
0010
0100
,
0001
0000
0000
0001
0000
0000
0001
0000
1000
0000
0000
1000
0000
0000
1000
0000
,
0100
0000
0010
0000
0100
0010
0100
0010
,
0100
0000
1000
0000
0001
0000
1000
0010
,
1000
0000
0001
0000
0010
0000
0001
0100
,
0010
0000
0000
0010
0000
0000
0010
0000
0100
0000
0000
0100
0000
0000
0100
0000
,
0010
0000
0000
0000
1000
0000
0000
0000
0001
0000
0000
1001
0000
0000
0000
0000
,
1000
0000
0100
0000
0010
0000
0100
0010
,
0000
0100
0010
0100
0000
1000
0100
0010
,
0000
0001
0100
0010
0000
1000
0010
0100
,
0000
0001
1000
0000
0100
0000
0011
0000
,
1000
0000
0010
0000
1000
0010
0000
1000
,
0000
0001
0001
0000
0001
0000
0001
1000
,
0000
1000
0000
0001
0000
0001
0000
0100
,
0000
0100
0010
0000
0100
0010
0100
0000
,
1001
0000
1100
0000
0010
0001
0010
0000
,
0100
1000
0001
0100
,
0020
1000
0100
1030
,
0002
0010
0100
0013
,
1000
1100
0001
0101
,
1010
1001
0100
0010
,
1000
0100
0010
0000
0001
0100
0010
0000
,
0010
1000
0100
0000
1001
0000
0000
0000
,
0110
0000
1000
0000
0001
0100
0010
0000
,
1000
0000
0100
0000
0010
0100
0010
0000
,
0011
1000
0010
0100
,
0001
0100
0001
0100
0001
0000
0001
0000
,
1100
0100
0010
0100
,
1000
0010
0100
0000
0001
0100
0010
0000
,
1000
0100
0010
0000
0100
0000
0010
0000
,
0012
0103
2002
3003
,
1010
0000
0100
0000
0001
0000
1000
0010
,
1000
0000
0100
0000
0010
0100
0010
0000
,
0011
0100
1010
0100
,
0010
1000
0100
1000
0100
0000
0100
0000
,
0011
0100
1001
0010
,
1000
0010
0100
0000
0001
0010
0100
0000
,
0010
0100
1000
0000
0010
0100
0001
0000
,
2200
3300
0202
0303
,
0010
0010
1000
0000
0100
0000
0010
0100
,
0010
0010
0001
0000
1000
0000
0001
0100
,
0001
0000
0000
0001
0000
0000
0001
0000
1000
0000
0000
1000
0000
0000
1000
0000
,
0100
0000
0010
0000
0100
0010
0100
0010
,
0100
0100
1000
0000
0010
0000
0100
0010
,
0100
0100
0010
0000
1000
0000
0001
0100
,
0010
0000
0000
0010
0000
0000
0010
0000
0100
0000
0000
0100
0000
0000
0100
0000
,
0010
0000
0000
0000
1000
0000
0000
0000
0001
0000
0000
1001
0000
0000
0000
0000
,
0110
0000
0100
0000
1000
0000
0010
0100
,
0001
0100
0010
0000
1000
0000
1000
0100
,
0010
0000
0000
0100
0000
0000
1000
0000
0001
0000
0000
1000
0000
0000
0001
0000
,
0100
0000
0110
0000
1000
0001
0100
0001
,
1000
0000
0110
0000
1000
0000
0001
0010
,
0100
0010
0001
0000
1100
0000
0010
0001
,
0010
0000
0000
0001
0000
0000
1000
0000
0100
0000
0000
1000
0000
0000
0001
0000
,
1000
0000
0000
0010
0000
0000
0100
0000
0010
0000
0000
1001
0000
0000
0000
0000
;

//---------------dance-single - C. Picardy----------------
#NOTES:
     dance-single:
     :
     Hard:
     9:
     0.670932,0.653430,0.204197,0.048618,0.491044,483.000000,462.000000,21.000000,5.000000,8.000000,0.000000,0.670932,0.653430,0.204197,0.048618,0.491044,483.000000,462.000000,21.000000,5.000000,8.000000,0.000000:
// measure 0
0000
0000
0000
0000
,  // measure 1
0000
0000
0000
0000
,  // measure 2
0000
0000
0000
0000
,  // measure 3
0000
0000
0000
0000
,  // measure 4
1000
0000
1000
0000
1000
0000
0000
0001
0000
0001
0000
1000
0001
0000
0000
0000
,  // measure 5
0100
0000
0100
0000
0100
0000
0000
0010
0000
0010
0000
0100
0010
0000
0000
0000
,  // measure 6
1000
0000
0000
0001
0000
0000
0100
0000
0010
0000
0000
1000
0000
0000
0001
0000
,  // measure 7
0101
0000
0000
0101
0000
0000
1100
0000
0000
0000
0MM0
0000
0000
0000
0000
0000
,  // measure 8
0001
0000
0100
0000
0010
0000
0000
1000
0000
0010
0000
1000
0010
0000
1000
0000
,  // measure 9
0100
0000
0010
0000
0001
0000
0000
0010
0000
0010
0000
0100
1000
0000
0001
0000
,  // measure 10
0100
0000
0001
1000
0000
0000
0100
0000
0010
0000
0001
1000
0000
0000
0010
0000
,  // measure 11
0010
0000
0100
0001
0000
0100
0000
0010
1000
0000
0100
0000
1000
0100
1000
0100
,  // measure 12
1000
0000
0100
0000
0010
0000
0000
0100
0000
0010
0000
0001
0010
0000
0100
0000
,  // measure 13
1000
0000
1000
0000
0010
0000
0000
0100
0000
0001
0000
0100
0001
0000
0010
0000
,  // measure 14
0100
0000
0100
1000
0000
0000
0001
0000
0100
0000
0100
0010
0000
0000
1000
0000
,  // measure 15
0001
0000
0001
1000
0000
0100
0000
0100
1000
0000
0001
0100
0000
0000
0000
0000
,  // measure 16
0110
0000
0001
0100
0010
0100
0001
0100
,  // measure 17
0010
1000
0100
1000
0010
1000
0100
0010
,  // measure 18
0001
0010
0100
0010
0001
0010
0100
1000
,  // measure 19
0100
0000
0010
0000
0100
0000
1000
0000
0001
0100
0001
0100
0001
0000
0000
0000
,  // measure 20
1001
0000
1000
0100
0010
0100
1000
0100
,  // measure 21
0010
0000
0100
0000
1000
0100
0000
0000
1000
0001
1000
0001
1000
0000
0000
0000
,  // measure 22
0001
0100
0010
0100
0001
0010
0100
1000
,  // measure 23
0010
0000
0010
0000
0100
0000
0100
0000
0001
0100
0001
0100
0001
0000
0000
0000
,  // measure 24
1100
0000
0101
0000
1000
1000
0001
0100
,  // measure 25
0010
0000
0100
0000
0001
0010
0000
0000
0001
1000
0000
0000
0010
1000
0000
0000
,  // measure 26
0001
0010
0100
0010
0001
1000
0100
0010
,  // measure 27
0100
0000
1000
0000
0010
0000
0100
0000
0010
0000
1000
0000
0100
0010
0100
0010
,  // measure 28
0100
1100
0010
0011
,  // measure 29
0101
0000
0001
0100
1000
0100
0001
0010
,  // measure 30
0100
1000
0100
1000
0001
0010
0001
0010
,  // measure 31
0100
1000
0010
0100
1001
0000
0MM0
0000
,  // measure 32
0110
0000
1000
0100
0010
0100
1000
0100
,  // measure 33
0010
0000
0001
0000
0010
0000
0100
0000
1000
0000
0100
0000
0010
0000
0001
0100
,  // measure 34
0010
0100
0001
0100
0010
0100
0001
1000
,  // measure 35
0001
0010
0001
0010
0100
1000
0100
1000
,  // measure 36
0010
0100
0010
1000
0010
0100
0010
1000
,  // measure 37
0001
0000
0010
0000
0100
0000
0010
0000
0001
0000
0010
0000
0100
0000
1000
0100
,  // measure 38
0020
0001
1000
0130
,  // measure 39
0012
0000
0000
0000
0103
0000
0000
0000
1010
0000
0000
0001
1000
0000
1MM1
0000
,  // measure 40
1000
0100
0001
0100
1000
0100
0001
0100
,  // measure 41
1000
0000
0010
0000
0001
0000
0010
0000
1000
0000
0010
0000
0001
0000
0010
1000
,  // measure 42
0001
0100
1000
0100
0001
0100
1000
0100
,  // measure 43
0001
0010
0001
0010
0100
1000
0100
1000
,  // measure 44
0001
0010
1000
0010
0001
0010
1000
0010
,  // measure 45
0001
0000
1000
0000
0100
0000
0001
0000
0100
0000
1000
0000
0010
0000
1000
0010
,  // measure 46
0200
0001
1000
0310
,  // measure 47
0102
0000
1000
1003
1001
0000
0MM0
0000
,  // measure 48
1000
0000
0100
0000
0010
0000
0000
0100
0000
0100
0000
1000
0100
0000
1000
0000
,  // measure 49
0001
0000
0100
0000
0010
0000
0000
0100
0000
0100
0000
0001
0010
0000
0100
0000
,  // measure 50
1000
0000
0001
0100
0000
0000
0010
0000
1000
0000
0001
0010
0000
0000
0100
0000
,  // measure 51
0010
0000
0010
0100
0000
1000
0000
0001
1000
0000
0100
0000
0010
0001
0010
0001
,  // measure 52
0010
0000
0100
0000
1000
0000
0000
0001
0000
0100
0000
0010
0100
0000
0001
0000
,  // measure 53
0010
0000
0010
0000
0100
0000
0000
1000
0000
1000
0000
0100
0010
0000
0100
0000
,  // measure 54
1000
0000
0001
0100
0000
0000
0001
0000
0010
0000
0100
1000
0000
0000
0001
0000
,  // measure 55
0100
0000
0100
0010
0000
1000
0000
0001
0100
0000
0001
1000
0000
0000
0000
0000
,  // measure 56
0100
0000
0100
0000
1100
0000
0000
0010
0000
0001
0000
0010
0001
0000
0100
0000
,  // measure 57
0010
0000
0010
0000
0110
0000
0000
1000
0000
1000
0000
0001
1000
0000
0100
0000
,  // measure 58
0010
0000
0010
0100
0000
0000
1000
0000
0010
0000
0010
0100
0000
0000
0001
0000
,  // measure 59
1000
0000
1000
0100
0000
1000
0000
0001
0100
0000
0001
0000
1000
0010
1000
0010
,  // measure 60
1000
0000
1000
0000
1001
0000
0000
0001
0000
1000
0000
0100
0010
0000
0100
0000
,  // measure 61
0010
0000
0010
0000
0011
0000
0000
1000
0000
1000
0000
0100
1000
0000
0001
0000
,  // measure 62
0100
0000
0100
0010
0000
0000
1000
0000
0001
0000
0001
0010
0000
0000
0100
0000
,  // measure 63
1000
0000
1000
0001
0000
0100
0000
0010
1000
0000
0100
0020
0000
0000
0000
0000
,  // measure 64
0030
0000
0000
0000
;
