#TITLE:Night of the Demon;
#SUBTITLE:;
#ARTIST:Christian Bjorklund;
#TITLETRANSLIT:;
#SUBTITLETRANSLIT:;
#ARTISTTRANSLIT:;
#GENRE:;
#CREDIT:;
#BANNER:nightofthedemonbn.png;
#BACKGROUND:nightofthedemonbg.png;
#LYRICSPATH:;
#CDTITLE:;
#MUSIC:nightofthedemon.ogg;
#OFFSET:-0.023595;
#SAMPLESTART:30.699280;
#SAMPLELENGTH:17.999998;
#SELECTABLE:YES;
#BPMS:0.000000=93.760002
;
#STOPS:
;
#BGCHANGES:16.000=bluelines.mp4=1.000=1=0=1=SongBgWithMovieViz==CrossFade==,
24.000=bluelines.mp4=1.000=1=0=1===CrossFade==,
48.000=bluecurtains.mp4=1.000=1=1=1=StretchRewind==CrossFade==,
64.000=bluestarsflyup.mp4=1.000=1=1=1=StretchRewind==CrossFade==,
96.000=bluecurtains.mp4=1.000=1=0=1===CrossFade==,
134.000=nightofthedemonbg.png=1.000=0=0=1===CrossFade_Faster==,
136.000=flash=2.000=0=0=1====#0000FF=,
136.250=bluelines.mp4=1.000=0=0=1=====,
152.000=bluestarsflyup.mp4=1.000=1=0=1===CrossFade==,
166.000=nightofthedemonbg.png=1.000=0=0=1===CrossFade_Faster==,
99999=-nosongbg-=1.000=0=0=0 // don't automatically add -songbackground-
;
#KEYSOUNDS:;
#ATTACKS:;

//---------------dance-single - C. Picardy----------------
#NOTES:
     dance-single:
     :
     Beginner:
     1:
     0.070432,0.095349,0.018605,0.046512,0.000000,53.000000,51.000000,2.000000,5.000000,1.000000,0.000000,0.070432,0.095349,0.018605,0.046512,0.000000,53.000000,51.000000,2.000000,5.000000,1.000000,0.000000:
0000
0000
0000
0000
,
0000
0000
0000
0000
,
0000
0000
0000
0000
,
0000
0000
0000
0000
,
0100
0000
0000
0000
,
0000
0000
0000
0000
,
0001
0000
0000
0000
,
1000
0000
0000
0000
,
0100
0000
0100
0000
,
0100
0000
0000
0000
,
0010
0000
0010
0000
,
0010
0000
0000
0000
,
0001
0000
0001
0000
,
0001
0000
0000
0000
,
1000
0000
1000
0000
,
1000
0000
0000
0000
,
1000
0000
0001
0000
,
1000
0000
0001
0000
,
0100
0000
0010
0000
,
0100
0000
0010
0000
,
0200
0000
0000
0300
,
0020
0000
0000
0030
,
0110
0000
0000
0000
,
0100
0000
0000
0000
,
1000
0000
0100
0000
,
1000
0000
0100
0000
,
0010
0000
0001
0000
,
0010
0000
0001
0000
,
2000
0000
0000
3000
,
0002
0000
0000
0003
,
1001
0000
0000
0000
,
0100
0000
0000
0000
,
0010
0000
0000
0000
,
0100
0000
0200
0000
,
03M0
0000
0000
0000
,
1000
0000
0000
0000
,
0001
0000
0000
0000
,
1000
0000
0000
0000
,
0001
0000
0001
0000
,
0001
0000
0000
0000
,
1000
0000
1000
0000
,
1000
0000
0000
0000
;

//---------------dance-single - C. Picardy----------------
#NOTES:
     dance-single:
     :
     Challenge:
     10:
     0.699003,0.739012,0.372093,0.502326,0.967442,526.000000,486.000000,40.000000,54.000000,88.000000,4.000000,0.699003,0.739012,0.372093,0.502326,0.967442,526.000000,486.000000,40.000000,54.000000,88.000000,4.000000:
0000
0000
0000
0000
,
0000
0000
0000
0000
,
2000
0000
0000
0000
0001
0000
3001
1000
0002
0000
0000
0000
1003
0000
0002
0000
0000
0000
0000
0000
1003
0000
0000
0000
0000
0000
MMMM
0000
0000
0000
0000
0000
,
0200
0000
0000
0000
0010
0300
0100
0010
0200
0000
0000
0000
0310
0000
0002
0000
0000
0000
0000
0000
0203
0000
0000
0000
000M
0000
0320
0000
0M00
0000
0000
0000
,
2030
0000
0000
0000
01M0
0000
3100
0010
0200
0000
0000
0000
1300
0000
0020
0000
0000
0000
0000
0000
0130
0000
0000
0000
0000
0000
MMMM
0000
0000
0000
0000
0000
,
0002
0000
0000
0000
1000
0000
1003
0001
0200
0000
0000
0000
0010
0300
0200
0000
0000
0000
0000
0000
0302
0000
0000
0000
0M00
0000
1003
0000
0000
0000
M00M
0000
,
0010
0100
0001
0000
1000
0000
0001
0100
0010
0100
0001
0000
1000
0000
10MM
0100
,
1000
1000
01MM
1000
1000
0100
01MM
1000
0000
0001
0010
0000
1001
0000
0101
0000
,
1000
0100
0010
0000
1100
0000
0001
0100
0010
0100
0001
0000
1100
0000
0101
0000
,
1000
0000
0010
0000
0100
0000
0000
0000
1010
0000
0000
0000
0001
0000
0010
0000
0100
0000
0010
0000
0001
0000
0000
0000
1010
0000
0000
0000
0100
0000
0010
0100
,
0010
1000
0MM0
0000
1001
0000
1000
0100
0010
0100
1000
0000
0101
0000
0110
0000
,
1000
0000
0010
0000
0100
0000
0000
0000
1001
0000
0000
0000
0100
0000
0010
0000
1000
0000
0001
0000
0100
0000
0000
0000
0110
0000
0000
0000
1000
0000
0001
1000
,
0001
1000
M00M
0000
0110
0000
1000
0010
0001
0010
1000
0000
0101
0000
1100
0000
,
0001
0000
0100
0000
1000
0000
0000
0000
0101
0000
0000
0000
0001
0000
0100
0000
1000
0000
0100
0000
0001
0000
0000
0000
1100
0000
0000
0000
1000
0000
0100
0010
,
0001
1000
M00M
0000
0011
0000
0001
0010
1000
0010
0001
0000
0101
0000
0110
0000
,
1000
0000
0100
0000
0001
0000
0000
0000
1100
0000
0000
0000
1000
0000
0100
0000
0001
0000
0100
0000
2000
0000
0000
0000
3010
0000
0200
0000
0000
0000
0301
0100
,
00M1
0100
M100
0001
01M0
0001
M001
0100
00M1
0100
M001
0001
01M0
0001
M100
0100
,
0M10
1000
001M
0010
1M00
1000
001M
1000
0M10
1000
100M
0010
0M10
1000
100M
0010
,
1M00
1000
01M0
1000
100M
0100
01M0
1000
010M
0100
10M0
1000
010M
1000
01M0
0100
,
100M
0001
1M00
1000
00M1
1000
1M00
0001
00M1
1000
0M01
0001
10M0
1000
0M01
1000
,
00M1
0100
0020
0000
1030
0000
0100
2000
0000
3100
0010
0000
0210
0000
0010
0000
,
1300
0000
0001
0000
0200
0000
0000
0000
0310
0000
0000
0000
1000
0000
0002
0000
0000
0000
0100
0003
0001
0000
0000
0000
0100
0010
0100
0010
0100
0000
0000
0000
,
0001
0010
0100
2000
0000
0000
0010
0010
0000
0001
3001
0000
0011
0000
0110
0000
,
1000
0100
1000
0100
2000
0000
3002
0200
0000
0000
0010
0000
0000
1000
0303
0000
,
00M1
M100
0010
0100
100M
0100
0010
0100
M001
0100
0010
0100
100M
0100
0010
1000
,
01M0
0001
0100
0010
M100
1000
0100
0001
01M0
0010
0100
0001
010M
1000
0100
0010
,
M001
0010
0100
0010
100M
0010
0100
0010
M001
0010
1000
0010
010M
0010
0001
0010
,
0001
0010
0100
1000
0001
1000
0100
0010
0001
0100
0010
0100
0001
1000
0100
0010
,
0001
0000
0100
0000
0020
0000
0000
0000
1030
0000
0000
0000
0001
0000
2000
0000
0000
0000
0010
3000
1000
0000
0000
0000
0021
0000
0000
0000
0100
0000
0000
0000
,
1030
0000
0100
0000
0020
0000
0000
0000
0001
0000
0000
0000
1030
0000
0020
0000
0000
0000
0001
0000
0130
0000
0000
0000
0010
1000
0010
1000
0010
0000
0000
0000
,
1000
0100
0010
0002
0000
0000
1000
1000
0000
0100
0103
0000
0110
0000
0110
0000
,
0001
0010
0001
0010
0002
0000
2003
0200
0000
0000
0010
0000
0000
0001
3300
0000
,
0001
0100
1000
0100
0002
0000
0100
0023
0000
1030
0100
0000
1100
0000
1100
0000
,
0001
0000
0010
0000
0100
0000
1000
0000
0002
0000
0000
0000
1003
0000
0001
0000
M10M
0010
0100
0010
M10M
0010
0100
0010
M10M
0010
0100
0010
M10M
0010
0100
0010
,
2000
0001
0000
3000
2100
0000
0001
3100
1000
0100
0010
0000
0120
0000
0001
0000
,
1030
0000
0100
0000
0010
0000
0000
0000
0120
0000
0000
0000
0100
0000
0031
0000
0100
0000
1000
0000
0020
0000
0000
0000
0001
0000
0000
0000
1030
0000
0001
0100
,
0001
0000
0010
0000
0000
00MM
0000
0000
1020
0000
0000
0000
1000
0000
0130
0000
0010
0000
0100
0000
1000
0000
0000
0000
0201
0000
0000
0000
1000
0000
0000
0000
,
0310
0000
1000
0000
0100
0000
0000
0000
0021
0000
0000
0000
1000
0000
0031
0000
0100
0000
0010
0000
0001
0000
0000
0000
2100
0000
0000
0000
0010
0000
3100
0010
,
0100
0010
0MM0
0000
2001
0000
0001
3100
1000
0100
0020
0000
1000
0000
0001
0000
,
1030
0000
0100
0000
0010
0000
0000
0000
0012
0000
0000
0000
1000
0000
0103
0000
0001
0000
0100
0000
0020
0000
0000
0000
1000
0000
0000
0000
0031
0000
1000
0100
,
1000
0001
M00M
0000
0210
0000
0001
0310
0100
0010
0002
0000
1000
0000
0100
0000
,
1003
0100
M00M
0000
2001
0000
0001
3100
0010
0100
0001
0000
0010
0100
0000
0000
;

//---------------dance-single - C. Picardy----------------
#NOTES:
     dance-single:
     :
     Hard:
     8:
     0.477076,0.504884,0.093023,0.232558,0.362791,359.000000,349.000000,10.000000,25.000000,40.000000,7.000000,0.477076,0.504884,0.093023,0.232558,0.362791,359.000000,349.000000,10.000000,25.000000,40.000000,7.000000:
0000
0000
0000
0000
,
0000
0000
0000
0000
,
2000
0000
0000
0000
3001
0000
1000
0001
0000
0000
1000
0000
0000
0000
0000
0000
,
0020
0000
0000
0000
0130
0000
0010
0100
0000
0000
0001
0000
0000
1000
0000
0000
,
0200
0000
0000
0310
0100
0000
1000
0002
0000
0000
1003
0000
0000
0000
0000
0000
,
0020
0000
0000
0130
0010
0000
1000
0002
0000
0000
0023
0000
0000
0230
0000
0000
,
130M
0100
1000
0000
01M0
0000
1000
0000
010M
1000
0100
0000
10M0
0000
0001
0000
,
M100
0001
0000
0100
00M1
0100
0000
0001
M000
0100
0001
0000
01M1
0000
0101
0000
,
1000
0010
1000
0000
0001
0000
1000
0000
0001
0100
0001
0000
1000
0000
0010
0000
,
1000
0100
1000
0000
0001
0000
0100
0000
0001
0010
0001
0000
1000
0000
1000
0000
,
0001
1000
0100
0000
1000
0000
0100
0000
0010
0100
1000
0000
0001
0000
0100
0000
,
0010
1000
0100
0000
0010
0000
0001
0000
1000
0010
0100
0000
0001
0000
1000
0000
,
0001
0100
1000
0000
0100
0000
0001
0000
1000
0100
0001
0000
0100
0000
1000
0000
,
0010
0001
0010
0000
1000
0000
0001
0000
0100
1000
0100
0000
0001
0000
0010
0000
,
0100
0010
0001
0000
0011
0000
1000
0000
0001
0100
0010
0000
0110
0000
0100
0000
,
0001
1000
0100
0000
0110
0000
0100
0000
1000
0100
0010
0000
0100
1000
0000
0001
,
010M
0010
1000
0000
100M
0010
0100
0000
010M
0010
1000
0000
100M
0010
0100
0000
,
M001
0010
0100
0000
M100
0010
0001
0000
M001
0010
0100
0000
M100
0010
0001
0000
,
10M0
0001
0100
0000
00M1
1000
0100
0000
10M0
0001
0100
0000
00M1
1000
0100
0000
,
0M10
0001
1000
0000
0M10
1000
0001
0000
0M10
0001
1000
0000
0M10
0100
0001
1000
,
0002
0000
0100
0203
0000
0010
0320
0000
,
1000
2030
0100
0100
3100
0010
0100
1001
,
1000
0000
0001
0200
0000
0000
0010
0000
0000
0000
0001
0000
0010
0000
0310
0000
,
2000
0200
0000
0000
0010
0000
0000
0000
0001
0000
0000
0000
0011
0000
3300
0000
,
10M0
0100
0001
0000
00M1
0100
1000
0000
10M0
0100
0001
0000
00M1
0100
1000
0000
,
1M00
0010
0001
0000
0M01
0010
1000
0000
1M00
0010
0001
0000
0M01
0010
1000
0000
,
00M1
0100
1000
0000
10M0
0100
0001
0000
00M1
0100
1000
0000
10M0
0100
0001
0000
,
0M01
0010
1000
0000
1M00
0010
0001
0000
0M01
0010
1000
0000
1M00
0010
0100
0010
,
0002
0000
1000
2003
0000
0010
3020
0000
,
0100
0230
0001
0001
0301
0100
0010
1001
,
0100
0000
0100
0020
0000
0000
0100
0000
0000
0000
0001
0000
0100
0000
0130
0000
,
0010
0002
0000
0000
0200
0000
0000
0000
0010
0000
0000
0000
1000
0000
0303
0000
,
0002
2000
0000
0000
0010
0000
0003
0000
0002
0000
0000
0000
0010
0000
3003
0000
,
1001
0000
0000
0000
0100
0000
0001
1000
0004
4000
0000
0000
0000
0000
0000
0000
,
3003
0100
0010
0100
0001
0100
0010
0010
,
1000
0100
0010
0100
1000
0100
0010
0010
,
0100
0010
0100
0000
1000
0000
0001
0000
0100
0000
0001
0000
1000
0000
1000
0000
,
0001
0010
0100
0010
0001
0010
0100
0100
,
1000
0100
1000
0000
0100
0000
0001
0000
0100
0000
0010
0000
0001
0000
0001
0000
,
0100
1000
0100
0010
1000
0100
0001
0001
,
0100
1000
0010
0000
0100
0000
0010
0000
1000
0000
0001
0000
1000
0000
0001
0000
,
0100
0000
0001
0000
0100
0000
0001
0000
1000
0100
0000
0000
1001
0000
0000
0000
;

//---------------dance-single - C. Picardy----------------
#NOTES:
     dance-single:
     :
     Easy:
     3:
     0.241860,0.271860,0.083721,0.158140,0.000000,182.000000,173.000000,9.000000,17.000000,6.000000,0.000000,0.241860,0.271860,0.083721,0.158140,0.000000,182.000000,173.000000,9.000000,17.000000,6.000000,0.000000:
0000
0000
0000
0000
,
0000
0000
0000
0000
,
2000
0000
3000
0000
,
0002
0000
0003
0000
,
0100
0000
0010
0000
,
0100
0000
0010
0000
,
1000
0001
1000
0100
,
0010
0000
0100
0000
0010
0000
0100
0100
,
0200
1000
0010
0310
,
0002
1000
0100
0010
,
0023
0001
0100
0031
,
2000
0010
0001
3100
,
0020
0000
0130
0000
0001
0000
1000
1000
,
2000
0000
3010
0000
0100
0000
0001
0001
,
0002
0000
0013
0000
0100
0000
0010
0010
,
0020
0031
1001
0110
,
0001
0000
0100
0000
0001
0100
0001
0000
,
1000
0000
0010
0000
1000
0010
1000
0000
,
0100
0000
0010
0000
0100
0010
0100
0000
,
1000
0000
0001
0000
1000
0001
1000
0001
,
0200
0010
0001
0310
,
2000
0000
0010
0000
3100
0000
0010
0010
,
0110
0000
1000
0000
0001
0000
1000
1000
,
0010
0100
0110
1MM1
,
0100
0000
0001
0000
0010
0100
1000
0000
,
0001
0000
0100
0000
0010
1000
0100
0000
,
0010
0000
0001
0000
1000
0100
0010
0000
,
0001
0000
1000
0000
0010
0100
0001
0100
,
0002
1000
0100
0013
,
0200
0000
0001
0000
0310
0000
1000
1000
,
1001
0000
0100
0000
0010
0000
1000
0001
,
0100
0010
1001
M11M
,
0001
0000
1000
0000
0100
0000
0010
0010
,
0100
1000
0220
0000
,
M33M
0000
0001
0000
1000
0000
0010
0100
,
0010
0000
1000
0000
0001
0000
1000
0100
,
1000
0000
0010
0000
0100
0000
0001
0010
,
0001
0000
1000
0000
0010
0000
0100
0010
,
0100
0000
1000
0000
0001
0000
0100
0010
,
1000
0000
0100
0000
0010
0000
0001
0010
,
0100
0000
1000
0000
0010
0000
1000
0001
,
0100
0010
0200
0300
;

//---------------dance-single - C. Picardy----------------
#NOTES:
     dance-single:
     :
     Medium:
     5:
     0.333555,0.350058,0.102326,0.139535,0.074419,251.000000,240.000000,11.000000,15.000000,14.000000,0.000000,0.333555,0.350058,0.102326,0.139535,0.074419,251.000000,240.000000,11.000000,15.000000,14.000000,0.000000:
// measure 0
0000
0000
0000
0000
,  // measure 1
0000
0000
0000
0000
,  // measure 2
2000
0000
0000
0000
0000
0000
0000
3001
0000
0000
0000
0000
0000
0000
0000
0000
,  // measure 3
0200
0000
0000
0000
0000
0000
0000
0310
0000
0000
0000
0000
0000
0000
0000
0000
,  // measure 4
0002
0000
0000
0000
1000
0000
0000
1003
0000
0000
0000
0000
0000
0000
0000
0000
,  // measure 5
0200
0000
0000
0000
0010
0000
0000
0310
0000
0000
0001
0000
0000
0001
0000
0000
,  // measure 6
0001
0000
0100
0000
0010
0100
0001
0000
,  // measure 7
1000
0100
1000
0010
1000
0001
1000
1000
,  // measure 8
0010
0000
0100
0000
0001
0100
0001
0001
,  // measure 9
0010
0000
0100
0000
1000
0100
1000
1000
,  // measure 10
0010
0000
0100
0000
0001
1000
0001
0001
,  // measure 11
0010
0000
0100
0000
0010
0100
1000
1000
,  // measure 12
0001
0000
0100
0000
0010
1000
0010
0100
,  // measure 13
0010
0000
1000
0000
0001
0010
0100
0010
,  // measure 14
0001
0000
1000
0000
0010
1000
0100
1000
,  // measure 15
0010
0000
0000
0000
0100
0000
0000
0000
0000
0010
0100
0000
0010
0100
0000
0000
,  // measure 16
0001
0100
0010
0100
0001
0001
0100
0000
,  // measure 17
0010
1000
0010
1000
0100
0100
1000
0000
,  // measure 18
0001
0010
0001
0001
0010
0001
0010
0000
,  // measure 19
0100
1000
0100
0100
1000
1000
0100
0000
,  // measure 20
0020
0000
0001
0032
0000
0100
0203
0000
,  // measure 21
0010
0320
0000
1000
1030
0000
0001
M1M1
,  // measure 22
1000
2000
0000
0010
0000
0001
0001
3001
,  // measure 23
0100
0000
0000
0000
0010
0000
0000
1000
0000
0000
1000
0000
0000
1000
0000
0000
,  // measure 24
0100
0010
0100
0100
0010
0001
0010
0000
,  // measure 25
0001
0100
0001
0001
0100
0010
0100
0000
,  // measure 26
0010
1000
0010
0010
1000
0010
1000
0000
,  // measure 27
0100
0010
0100
0100
0010
0001
1000
0100
,  // measure 28
0020
0000
0031
0200
0000
0310
2000
0000
,  // measure 29
3100
0020
0000
0130
1000
0000
0001
MM11
,  // measure 30
0001
0200
0000
0010
0000
0001
0001
0301
,  // measure 31
1000
0000
0000
0000
0010
0000
0000
0100
0000
0000
0001
0000
0000
1000
0000
0000
,  // measure 32
1100
0000
0000
0000
0010
0000
MM00
0010
0000
0000
0001
0000
0001
0000
0001
0000
,  // measure 33
1000
0000
0000
0000
0001
0000
0000
0200
0000
0000
0010
0000
0000
0010
0300
0000
,  // measure 34
1001
0000
0100
0001
0010
0001
0100
0100
,  // measure 35
0110
0000
1000
0001
1000
0100
1000
1000
,  // measure 36
1010
0000
0100
0010
0100
0001
1000
1000
,  // measure 37
0101
0000
1000
0001
0010
0100
1000
0100
,  // measure 38
1MM1
0000
0010
0001
0100
0010
0100
0100
,  // measure 39
1M1M
0000
1000
0001
1000
0100
0010
0010
,  // measure 40
MM11
0000
1000
0001
0100
0010
0100
0100
,  // measure 41
1MM1
0000
0000
0000
1000
0000
0001
1000
0000
0000
0001
0000
0000
1000
0000
0000
;
