#VERSION:0.83;
#TITLE:Next of Kin Showdown;
#SUBTITLE:;
#ARTIST:Das Mortal;
#TITLETRANSLIT:;
#SUBTITLETRANSLIT:;
#ARTISTTRANSLIT:;
#GENRE:;
#ORIGIN:;
#CREDIT:;
#BANNER:nextofkinshowdownbn.png;
#BACKGROUND:nextofkinshowdownbg.png;
#PREVIEWVID:;
#JACKET:;
#CDIMAGE:;
#DISCIMAGE:;
#LYRICSPATH:;
#CDTITLE:;
#MUSIC:nextofkinshowdown.ogg;
#OFFSET:0.006375;
#SAMPLESTART:54.064846;
#SAMPLELENGTH:12.000000;
#SELECTABLE:YES;
#BPMS:0.000=142.000;
#STOPS:;
#DELAYS:;
#WARPS:;
#TIMESIGNATURES:0.000=4=4;
#TICKCOUNTS:0.000=4;
#COMBOS:0.000=1;
#SPEEDS:0.000=1.000=0.000=0;
#SCROLLS:0.000=1.000;
#FAKES:;
#LABELS:0.000=Song Start;
#BGCHANGES:0.000=redabstract.mp4=1.000=1=0=1=SongBgWithMovieViz==CrossFade==,
15.500=flash=2.000=0=0=1====#FF0000=,
15.750=redabstract.mp4=1.000=0=0=1=SongBgWithMovieViz====,
16.000=flash=2.000=0=0=1====#FF0000=,
16.250=redabstract.mp4=1.000=0=0=1=SongBgWithMovieViz====,
24.000=flash=2.000=0=0=1====#FF0000=,
24.250=redabstract.mp4=1.000=0=0=1=SongBgWithMovieViz====,
32.000=redabstract.mp4=1.000=0=0=1===CrossFade_Fastest==,
48.000=highest.mp4=1.000=0=0=1===CrossFade_Fastest==,
64.000=loopmotionreddots.mp4=1.000=0=0=1===SlideUp==,
96.000=redbackground.mp4=1.000=0=0=1===SlideLeft==,
128.000=redlines.mp4=1.000=0=0=1===SlideRight==,
176.000=redtiles.mp4=1.000=0=0=1===CrossFade_Fastest==,
192.000=redspringparticles.mp4=1.000=0=0=1=SongBgWithMovieViz==CrossFade_Fastest==,
200.000=flash=2.000=0=0=1====#FF0000=,
200.250=highest.mp4=1.000=0=0=1=====,
216.000=loopmotionreddots.mp4=1.000=0=0=1===CrossFade_Fastest==,
232.000=redabstract.mp4=1.000=0=0=1===CrossFade_Fastest==,
256.000=redbackground.mp4=1.000=0=0=1===CrossFade_Fastest==,
271.500=flash=2.000=0=0=1====#FF0000=,
271.750=nextofkinshowdownbg.png=1.000=0=0=1=====,
99999=-nosongbg-=1.000=0=0=0 // don't automatically add -songbackground-
;
#KEYSOUNDS:;
#ATTACKS:
;

//---------------dance-single - C. Picardy----------------
#NOTEDATA:;
#CHARTNAME:;
#STEPSTYPE:dance-single;
#DESCRIPTION:C. Picardy;
#CHARTSTYLE:;
#DIFFICULTY:Beginner;
#METER:1;
#RADARVALUES:0.102962,0.174392,0.068641,0.000000,0.000000,84.000000,76.000000,8.000000,0.000000,0.000000,0.000000,0.000000,0.000000,0.000000,0.102962,0.174392,0.068641,0.000000,0.000000,84.000000,76.000000,8.000000,0.000000,0.000000,0.000000,0.000000,0.000000,0.000000;
#CREDIT:C. Picardy;
#NOTES:
0000
0000
0000
0000
,
0000
0000
0000
0000
,
0000
0000
0000
0000
,
0000
0000
0000
0000
,
1001
0000
0000
0000
,
0000
0000
0000
0000
,
1001
0000
0000
0000
,
0010
0000
0000
0000
,
0010
0000
0000
0000
,
1000
0000
0000
0000
,
0001
0000
0000
0000
,
0100
0000
0000
0000
,
0010
0000
0000
0000
,
0001
0000
0000
0000
,
1000
0000
0000
0000
,
0000
0000
0000
0000
,
0100
0000
0100
0000
,
0100
0000
0000
0000
,
0010
0000
0010
0000
,
0010
0000
0000
0000
,
1000
0000
1000
0000
,
1000
0000
0000
0000
,
0001
0000
0001
0000
,
0001
0000
0000
0000
,
0100
0000
0000
0000
,
0010
0000
0000
0000
,
1000
0000
0000
0000
,
0001
0000
0000
0000
,
1001
0000
0000
0000
,
1001
0000
0000
0000
,
1001
0000
0000
0000
,
1001
0000
0000
0000
,
0100
0000
0100
0000
,
0100
0000
0000
0000
,
0010
0000
0010
0000
,
0010
0000
0000
0000
,
1000
0000
1000
0000
,
1000
0000
0000
0000
,
0001
0000
0001
0000
,
0001
0000
0000
0000
,
1001
0000
0000
0000
,
0100
0000
0000
0000
,
0010
0000
0000
0000
,
1000
0000
0000
0000
,
0001
0000
0001
0000
,
0001
0000
0000
0000
,
1000
0000
1000
0000
,
1000
0000
0000
0000
,
0001
0000
0000
0000
,
0000
0000
0000
0000
,
1001
0000
0000
0000
,
0010
0000
0000
0000
,
0100
0000
0100
0000
,
0100
0000
0000
0000
,
0010
0000
0010
0000
,
0010
0000
0000
0000
,
1000
0000
0000
0000
,
0001
0000
0000
0000
,
1000
0000
0000
0000
,
0001
0000
0000
0000
,
0100
0000
0000
0000
,
0010
0000
0000
0000
,
0100
0000
0000
0000
,
0010
0000
0000
0000
,
1000
0000
1000
0000
,
1000
0000
0000
0000
,
0001
0000
0001
0000
,
0001
0000
0000
0100
;

//---------------dance-single - C. Picardy----------------
#NOTEDATA:;
#CHARTNAME:;
#STEPSTYPE:dance-single;
#DESCRIPTION:C. Picardy;
#CHARTSTYLE:;
#DIFFICULTY:Easy;
#METER:4;
#RADARVALUES:0.338303,0.437186,0.437588,0.300305,0.000000,276.000000,225.000000,51.000000,35.000000,0.000000,0.000000,0.000000,0.000000,0.000000,0.338303,0.437186,0.437588,0.300305,0.000000,276.000000,225.000000,51.000000,35.000000,0.000000,0.000000,0.000000,0.000000,0.000000;
#CREDIT:C. Picardy;
#NOTES:
0000
0000
0000
0000
,
0000
0000
0000
0000
,
0000
0000
0000
0000
,
0000
0000
0000
0000
,
0220
0000
0000
0000
,
0000
0000
0330
0000
,
2002
0000
0000
3003
,
0100
0000
0100
0100
,
0010
1000
0100
1000
,
0010
0100
0001
0010
,
0001
0100
0010
0100
,
0001
0010
0100
1000
,
0010
0100
0010
1000
,
0001
0010
0100
0010
,
0001
0100
0010
2000
,
0000
0001
3001
1001
,
0100
0010
1000
0101
,
1000
0100
0010
1100
,
0001
1000
0100
0011
,
1000
0010
0100
1010
,
0001
1000
0100
0110
,
0001
1000
0010
0110
,
1000
0001
0100
0101
,
0010
0001
0100
1100
,
1002
0100
1000
1003
,
2001
0010
0001
3001
,
1200
0010
1000
1300
,
0021
0100
0001
0031
,
0102
0010
1000
0103
,
0120
0001
0100
1030
,
1200
0010
0001
1300
,
2010
0001
0100
3010
,
0100
0010
0100
0001
,
1000
0100
0010
0001
,
1000
1010
0100
0110
,
0001
0011
1000
1100
,
0010
0100
0001
0010
,
0001
1000
0100
0010
,
0100
1100
0001
0101
,
1000
1010
0001
0011
,
2000
0001
0001
0010
,
0100
0100
0010
3001
,
0100
1001
0000
0110
,
0000
1001
0100
0010
,
0012
0010
0010
0013
,
2100
0100
0100
3100
,
0120
0100
0100
0130
,
0011
0101
1010
0110
,
2002
0000
0000
0000
,
0000
0000
3003
0010
,
0100
0010
1000
0001
,
0010
0100
0010
0001
,
1000
1000
0010
0010
,
1000
1000
0001
0001
,
1100
0010
0001
0101
,
0001
0100
1000
0110
,
1000
0010
0001
1010
,
0100
0010
0001
1100
,
1000
0100
0001
0011
,
0001
0010
0100
1010
,
0001
0010
1000
0101
,
0001
0100
1000
0110
,
0000
2020
3030
0022
,
0033
2200
3300
2001
,
3020
0000
0230
0000
,
0302
0000
2003
0000
,
3200
0000
0320
0000
,
0032
0000
0000
0000
0000
0000
0000
0000
2003
0000
0000
0000
0020
0000
0000
3030
;

//---------------dance-single - C. Picardy----------------
#NOTEDATA:;
#CHARTNAME:;
#STEPSTYPE:dance-single;
#DESCRIPTION:C. Picardy;
#CHARTSTYLE:;
#DIFFICULTY:Medium;
#METER:6;
#RADARVALUES:0.424105,0.465902,0.291725,0.223084,0.008580,346.000000,312.000000,34.000000,26.000000,0.000000,0.000000,0.000000,0.000000,0.000000,0.424105,0.465902,0.291725,0.223084,0.008580,346.000000,312.000000,34.000000,26.000000,0.000000,0.000000,0.000000,0.000000,0.000000;
#CREDIT:C. Picardy;
#NOTES:
// measure 0
0000
0000
0000
0000
,  // measure 1
0000
0000
0000
0000
,  // measure 2
0000
0000
0000
0000
,  // measure 3
0000
0000
0000
0000
0000
0000
0000
0100
,  // measure 4
0010
0000
1000
0000
,  // measure 5
0001
0000
1000
0000
,  // measure 6
1100
0000
0010
0000
,  // measure 7
0010
0000
0000
0100
0010
0000
1001
0000
,  // measure 8
0100
0010
0100
0000
0010
0100
0010
0000
,  // measure 9
1000
0001
1000
0000
0001
1000
0001
0000
,  // measure 10
1000
0100
1000
0000
0001
0100
0001
0000
,  // measure 11
1000
0010
1000
0000
0001
0010
0001
0000
,  // measure 12
1000
0100
0001
0000
0001
0100
1000
0000
,  // measure 13
1000
0010
0001
0000
0001
0010
1000
0000
,  // measure 14
0001
0100
1000
0000
1000
0100
0002
0000
,  // measure 15
0000
0000
1000
1000
0000
1000
1003
0000
,  // measure 16
0010
1000
0100
0000
0010
0000
1100
0000
,  // measure 17
0001
0100
0010
0000
0100
0000
0011
0000
,  // measure 18
1000
0100
0010
0000
0100
0000
1010
0000
,  // measure 19
0100
0001
0010
0000
0001
0000
0101
0000
,  // measure 20
1000
0010
0100
0000
0001
0000
1100
0000
,  // measure 21
0010
0100
0001
0000
0010
0000
0101
0000
,  // measure 22
1000
0100
0010
0000
0001
0000
0110
0000
,  // measure 23
0010
0100
1000
0000
0010
0000
1001
0000
,  // measure 24
0001
0100
0001
0100
0010
0000
0101
0000
,  // measure 25
1000
0100
1000
0100
0010
0000
1100
0000
,  // measure 26
0010
0100
0001
0100
0001
0000
1010
0000
,  // measure 27
0100
0010
0100
0010
0001
0000
0011
0000
,  // measure 28
1000
0100
0010
0100
1000
0000
0110
0000
,  // measure 29
0001
0100
0010
0100
0001
0000
0110
0000
,  // measure 30
1000
0001
0100
0010
0100
0000
1001
0000
,  // measure 31
0001
1000
0100
0010
0100
0000
1001
0000
,  // measure 32
0120
0000
0100
0000
0230
0000
0010
0010
,  // measure 33
0300
0000
0100
0020
0000
0000
1000
1030
,  // measure 34
0002
0000
1000
0000
0013
0000
0010
0002
,  // measure 35
0000
0000
1000
2003
0000
0000
3010
0000
,  // measure 36
2001
0000
0100
0000
3002
0000
0010
0023
,  // measure 37
0000
0000
0130
2000
0000
0000
0001
3001
,  // measure 38
0200
0000
0001
0000
0310
0000
0010
0020
,  // measure 39
0000
0000
1000
2030
0000
0000
3001
0000
,  // measure 40
0010
1010
0001
0011
,  // measure 41
1000
0000
1100
0000
0010
0000
0100
0010
,  // measure 42
0100
1001
0010
1001
,  // measure 43
0100
0000
1000
0000
0001
0000
1000
0100
,  // measure 44
0020
0000
0001
0000
0100
0000
0031
0100
,  // measure 45
0020
0000
1000
0000
0100
0000
1030
1000
,  // measure 46
0200
0000
0010
0000
1300
0000
0100
0010
,  // measure 47
0001
0000
0000
0001
0000
0000
1000
0000
0000
1000
0000
0000
0101
0000
0000
0000
,  // measure 48
2100
0000
0000
0000
0010
0000
0001
0001
,  // measure 49
0000
0000
0000
3100
0000
0000
0001
0010
,  // measure 50
0001
0000
0100
0000
0010
0000
1000
0100
,  // measure 51
1000
0010
0100
0001
,  // measure 52
1000
0100
1000
0100
1000
0000
0011
0000
,  // measure 53
0100
0001
0100
0001
0100
0000
0010
1000
,  // measure 54
0001
1000
0001
1000
0001
0000
1100
0000
,  // measure 55
0102
0010
1000
0103
,  // measure 56
0010
1000
0100
0000
0100
1000
0010
0000
,  // measure 57
0100
0001
0010
0000
0010
0001
0100
0100
,  // measure 58
0010
0100
0001
0000
0010
0100
1000
0000
,  // measure 59
0010
0100
0001
0000
0010
0100
1000
0000
,  // measure 60
1000
0100
0001
0000
0001
0100
1000
0000
,  // measure 61
1000
0010
0001
0000
0001
0010
1000
0000
,  // measure 62
0100
1100
0001
0101
,  // measure 63
1000
1010
0001
0011
,  // measure 64
0200
0000
0320
0000
,  // measure 65
2030
0000
3100
0100
,  // measure 66
0020
0000
0032
0000
,  // measure 67
2003
0000
0000
0000
3020
0000
0130
0010
;

//---------------dance-single - C. Picardy----------------
#NOTEDATA:;
#CHARTNAME:;
#STEPSTYPE:dance-single;
#DESCRIPTION:C. Picardy;
#CHARTSTYLE:;
#DIFFICULTY:Hard;
#METER:9;
#RADARVALUES:0.644737,0.641206,0.197344,0.137282,0.519099,526.000000,503.000000,23.000000,16.000000,14.000000,0.000000,0.000000,0.000000,0.000000,0.644737,0.641206,0.197344,0.137282,0.519099,526.000000,503.000000,23.000000,16.000000,14.000000,0.000000,0.000000,0.000000,0.000000;
#CREDIT:C. Picardy;
#NOTES:
0000
0000
0000
0000
,
0000
0000
0000
0000
,
0000
0000
0000
0000
,
0000
0000
0000
0000
0000
0000
0000
1000
,
1MM1
0000
0000
0000
1000
1000
0000
0001
,
0000
0001
0001
0000
0100
0100
0000
0000
,
M11M
0000
0000
0000
0100
0100
0000
0100
,
0010
0000
0010
0100
0000
0000
0100
0000
0010
0000
0000
0000
1MM1
0000
0000
0000
,
1000
0000
0100
1000
0000
0000
0001
0000
0010
0000
0100
1000
0000
0000
0001
0000
,
0100
0000
0001
0100
0000
0000
0010
0000
1000
0000
0010
1000
0000
0000
0100
0000
,
1000
0000
1000
0010
0000
0000
0100
0000
0001
0000
0001
0010
0000
0000
0100
0000
,
1000
0000
1000
0001
0000
0000
0100
0000
0001
0000
0001
1000
0000
0000
0100
0000
,
0010
0000
0001
0100
0000
0000
0010
0000
1000
0000
0001
0100
0000
0000
0010
0000
,
1000
0000
0100
1000
0000
0000
0100
0000
0010
0000
0001
0010
0000
0000
0100
0000
,
1000
0000
0001
0100
0000
0000
0010
0000
1000
0000
0001
0100
0000
0000
0010
0000
,
2000
0000
0000
0000
0001
0000
3001
1000
0000
0000
0010
0000
0010
0100
0010
0000
,
1000
0010
0100
0010
1000
0100
1100
0000
,
0010
0100
0010
0000
0001
0000
0010
0000
0100
0000
0010
0000
0011
0000
0000
0000
,
0100
0001
0010
0001
0100
0010
1010
0000
,
1000
0010
1000
0000
0100
0000
1000
0000
0010
0000
0100
0000
0101
0000
0000
0000
,
1000
0100
1000
0000
0001
0000
1000
0010
1000
0000
0001
0000
0101
0000
0000
0000
,
0100
0010
0100
0000
0001
0000
0100
0010
0100
0000
0010
0000
1010
0000
0000
0000
,
0001
0010
0001
0000
1000
0000
0100
0010
0100
0000
1000
0000
1100
0000
0000
0000
,
0010
0100
0010
0000
1000
0000
0001
0000
0100
0000
0000
0000
1001
0000
1000
0001
,
0200
0000
0000
0000
0010
0000
0310
1000
0001
0000
1000
0000
0100
0000
0000
0000
,
0120
0000
0000
0000
0001
0000
0031
0010
0100
0000
0010
0000
0001
0000
0000
0000
,
0102
0000
0000
0000
1000
0000
1003
0001
0100
0000
0010
0000
0100
0000
0000
0000
,
2010
0000
0000
0000
0100
0000
3100
1000
0010
0000
1000
0000
0100
0000
0000
0000
,
0020
0000
0100
0000
0130
0000
0010
0001
0010
0000
0100
0000
1100
0000
0000
0000
,
0020
0000
0100
0000
0130
0000
0001
0010
0001
0000
0100
0000
0110
0000
0000
0000
,
0200
0000
0010
0000
0310
0000
1000
0010
1000
0000
0100
0000
0110
0000
0000
0000
,
0002
0000
1000
0000
1003
0000
0001
1000
0001
0000
0000
1000
0001
0000
1000
0100
,
0010
0000
0100
0000
1000
0000
0100
0010
0000
0010
0100
0000
1000
0000
0010
0100
,
0000
0100
0001
0000
1000
0000
0010
0100
0000
0100
0010
0000
1000
0000
0001
0000
,
1000
0100
1000
0100
0010
0001
0010
0001
,
0100
0001
0100
0001
0100
0010
0100
0010
,
1000
0000
0010
0000
0100
0000
0010
1000
0000
1000
0100
0000
0010
0000
0001
0100
,
0000
0100
0010
0000
1000
0000
0100
0010
0000
0010
0001
0000
0100
0000
0100
0000
,
0001
0100
0001
0100
0010
0100
0010
0100
,
0010
1000
0010
1000
0100
0010
0100
0010
,
0001
0000
0010
0100
0000
0000
1000
0000
0010
0000
0000
0000
1MM1
0000
0000
0000
,
1000
0000
0001
0100
0000
0000
0010
0000
1000
0000
0000
0000
M11M
0000
0010
0000
,
0100
0000
0001
1000
0000
0000
0100
0000
0010
0000
0000
0000
1MM1
0000
0000
0000
,
0001
0000
0000
0000
0100
0000
0000
0010
0000
0010
0000
1000
0001
1000
0001
0000
,
1000
0000
0100
1000
0000
0100
1000
0000
0100
1000
0000
0100
1000
0000
1000
0000
,
0001
0000
0100
0001
0000
0100
0001
0000
0100
0001
0000
0100
0001
0000
1000
0000
,
0010
0000
0100
0010
0000
0100
0010
0000
0100
0010
0000
0100
0010
0000
1000
0000
,
0001
0000
0001
0010
0000
0010
0100
0000
0100
1000
0000
1000
0010
0000
0010
0100
,
0002
0000
0000
0000
0023
0000
0100
0230
,
0000
0000
0000
2300
0000
0000
0001
3001
,
0100
0000
0000
0010
1000
0000
0001
0000
0100
0000
0000
0000
0011
0000
0000
0000
,
1000
0000
0000
0001
0010
0000
0001
0000
0100
0000
0000
0000
1010
0000
0000
0000
,
1000
0000
1000
0100
0000
0100
1000
0000
1000
0010
0000
0010
0100
0000
0001
0000
,
0010
0000
0010
0001
0000
0001
0010
0000
0010
0100
0000
0100
1000
0000
1000
0000
,
0001
0000
0001
0100
0000
0100
0001
0000
0001
0010
0000
0010
0100
0000
0100
0000
,
2000
0010
0001
3100
,
1000
0001
1000
0000
0100
0000
0010
0001
0000
0001
0010
0000
0100
0000
1000
0010
,
0000
0010
0100
0000
0001
0000
0010
0100
0000
0100
1000
0000
0010
0000
0010
0000
,
0100
0000
0001
0000
0100
0000
0010
1000
0000
1000
0100
0000
0010
0000
0100
1000
,
0000
1000
0010
0000
0100
0000
0001
0010
0000
0010
0100
0000
1000
0000
0001
0100
,
0000
0100
0010
0000
1000
0000
0001
0010
0000
0010
0100
0000
1000
0000
0010
0100
,
0000
0100
0010
0000
1000
0000
0100
0010
0000
0010
0100
0000
0010
0000
0010
0000
,
0001
0000
0010
0001
0000
0000
1000
0000
0100
0000
1000
0100
0000
0000
0010
0000
,
0001
0000
0100
0001
0000
0000
1000
0000
0010
1000
0000
0000
1MM1
0000
0010
0001
,
2000
0000
0000
0000
0000
0000
0000
0000
0001
0000
0000
3001
0000
1000
0001
0000
,
0100
0000
0000
0000
0100
0000
0000
0000
0100
0010
0000
0100
0010
0000
1000
0000
,
0002
0000
0000
0000
1000
0000
0000
0000
1000
0000
0000
1000
0000
0000
1003
0000
,
0100
1000
0000
0000
0001
0000
0000
0000
0010
0100
0000
0000
1000
0000
0001
0100
;

//---------------dance-single - C. Picardy----------------
#NOTEDATA:;
#CHARTNAME:;
#STEPSTYPE:dance-single;
#DESCRIPTION:C. Picardy;
#CHARTSTYLE:;
#DIFFICULTY:Challenge;
#METER:11;
#RADARVALUES:0.968332,0.961809,0.386107,0.034321,1.244123,790.000000,745.000000,45.000000,4.000000,56.000000,3.000000,0.000000,0.000000,0.000000,0.968332,0.961809,0.386107,0.034321,1.244123,790.000000,745.000000,45.000000,4.000000,56.000000,3.000000,0.000000,0.000000,0.000000;
#CREDIT:C. Picardy;
#NOTES:
0000
0000
0000
0000
,
0000
0000
0000
0000
,
0000
0000
0000
0000
,
0000
0000
0000
0000
0000
0000
0000
0001
,
0101
0100
0001
0100
1000
0100
1000
0100
,
0001
0010
0001
0010
0100
1000
0100
1000
,
1001
0000
MMMM
0000
0100
0100
0000
0010
,
0010
1000
0100
0010
0001
0000
0001
0010
0100
1000
0010
0000
0110
0000
0010
1000
,
0100
0010
0100
0010
0100
0000
1000
0010
1000
0010
1000
0010
0100
0000
0001
0010
,
0001
0010
0001
0010
0100
0000
1000
0100
1000
0100
1000
0100
0010
0000
0001
0100
,
0001
1000
0010
1000
0100
0000
0010
0100
0010
0100
1000
0001
0100
0000
0001
0100
,
0010
0100
0001
0010
0100
0000
1000
0100
0010
0100
1000
0010
0100
0000
0001
0100
,
0010
0100
0010
0001
0010
0000
1000
0100
0010
1000
0010
0100
0010
0000
0001
0100
,
0010
0100
1000
0100
0010
0000
1000
0100
0010
0100
0001
0100
1000
0000
0010
0100
,
0010
0001
0010
0100
0001
0000
0010
0100
0001
0100
0010
0100
1000
0000
0010
0100
,
0001
0010
0000
0000
M11M
0000
0100
1000
0000
0000
1MM1
0000
0001
0100
0010
0000
,
1000
0001
0100
0000
0101
0000
0010
1000
0010
1000
0100
0000
1100
0000
0010
0001
,
0010
0001
0100
0000
0110
0000
1000
0010
1000
0010
0100
0000
1010
0000
0001
1000
,
0100
1000
0100
0000
0011
0000
1000
0001
1000
0001
0100
0000
0011
0000
1000
0100
,
0010
0100
1000
0000
0110
0000
0010
1000
0100
0010
0001
0000
1001
0000
0100
0010
,
0100
0001
1000
0000
0101
0000
0010
1000
0100
0010
0001
0000
1100
0000
0001
0010
,
0100
1000
0010
0000
0101
0000
1000
0010
0100
0010
1000
0000
1100
0000
0001
0010
,
0100
0010
1000
0000
0011
0000
1000
0010
0100
0010
0001
0000
1010
0000
0001
0100
,
1000
0100
0001
0000
0011
0000
1000
0100
0001
0100
1000
0000
1001
0000
0010
1000
,
0100
1000
0010
1000
0010
0000
0100
0001
0010
0001
0100
0000
1010
0000
M0M0
0000
,
0001
0010
0100
0010
0001
0000
1000
0100
0010
0100
1000
0000
0101
0000
0M0M
0000
,
1000
0010
0100
0010
1000
0000
0001
0010
0100
0010
0001
0000
1100
0000
MM00
0000
,
0010
0001
0100
0001
0010
0000
0100
1000
0010
1000
0100
0000
1001
0000
M00M
0000
,
0001
0100
0001
0100
0010
0000
1000
0100
1000
0100
0010
0100
1000
0000
MMMM
0000
,
0010
0100
0010
0100
0001
0000
0100
0010
1000
0010
0100
0001
0100
0000
MMMM
0000
,
1000
0100
0010
0100
1000
0000
0010
0100
0010
0001
0010
0100
0001
0000
MMMM
0000
,
1000
0010
0100
0010
0001
0000
0010
1000
0100
0010
0001
0000
0011
0000
1000
0100
,
0010
0100
1000
0100
0010
0000
0001
0010
0100
0010
0001
0010
0100
0000
1000
0010
,
0100
0010
1000
0010
0100
0000
0001
0010
0000
0010
0100
0000
1100
0000
0101
0000
,
0001
0100
1000
0100
0010
0000
1000
0010
0100
0010
0001
0010
0100
0000
0001
0010
,
0100
0010
1000
0010
0100
0000
0010
1000
0010
0001
0010
0100
1000
0000
0010
0100
,
1000
0100
0010
0100
0001
0000
1000
0100
0010
0100
0001
0100
1000
0000
0001
0100
,
1000
0100
0010
0100
0001
0000
1000
0100
0000
0100
0010
0000
0011
0000
1010
0000
,
1000
0100
0010
0100
1000
0000
0001
0100
0010
0100
0001
0010
0100
0000
1000
0100
,
0010
0100
1000
0001
0010
0000
0001
0100
0010
1000
0010
0100
0001
0000
MMMM
0000
,
0001
0010
0100
0010
0100
0000
1000
0100
1000
0100
0010
0000
0011
0000
00MM
0000
,
0010
0100
0010
0100
1000
0000
0001
0100
0001
0100
0010
0000
1010
0000
1100
0000
,
0010
0100
0010
0100
1000
0000
0001
0010
0100
0010
0100
0000
1001
0000
M00M
0000
,
2010
0000
0000
0000
0001
0000
0000
0001
0000
3001
0000
1000
0010
0100
0001
0000
,
1000
0000
0010
0001
0000
0010
1000
0000
0010
0001
0000
0010
1000
0000
0100
0000
,
0001
0000
0100
0010
0000
1000
0010
0000
0001
0100
0000
1000
0100
0000
0110
0000
,
1000
0000
0001
0010
0000
1000
0010
0000
0001
0100
0000
0010
1000
0000
0100
0000
,
MM11
0000
0000
11MM
0000
0000
M1M1
0000
0000
1M1M
0000
0100
1000
0000
0010
0100
,
0002
0000
0000
0000
0200
0000
1000
1000
,
0000
0000
0000
0010
0000
0303
0100
0101
,
1000
0000
0001
0100
0010
0000
1000
0100
0010
0000
0001
0010
0100
0000
1000
0010
,
0100
0000
0001
0100
0010
0000
1000
0010
0100
0000
0001
0010
0100
0000
0010
0001
,
1000
0100
1000
0100
1000
0100
1000
0100
0010
0001
0010
0001
0010
0001
0010
0001
,
1000
0100
0010
0001
1000
0100
0010
0001
1000
0010
0100
0001
1000
0010
0100
0001
,
1000
0010
1000
0010
0100
0001
0100
0001
1000
0100
0010
0001
1000
0010
0100
0001
,
0020
0000
1000
M000
0001
000M
0130
0MM0
,
1000
0001
0100
0010
0100
0000
0001
1000
0100
0010
0100
1000
0001
0000
0100
0010
,
0100
0001
1000
0100
0010
0000
0001
0010
0000
0010
0100
0000
1100
0000
0101
0000
,
1000
0001
0100
0010
1000
0000
0100
0010
0100
1000
0001
0100
0010
0000
1000
0001
,
0100
0010
1000
0100
0010
0000
0001
0010
0100
1000
0010
0100
0010
0000
1000
0001
,
0010
0100
1000
0001
0100
0000
0010
1000
0100
0010
0001
0100
0010
0000
1000
0001
,
0010
0100
1000
0010
0100
0000
0010
1000
0000
1000
0100
0000
0011
0000
1010
0000
,
1000
0001
1000
0001
0000
0000
0100
0001
0100
0001
0100
0001
0000
0000
1000
0100
,
1000
0100
0010
0001
0000
0000
1000
0010
1000
0010
0100
0001
0000
1000
0100
0010
,
M001
0100
0001
0000
0100
0000
0000
0000
0M10
0000
0010
1000
0000
1000
0010
0000
,
100M
0100
1000
0000
0001
0000
0001
0010
010M
1000
0000
0010
0100
0010
1000
0100
,
M010
0001
0010
0000
0001
0010
0000
0100
001M
0000
0000
0100
0000
0100
1000
0000
,
00M1
0100
0001
0000
1000
0000
0010
0100
M001
0010
0000
0001
0100
0010
1000
0001
;
