#TITLE:Never Return Alive;
#SUBTITLE:;
#ARTIST:Yuzo Koshiro feat. BGM1401;
#TITLETRANSLIT:;
#SUBTITLETRANSLIT:;
#ARTISTTRANSLIT:;
#GENRE:;
#CREDIT:;
#BANNER:neverreturnalivebn.png;
#BACKGROUND:neverreturnalivebg.png;
#LYRICSPATH:;
#CDTITLE:;
#MUSIC:neverreturnalive.ogg;
#OFFSET:-0.049117;
#SAMPLESTART:73.309692;
#SAMPLELENGTH:11.999995;
#SELECTABLE:YES;
#BPMS:0.000000=130.000000
;
#STOPS:
;
#BGCHANGES:13.500=Stormcountdown.mp4=1.000=1=0=0=StretchNoLoop==CrossFade==,
32.000=flash=1.000=0=0=1=====,
32.250=Redheaven.mp4=1.000=0=0=0=StretchNoLoop====,
46.000=Redheaven.mp4=1.000=0=0=1=SongBgWithMovieViz==CrossFade_Fastest==,
48.000=flash=1.600=0=0=1=====,
48.250=Redheaven.mp4=1.000=0=0=0=StretchNoLoop====,
64.000=flash=1.600=0=0=1=====,
64.250=Redheaven.mp4=1.000=0=0=1=====,
78.000=Redheaven.mp4=1.000=0=0=1=SongBgWithMovieViz==CrossFade_Fastest==,
80.000=flash=1.600=0=0=1=====,
80.250=Redheaven.mp4=1.000=0=0=0=StretchNoLoop====,
96.000=flash=1.600=0=0=1=====,
96.250=Snakeparticles.mp4=1.000=0=0=0=StretchNoLoop====,
110.000=Snakeparticles.mp4=1.000=0=0=1=SongBgWithMovieViz==CrossFade_Fastest==,
112.000=flash=1.600=0=0=1=====,
112.250=Snakeparticles.mp4=1.000=0=0=1=====,
126.000=Snakeparticles.mp4=1.000=0=0=1=SongBgWithMovieViz==CrossFade_Fastest==,
128.000=flash=1.600=0=0=1=====,
128.250=Snakeparticles.mp4=1.000=0=0=1=SongBgWithMovieViz====,
144.000=Stormcountdown.mp4=1.000=0=0=0=StretchNoLoop==CrossFade_Fastest==,
160.000=flash=1.600=0=0=1=====,
160.250=Redheaven.mp4=1.000=0=0=0=StretchNoLoop====,
192.000=flash=1.600=0=0=1=====,
192.250=Snakeparticles.mp4=1.000=0=0=0=StretchNoLoop====,
224.000=flash=1.000=0=0=1=====,
224.250=neverreturnalivebg.png=1.000=0=0=1=====,
99999=-nosongbg-=1.000=0=0=0 // don't automatically add -songbackground-
;
#KEYSOUNDS:;
#ATTACKS:;

//---------------dance-single - C. Picardy----------------
#NOTES:
     dance-single:
     :
     Beginner:
     1:
     0.120549,0.157517,0.159392,0.000000,0.000000,90.000000,73.000000,17.000000,0.000000,0.000000,0.000000,0.120549,0.157517,0.159392,0.000000,0.000000,90.000000,73.000000,17.000000,0.000000,0.000000,0.000000:
0000
0000
0000
0000
,
0000
0000
0000
0000
,
0000
0000
0000
0000
,
0000
0000
0000
0000
,
1000
0000
0000
0000
,
0001
0000
0000
0000
,
0100
0000
0000
0000
,
0010
0000
0000
0000
,
1000
0000
1000
0000
,
0001
0000
0001
0000
,
0010
0000
0010
0000
,
0100
0000
0100
0000
,
0110
0000
0000
0000
,
0110
0000
0000
0000
,
1001
0000
0000
0000
,
1001
0000
0000
0000
,
0010
0000
0010
0000
,
0001
0000
0001
0000
,
1000
0000
1000
0000
,
0100
0000
0100
0000
,
1001
0000
0000
0000
,
1001
0000
0000
0000
,
0110
0000
0000
0000
,
0110
0000
0000
0000
,
1000
0000
1000
0000
,
0001
0000
0001
0000
,
1000
0000
1000
0000
,
0001
0000
0001
0000
,
0010
0000
0010
0000
,
0100
0000
0100
0000
,
0010
0000
0100
0000
,
0010
0000
0100
0000
,
1000
0000
0000
0000
,
0001
0000
0000
0000
,
1000
0000
0000
0000
,
0001
0000
0000
0000
,
0100
0000
0000
0000
,
0010
0000
0000
0000
,
0100
0000
0000
0000
,
0010
0000
0000
0000
,
1001
0000
0000
0000
,
1001
0000
0000
0000
,
0110
0000
0000
0000
,
0110
0000
0000
0000
,
0010
0000
0010
0000
,
0100
0000
0100
0000
,
0001
0000
0001
0000
,
1000
0000
1000
0000
,
0001
0000
0000
0000
,
1001
0000
0000
0000
,
1000
0000
0000
0000
,
1001
0000
0000
0000
,
0010
0000
0000
0000
,
0110
0000
0000
0000
,
0100
0000
0000
0000
,
0110
0000
0000
0000
,
1001
0000
0000
0000
;

//---------------dance-single - C. Picardy----------------
#NOTES:
     dance-single:
     :
     Easy:
     4:
     0.298693,0.367540,0.412545,0.121888,0.000000,223.000000,179.000000,44.000000,13.000000,0.000000,0.000000,0.298693,0.367540,0.412545,0.121888,0.000000,223.000000,179.000000,44.000000,13.000000,0.000000,0.000000:
0000
0000
0000
0000
,
0000
0000
0000
0000
,
0000
0000
0000
0000
,
0000
0000
0000
0000
,
2000
0000
3000
0000
,
0002
0000
0003
0000
,
2000
0000
3000
0000
,
0002
0000
0003
1001
,
0010
1000
0001
0110
,
0010
1000
0001
0110
,
1000
0001
0010
0100
,
1000
0010
2002
3003
,
1000
0100
1000
0100
,
0010
0100
0010
0100
,
0010
0001
0010
0001
,
2000
0002
0000
3003
,
0010
1001
0100
1001
,
1000
0110
0001
0110
,
1000
0010
0100
0001
,
1001
0110
2002
3003
,
0001
0100
0010
0010
,
1000
0100
0010
0010
,
0100
1000
0001
0001
,
0200
0020
0000
0330
,
1000
0001
0100
1001
,
1000
1000
0001
0001
,
0010
0100
0010
1001
,
0100
0100
0020
0030
,
1000
0100
0001
0100
,
1000
1100
0001
0101
,
0001
0100
1000
0100
,
0001
0011
1000
1010
,
0010
0000
1001
0000
,
0100
0000
0110
0000
,
0001
0000
1100
0000
,
0010
0000
0101
0000
,
1000
0001
0000
0000
,
0010
0001
1000
0010
,
0100
0100
0000
0000
,
1001
0110
1001
0110
,
1000
0001
0010
0100
,
1000
0010
1000
0100
,
0010
0001
1000
0001
,
0100
0010
0100
0010
,
0100
1001
0010
1001
,
1000
1000
0101
1100
,
0010
1100
0010
0101
,
1000
1000
1010
0011
,
1000
0001
0100
0001
,
0101
0101
0110
0110
,
1000
0010
1000
0100
,
0110
0110
1001
1001
,
0100
0010
1000
0001
,
1000
0100
0010
0001
,
1000
0001
0100
0010
,
1000
0001
1001
0110
,
1001
0000
0000
0000
;

//---------------dance-single - C. Picardy----------------
#NOTES:
     dance-single:
     :
     Medium:
     6:
     0.395133,0.425672,0.375041,0.318785,0.000000,295.000000,255.000000,40.000000,34.000000,0.000000,0.000000,0.395133,0.425672,0.375041,0.318785,0.000000,295.000000,255.000000,40.000000,34.000000,0.000000,0.000000:
0000
0000
0000
0000
,
0000
0000
0000
0000
,
0000
0000
0000
0000
,
0000
0000
0000
0000
,
2000
0100
0010
3001
,
0002
0010
0100
1003
,
0001
0100
0010
1000
,
2002
0000
0000
0000
3003
0000
1000
0001
,
0100
0101
0100
0110
,
1000
1010
1000
1100
,
0010
0110
0010
0011
,
1000
1010
2002
3003
,
0200
0000
0310
0000
1000
0010
1000
0010
,
2000
0000
3100
0000
1000
0001
1000
0001
,
2000
0000
3001
0000
0100
0001
0100
0001
,
0200
0020
0000
0330
,
1010
0000
1001
0000
0001
0100
1000
0000
,
0101
0000
1100
0000
1000
0100
0001
0000
,
1100
0010
0101
0010
,
1100
0010
0011
1001
,
0020
0000
1030
1000
0001
1000
0001
0001
,
0200
0000
0310
1000
0010
0010
1000
1000
,
0200
0000
0310
0010
0001
0001
0010
0001
,
2000
0200
0000
3300
,
0010
0000
0001
0000
1000
0001
0100
0000
,
0010
0000
1000
0000
0100
1000
0010
0000
,
0100
0000
0001
0000
0010
0001
0100
0000
,
0010
1000
0202
0303
,
0001
0000
0100
0000
0001
0010
0001
0000
,
0100
0000
0010
0000
1000
0010
1000
0000
,
0100
0000
0010
0000
0100
1000
0001
0000
,
1000
0000
0001
0000
0100
0010
0100
0010
,
0200
0000
0301
0002
0000
0103
0000
0000
,
0020
0000
1030
0001
1000
0001
1000
0100
,
2000
0000
3100
0200
0000
1300
0000
0000
,
0200
0000
0310
0001
0010
0001
0010
0001
,
0020
0000
0130
0200
0000
0310
0000
0000
,
2000
0000
3001
0100
0001
0100
0001
0100
,
0002
0000
0103
0200
0000
0301
0000
0000
,
0220
0000
0000
0330
,
1010
1001
0101
0110
,
1000
0010
1000
0000
1000
0001
1000
0000
,
1100
0011
1100
0110
,
0001
0010
0001
0000
0001
1000
0001
0000
,
0101
0110
0101
1001
,
0010
0100
0010
0000
0010
1000
0010
0000
,
1100
1010
0101
1100
,
1001
0000
0000
0000
1000
0001
1000
0001
,
0200
0010
1000
0301
,
1000
0100
1000
0000
0001
0010
0001
0100
,
0020
0001
1000
0130
,
0001
0010
0001
0000
1000
0010
1000
0001
,
0100
0000
0110
0000
0001
0100
0010
0000
,
1000
1000
0100
0100
0010
0010
0001
0001
,
0100
1010
0100
0011
,
0001
0001
0010
0010
0100
1000
0100
1000
,
0002
0000
0000
0003
;

//---------------dance-single - C. Picardy----------------
#NOTES:
     dance-single:
     :
     Hard:
     9:
     0.537112,0.587877,0.215649,0.234401,0.201585,401.000000,378.000000,23.000000,25.000000,8.000000,0.000000,0.537112,0.587877,0.215649,0.234401,0.201585,401.000000,378.000000,23.000000,25.000000,8.000000,0.000000:
0000
0000
0000
0000
,
0000
0000
0000
0000
,
2000
0000
0000
0000
,
3200
0000
0000
0000
,
0310
0001
0010
0001
,
1000
0001
1000
0001
,
0100
0001
0100
0001
,
0100
0010
0100
0000
0010
0000
0000
0000
0010
0000
0000
0000
1000
0001
0000
0000
,
1000
0100
0010
0100
1000
0100
0010
0100
,
0010
0001
0100
0001
0010
0001
0100
0010
,
1000
0010
1000
0010
0100
0001
0010
0001
,
1000
0001
0100
0001
0010
0000
0101
0000
,
2001
0000
3100
0010
0001
0010
0100
0010
,
0012
0000
0103
0001
0010
0100
1000
0001
,
0201
0000
0310
0100
1000
0100
0010
0100
,
0002
0000
0000
0000
0200
0000
0000
0000
0000
0000
0303
0000
0010
0100
0010
0000
,
1000
0010
0100
0010
1000
0010
0100
0001
,
0010
0001
1000
0001
0010
0001
1000
0100
,
0001
0100
1000
0100
0010
0100
0001
0100
,
1000
0001
0010
0100
2000
0000
3001
0000
,
0101
0000
0000
0000
1000
0001
1000
0000
0001
1000
0001
0000
1000
0100
1000
0000
,
0200
0000
0000
0000
0310
0100
0010
0000
0001
0010
0001
0000
0100
0001
0100
0000
,
0002
0000
0000
0000
1003
0010
1000
0000
0001
0100
0001
0000
1000
0001
1000
0000
,
0200
0000
0020
0000
0000
0330
M11M
0000
,
1000
0000
0100
0000
1000
0000
0100
0000
0010
0001
0000
0000
0101
0000
0000
0000
,
0001
0000
0100
0000
0001
0010
0000
0010
0100
0000
0000
0000
0110
0000
0000
0000
,
1000
0000
0100
0000
0001
0000
0100
0000
1000
0001
0000
0000
1100
0000
0000
0000
,
0010
0000
0100
0000
0010
0001
0000
0001
0100
0000
0000
0000
1001
0000
0000
0000
,
0010
0000
0001
0000
0100
0000
0010
0000
0000
1000
0000
1000
0010
0000
0000
0000
,
0100
0010
0100
0000
0010
0100
0000
0010
1000
0000
0010
0100
0000
0000
0000
0000
,
0001
0000
1000
0000
0100
0000
0010
0000
0000
0001
0000
0001
0010
0000
0000
0000
,
0001
1000
0001
0000
1000
0001
0000
1000
0001
0000
1001
0000
1001
0000
0000
0000
,
0002
0000
0103
0020
0000
2030
0000
3000
,
0200
0000
1300
0100
1000
0001
0010
0001
,
2000
0000
3010
0200
0000
0320
0000
0030
,
2000
0000
3001
0100
0010
0100
0010
1000
,
1001
0000
0100
1100
0000
0110
0000
0000
,
0012
0000
0103
0001
0010
0100
0010
0001
,
0101
0000
0110
0110
0000
1010
0000
0000
,
22M0
0000
0000
0000
000M
0000
3300
0000
1000
0100
1000
0100
1000
0000
0000
0000
,
0100
0010
0100
0010
0001
0010
0001
0010
,
0001
0100
1000
0100
0001
0001
0010
0010
,
0100
1000
0010
1000
0100
1000
0010
0100
,
0001
0010
1000
0010
0001
0001
0100
0100
,
0001
1000
0100
1000
0001
0010
0001
0100
,
1000
0100
0001
0100
0010
0010
1000
1000
,
0100
0010
0100
0010
0001
0010
0001
0010
,
0001
0010
0000
0000
1000
0000
0000
0000
0001
0000
1000
0001
1000
0000
1001
0000
,
0100
0010
0100
1000
0100
0001
0100
0010
,
0001
0000
0001
0100
0000
0100
0010
0000
1000
0000
1000
0000
0100
0000
0100
0000
,
0010
0001
0100
0001
0010
0001
1000
0100
,
0010
0000
0010
0001
0000
0001
0100
0000
0010
0000
0010
0000
1000
0000
1000
0000
,
0001
0100
1000
0100
0001
0100
1000
0100
,
0001
0000
0001
1000
0000
1000
0010
0000
1000
0000
1000
0000
0001
0000
0001
0000
,
1000
0100
0001
0100
1000
0100
0001
0100
,
1000
0000
0001
0010
0000
0001
1000
0000
0010
1000
0001
0000
0010
0001
1000
0000
,
2200
00M0
000M
00M0
,
330M
0000
0000
0000
;

//---------------dance-single - C. Picardy----------------
#NOTES:
     dance-single:
     :
     Challenge:
     10:
     0.834466,0.868279,0.478177,0.243777,0.951667,623.000000,572.000000,51.000000,26.000000,4.000000,2.000000,0.834466,0.868279,0.478177,0.243777,0.951667,623.000000,572.000000,51.000000,26.000000,4.000000,2.000000:
// measure 0
0000
0000
0000
0000
,  // measure 1
0000
0000
0000
0000
,  // measure 2
0000
0000
0000
0000
,  // measure 3
0000
0000
0000
0000
,  // measure 4
1000
0000
0001
0000
0100
0000
0001
0000
1000
0001
0000
0001
1000
0000
0100
0000
,  // measure 5
1000
0100
1000
0000
0001
0010
0000
0001
1000
0000
0010
1000
0000
0001
0100
0001
,  // measure 6
0100
0000
0010
0000
1000
0000
0001
0000
0010
0100
0000
0100
0010
0000
0001
0000
,  // measure 7
1000
0001
1000
0000
0001
0100
0000
0100
0010
1000
0001
0100
0010
1000
0001
1000
,  // measure 8
0100
0100
0110
1000
1001
0100
0101
0100
,  // measure 9
0110
0010
1010
0001
1001
1000
1100
1000
,  // measure 10
1010
0001
0101
1000
1100
0001
0011
1000
,  // measure 11
1100
0001
0101
1000
2002
0000
0010
3003
,  // measure 12
0200
0000
0000
0000
0301
0100
0001
0100
0010
1000
0010
1000
0001
1000
0001
1000
,  // measure 13
0200
0000
0000
0000
0310
0100
0010
0100
1000
0100
1000
0100
0010
0001
0010
0001
,  // measure 14
0200
0000
0000
0000
0310
1000
0010
1000
0001
0100
0001
0100
0010
0100
0010
0100
,  // measure 15
0020
0000
0000
0000
4030
0001
0000
0010
0000
0100
0000
0010
0000
0001
3000
0000
,  // measure 16
0001
0100
0001
0000
0101
0000
1000
0100
1000
0000
0001
0000
0101
0000
1000
0010
,  // measure 17
1000
0000
0010
0000
1010
0000
0100
0010
0100
0000
0001
0000
0101
0000
1000
0000
,  // measure 18
1001
0000
0100
0000
0101
0000
1000
0100
1000
0000
0010
0000
0110
0000
0100
0000
,  // measure 19
0101
1000
1001
0100
0202
0000
0010
0303
,  // measure 20
0101
0000
1000
0001
0100
0010
1000
0100
0010
0001
0010
0000
0100
1000
0100
0000
,  // measure 21
0110
0000
0100
1000
0001
0100
0010
1000
0100
1000
0100
0000
0010
0100
0010
0000
,  // measure 22
0011
0000
1000
0100
0010
0001
1000
0010
0100
0001
0100
0000
0010
1000
0010
0000
,  // measure 23
4000
0000
0004
0000
0000
0000
0000
3003
,  // measure 24
1001
0000
0100
0000
0010
0000
1000
0000
0001
0100
0000
0010
1000
0000
0001
0000
,  // measure 25
1000
0100
1000
0000
0001
0010
0000
0001
1000
0000
0010
1000
0000
0001
1000
0001
,  // measure 26
1000
0000
0100
0000
0010
0000
0001
0000
1000
0100
0000
0010
0001
0000
1000
0000
,  // measure 27
0001
0100
0001
0000
1000
0010
0000
0010
1000
0000
0001
1000
0000
0010
1000
0010
,  // measure 28
1000
0000
0001
0000
0100
0000
0010
0000
1000
0100
0000
0100
0010
0000
0100
0000
,  // measure 29
0010
0001
0010
0000
0001
0100
0000
0100
0010
0000
0010
1000
0000
0001
1000
0010
,  // measure 30
1000
0000
0001
0000
0100
0000
0010
0000
0100
0010
0000
0010
0100
0000
0010
0000
,  // measure 31
1000
0001
1000
0000
0001
1000
0000
0001
1000
0001
0100
0001
0100
0001
1000
0100
,  // measure 32
2000
0000
0002
3000
0200
0003
0002
0300
2000
0003
0020
3000
0200
0030
0002
0300
,  // measure 33
0020
0003
0000
0000
0031
0010
0100
1000
0001
0010
0100
1000
0001
0010
0100
1000
,  // measure 34
0002
0000
0020
0003
0002
0030
0020
0003
0200
0030
2000
0300
0200
3000
2000
0300
,  // measure 35
0020
3000
0000
0000
1030
0100
0010
0001
1000
0100
0010
0001
1000
0100
0010
0001
,  // measure 36
1000
0000
0010
0000
0100
0000
0001
0000
0010
0001
0000
0001
0100
0000
0010
0000
,  // measure 37
1000
0010
1000
0000
0001
0100
0010
1000
0001
0100
0010
1000
0001
0100
0010
1000
,  // measure 38
0001
0000
0010
0000
0001
0000
0100
0000
0010
1000
0000
1000
0001
0000
0100
0000
,  // measure 39
0010
1000
0010
0000
1000
0001
0000
0100
0010
1000
0001
0010
0100
1000
0001
0100
,  // measure 40
0010
0110
1000
1001
0100
0101
0110
1000
,  // measure 41
1001
0000
1000
0100
0000
0010
0001
0000
1000
0000
1001
0000
1100
0000
0110
0000
,  // measure 42
0001
0101
1000
0101
0100
0110
1000
0001
,  // measure 43
0101
0000
1000
0010
0000
0100
0010
0000
0100
0000
0110
0000
0101
0000
1001
0000
,  // measure 44
1000
0000
1100
0000
0010
0000
0011
0000
1000
0100
0000
0100
1000
0000
0010
0000
,  // measure 45
1001
0000
0100
0010
0000
1000
0001
0000
0010
0000
0011
0000
1100
0000
0110
0000
,  // measure 46
0001
0000
0101
0000
0100
0000
0010
0000
0100
0001
0000
0001
0010
0000
0100
0000
,  // measure 47
1000
0001
0000
0000
1001
0000
0000
1000
0001
0100
0000
0010
1000
0001
1000
0001
,  // measure 48
1000
0100
1000
0100
0010
0100
0010
0100
1000
0100
1000
0100
1000
0001
1000
0001
,  // measure 49
0100
0010
0100
0010
0100
0010
0100
0010
1000
0010
1000
0010
1000
0010
1000
0010
,  // measure 50
0100
0001
0100
0001
1000
0001
1000
0001
0010
0001
0010
0001
0100
0001
0100
0001
,  // measure 51
1000
0001
1000
0001
1000
0001
1000
0001
0100
0010
0100
0010
0100
0010
0100
0010
,  // measure 52
1000
0001
0100
0010
1000
0100
0010
0001
1000
0010
0100
0001
0010
0100
1000
0001
,  // measure 53
0100
0001
0100
0010
1000
0010
0100
0010
1000
0100
0010
0001
1000
0100
0010
0100
,  // measure 54
1000
0001
0100
0010
1000
0001
0100
0001
1000
0001
0010
0100
1000
0100
1000
0100
,  // measure 55
0010
0001
0010
0100
1000
0100
0010
0001
0010
0100
1000
0100
0010
0001
1000
0001
,  // measure 56
0100
MMMM
0000
0000
0000
0000
0000
0000
;
