#VERSION:0.83;
#TITLE:Mr. Vain;
#SUBTITLE:;
#ARTIST:Culture Beat;
#TITLETRANSLIT:;
#SUBTITLETRANSLIT:;
#ARTISTTRANSLIT:;
#GENRE:;
#ORIGIN:;
#CREDIT:;
#BANNER:culturbeatbn.png;
#BACKGROUND:culturbeatbg.png;
#PREVIEWVID:;
#JACKET:;
#CDIMAGE:;
#DISCIMAGE:;
#LYRICSPATH:;
#CDTITLE:;
#MUSIC:mrvain.ogg;
#OFFSET:-0.016785;
#SAMPLESTART:108.356499;
#SAMPLELENGTH:12.000000;
#SELECTABLE:YES;
#BPMS:0.000=132.860;
#STOPS:;
#DELAYS:;
#WARPS:;
#TIMESIGNATURES:0.000=4=4;
#TICKCOUNTS:0.000=4;
#COMBOS:0.000=1;
#SPEEDS:0.000=1.000=0.000=0;
#SCROLLS:0.000=1.000;
#FAKES:;
#LABELS:0.000=Song Start;
#BGCHANGES:0.000=mrvainpart1.mp4=1.000=0=0=0=StretchNoLoop====,
264.500=mrvainpart2.mp4=1.000=0=0=0=StretchNoLoop====,
99999=-nosongbg-=1.000=0=0=0 // don't automatically add -songbackground-
;
#KEYSOUNDS:;
#ATTACKS:
;

//---------------dance-single - C. Picardy----------------
#NOTEDATA:;
#CHARTNAME:;
#STEPSTYPE:dance-single;
#DESCRIPTION:C. Picardy;
#CHARTSTYLE:;
#DIFFICULTY:Beginner;
#METER:1;
#RADARVALUES:0.087924,0.133884,0.023979,0.000000,0.000000,77.000000,74.000000,3.000000,0.000000,0.000000,0.000000,0.000000,0.000000,0.000000,0.087924,0.133884,0.023979,0.000000,0.000000,77.000000,74.000000,3.000000,0.000000,0.000000,0.000000,0.000000,0.000000,0.000000;
#CREDIT:C. Picardy;
#NOTES:
0000
0000
0000
0000
,
0000
0000
0000
0000
,
0000
0000
0000
0000
,
0000
0000
0000
0000
,
0010
0000
0000
0000
,
0100
0000
0000
0000
,
0001
0000
0000
0000
,
1000
0000
0000
0000
,
0100
0000
0000
0000
,
0010
0000
0000
0000
,
0001
0000
0000
0000
,
1000
0000
0000
0000
,
0100
0000
0000
0000
,
0100
0000
0000
0000
,
0100
0000
0000
0000
,
0000
0000
0000
0000
,
0010
0000
0000
0000
,
0010
0000
0000
0000
,
0010
0000
0000
0000
,
0000
0000
0000
0000
,
1000
0000
1000
0000
,
1000
0000
0000
0000
,
0001
0000
0001
0000
,
0001
0000
0000
0000
,
0100
0000
0100
0000
,
0100
0000
0000
0000
,
0010
0000
0010
0000
,
0010
0000
0000
0000
,
1001
0000
0000
0000
,
0100
0000
0000
0000
,
0010
0000
0000
0000
,
1000
0000
0000
0000
,
0001
0000
0000
0000
,
0100
0000
0000
0000
,
0010
0000
0000
0000
,
1000
0000
0000
0000
,
0110
0000
0000
0000
,
1000
0000
0000
0000
,
0001
0000
0000
0000
,
1000
0000
0000
0000
,
0010
0000
0000
0000
,
0100
0000
0000
0000
,
0010
0000
0000
0000
,
0100
0000
0000
0000
,
1001
0000
1000
0000
,
1000
0000
0000
0000
,
0001
0000
0001
0000
,
0001
0000
0000
0000
,
0100
0000
0100
0000
,
0100
0000
0000
0000
,
0010
0000
0010
0000
,
0010
0000
0000
0000
,
0100
0000
0000
0000
,
0100
0000
0000
0000
,
0010
0000
0000
0000
,
0010
0000
0000
0000
,
1000
0000
0000
0000
,
1000
0000
0000
0000
,
0001
0000
0000
0000
,
0001
0000
0000
0000
,
1000
0000
1000
0000
,
1000
0000
0000
0000
,
0001
0000
0001
0000
,
0001
0000
0000
0000
,
0100
0000
0100
0000
,
0100
0000
0000
0000
,
0010
0000
0010
0000
,
0010
0000
0000
0000
;

//---------------dance-single - C. Picardy----------------
#NOTEDATA:;
#CHARTNAME:;
#STEPSTYPE:dance-single;
#DESCRIPTION:C. Picardy;
#CHARTSTYLE:;
#DIFFICULTY:Challenge;
#METER:9;
#RADARVALUES:0.624603,0.627358,0.231800,0.495572,0.487579,547.000000,518.000000,29.000000,62.000000,0.000000,10.000000,0.000000,0.000000,0.000000,0.624603,0.627358,0.231800,0.495572,0.487579,547.000000,518.000000,29.000000,62.000000,0.000000,10.000000,0.000000,0.000000,0.000000;
#CREDIT:C. Picardy;
#NOTES:
// measure 0
0000
0000
0000
0000
,  // measure 1
0000
0000
0000
0000
,  // measure 2
0000
0000
0000
0000
,  // measure 3
0000
0000
0000
0000
,  // measure 4
0001
0000
0000
0100
0010
0000
0100
0000
0001
0000
0000
1000
0100
0000
0010
0000
,  // measure 5
0100
0000
0000
1000
0001
0000
0100
0000
0010
0100
0010
0000
0110
0000
1000
0000
,  // measure 6
0001
0000
0000
1000
0010
0000
0100
0000
0001
0000
0000
1000
0100
0000
0010
0000
,  // measure 7
0001
0000
0000
0100
0010
0000
1000
0000
0100
1000
0100
0000
1100
0000
0010
0000
,  // measure 8
0001
0000
0010
0000
0100
0000
0010
0001
0000
0001
0010
0000
0100
0000
1000
0000
,  // measure 9
0010
0000
0100
0000
1000
0000
0100
0010
0000
0010
1000
0000
0001
0000
0100
0000
,  // measure 10
0010
0000
1000
0000
0100
0000
1000
0010
0000
0010
1000
0000
0100
0000
0010
0000
,  // measure 11
0002
0200
0010
1303
,  // measure 12
0001
0000
0100
0000
1000
0000
0100
0000
0001
0100
0001
0000
0010
0000
0100
0000
,  // measure 13
1000
0000
0100
0000
0010
0000
0001
0000
0100
0001
0100
0000
0101
0000
0000
0000
,  // measure 14
0001
0100
0010
1000
2000
0100
3100
0010
,  // measure 15
0002
0000
1000
0000
1003
0000
0010
0000
0010
0100
0010
0000
1000
0000
0001
0000
,  // measure 16
1000
0000
0100
0000
0010
0000
0100
0000
1000
0100
1000
0000
0010
0000
0100
0000
,  // measure 17
0001
0010
0001
0000
1000
0000
0100
0000
0010
0100
0010
0000
0011
0000
0000
0000
,  // measure 18
0001
0010
0100
1000
0002
0010
0013
0100
,  // measure 19
2000
0000
0010
0000
3010
0000
0100
0000
0001
1000
0001
0000
1001
0000
0000
0000
,  // measure 20
1100
0000
0000
0000
1001
0000
0000
0000
0001
0100
0000
0001
0000
0000
1000
0000
,  // measure 21
0200
0000
1000
2300
0002
0000
0010
3003
,  // measure 22
0201
0000
0310
0000
2010
0000
3001
0100
,  // measure 23
0020
0000
1030
0200
0020
0000
0001
0330
,  // measure 24
1100
0000
0000
0000
0101
0000
0000
0000
1000
0010
0000
1000
0000
0000
0100
0000
,  // measure 25
0200
0000
0310
0002
0200
0000
1000
0303
,  // measure 26
2010
0000
0100
3000
1002
0000
1003
0100
,  // measure 27
0020
0000
0031
2000
0200
0000
0010
3300
,  // measure 28
0010
0000
0100
0010
0000
0100
0010
0000
0100
2000
0000
0000
3001
0000
0001
0200
,  // measure 29
0000
0000
0310
0000
0000
0000
1000
0001
1000
0000
1000
0000
0101
0000
0000
0000
,  // measure 30
0010
0000
0010
1000
0000
1000
0100
0000
0000
0000
0010
0001
0000
0100
0010
0000
,  // measure 31
2000
0000
0000
3010
0000
0000
0100
0000
0001
0000
0001
0000
0110
0000
0000
0000
,  // measure 32
1001
0000
0001
1000
0000
1000
0001
0000
0100
0010
0000
0010
0100
0000
0010
0000
,  // measure 33
2000
0000
0000
3001
1000
1000
1010
0000
,  // measure 34
0001
0000
0010
0100
0000
0000
0010
0000
0100
1000
0000
0000
0010
0000
0010
0100
,  // measure 35
0000
0100
0001
0000
0000
0000
1000
0000
0010
0100
0001
0000
1000
0000
1000
0000
,  // measure 36
1100
0000
0001
0010
0000
0100
1000
0000
0001
0100
0000
0010
1000
0000
0100
0020
,  // measure 37
0000
0000
0031
0000
0100
0000
0100
0010
0100
0000
0001
2000
0000
0000
0001
0000
,  // measure 38
3001
0000
1000
0100
0000
1000
0010
0000
0100
0010
0000
1000
0001
0000
0010
0002
,  // measure 39
0000
0000
0103
0000
0000
0000
0010
1000
0001
0000
1000
0000
0101
0000
0100
0000
,  // measure 40
0010
0000
0010
1000
0000
0001
1000
0000
0001
0100
0000
0001
0010
0000
0100
0000
,  // measure 41
0020
0000
0000
0000
0030
0001
0010
0001
1000
0000
1000
0010
0000
0010
0100
0000
,  // measure 42
0001
0000
0001
1000
0100
0000
0010
0100
0010
0100
0010
0000
0001
0000
0100
0000
,  // measure 43
0020
0000
0000
0000
0000
1030
0001
0100
0010
0000
1000
0001
0000
0001
1000
0000
,  // measure 44
0010
0000
0100
0000
0001
0000
0100
0010
0000
0010
1000
0000
0001
0000
0010
0000
,  // measure 45
0001
0010
0001
0010
0001
0000
0100
0010
0000
0010
0100
0000
0001
0000
0010
0000
,  // measure 46
0100
0000
0010
0000
0001
0000
1000
0100
0000
0100
1000
0000
0010
0000
0100
0000
,  // measure 47
0010
1000
0010
1000
0010
0000
1000
0001
0000
0001
0100
0000
0010
0000
1000
0000
,  // measure 48
0001
0000
0100
0000
1000
0000
0100
0001
0000
0001
0010
0000
0100
0000
1000
0000
,  // measure 49
0010
0100
0010
0100
0010
0000
1000
0001
0000
0001
0010
0000
0100
0000
1000
0000
,  // measure 50
0010
0000
0100
0000
0001
0000
0010
0100
0000
0100
0010
0000
0001
0000
1000
0000
,  // measure 51
0001
0000
0000
0000
0100
0000
0000
0000
0010
0100
0010
0100
0010
0100
0010
0100
,  // measure 52
0010
1000
0100
0010
0100
1000
0010
0100
,  // measure 53
0001
0010
0001
0010
0001
0000
0010
0100
0000
0100
0010
0000
0001
0000
0010
0000
,  // measure 54
0100
1000
0010
1000
0100
0010
0001
0100
,  // measure 55
0010
1000
0010
1000
0010
0000
1000
0001
0000
0001
1000
0000
0100
0000
0010
0000
,  // measure 56
0001
0100
1000
0100
0001
0100
1000
0100
,  // measure 57
0010
0100
0010
0100
0010
0000
1000
0001
0000
0001
0010
0000
0001
0000
1000
0000
,  // measure 58
0010
0100
0001
0010
0100
0010
0001
1000
,  // measure 59
0001
0100
0001
0100
0001
0000
1000
0100
0000
0100
1000
0000
0010
0000
0100
0000
,  // measure 60
0202
0000
0000
0303
2002
0000
0000
3003
1000
0100
0000
2000
0000
0000
3010
0000
,  // measure 61
0100
0010
0100
0010
0100
0000
0002
0000
0200
0000
0000
0000
0010
0000
0303
0000
,  // measure 62
0202
0000
0000
0303
0220
0000
0000
0330
2002
0000
0000
3003
0000
0000
1000
0000
,  // measure 63
0001
1000
0001
1000
0001
0000
2000
0000
0200
0000
0000
0000
0001
0000
3300
0000
,  // measure 64
2200
0000
0000
3300
0022
0000
0000
0033
0100
0001
0000
0020
0000
0000
0031
0000
,  // measure 65
0001
1000
0001
1000
0001
0000
0020
0000
0200
0000
0000
0000
0001
0000
0330
0000
,  // measure 66
2200
0000
0000
3300
0202
0000
0000
0303
2002
0000
0000
3003
0000
0000
0010
0000
,  // measure 67
0200
0000
0301
0002
2000
0000
0000
0000
,  // measure 68
0010
3003
0000
0000
;

//---------------dance-single - C. Picardy----------------
#NOTEDATA:;
#CHARTNAME:;
#STEPSTYPE:dance-single;
#DESCRIPTION:C. Picardy;
#CHARTSTYLE:;
#DIFFICULTY:Easy;
#METER:3;
#RADARVALUES:0.277475,0.298942,0.159862,0.247786,0.000000,243.000000,223.000000,20.000000,31.000000,0.000000,0.000000,0.000000,0.000000,0.000000,0.277475,0.298942,0.159862,0.247786,0.000000,243.000000,223.000000,20.000000,31.000000,0.000000,0.000000,0.000000,0.000000,0.000000;
#CREDIT:C. Picardy;
#NOTES:
0000
0000
0000
0000
,
0000
0000
0000
0000
,
0000
0000
0000
0000
,
0000
0000
0000
0000
,
0001
1000
0100
0010
,
0001
1000
0010
0010
,
0100
0001
1000
0100
,
0010
0001
1000
1000
,
0010
0100
0001
1000
,
0010
0100
0010
0010
,
1000
0001
0010
0100
,
2002
0000
0000
3003
,
0010
0010
0200
0300
,
0001
1000
0200
0300
,
0010
0001
2000
3000
,
0001
0100
0010
0010
,
1000
0001
0002
0003
,
0010
0100
0200
0300
,
1000
0001
0100
0010
,
0100
0010
0100
0000
,
1001
0100
0010
1000
,
0001
0010
1001
0000
,
0100
0010
1001
0000
,
0010
0010
0100
0000
,
1001
0100
0010
0100
,
0001
1000
0110
0000
,
1000
0001
0110
0000
,
0200
0000
0310
0000
,
1000
0001
0001
0100
,
0020
0030
1000
0100
,
1000
0010
0100
0000
,
0001
0001
1000
1001
,
0110
0100
0001
1000
,
0200
0300
0010
0010
,
0001
0100
0010
1000
,
0010
0000
0100
0100
,
1001
0100
0100
0010
,
1000
0001
1000
1000
,
0001
0100
0001
0100
,
0020
0030
0100
0100
,
0110
1000
0001
1000
,
0200
0300
0010
0001
,
0100
0010
0100
0010
,
2000
0000
3001
0001
,
1100
0001
0100
0010
,
0100
0001
0010
0100
,
1000
0100
0010
0100
,
1000
0010
0100
0001
,
0010
0100
1000
0010
,
0100
0001
0010
0100
,
1000
0001
0100
0010
,
2002
3003
0010
0010
,
1001
0100
0010
0100
,
0001
0001
2000
3000
,
0001
0100
0010
1000
,
0001
1000
0001
1000
,
0001
0100
0001
0001
,
1000
0100
0020
0030
,
0100
1000
0002
0103
,
0020
0130
0020
0030
,
1001
0100
0010
0010
,
1000
0001
0220
0330
,
1000
1000
0202
0303
,
0010
0100
2002
3003
,
0100
0010
0100
0010
,
1000
0001
2002
3003
,
0001
1000
0220
0330
,
1000
0001
0200
0000
,
0300
0000
0000
0000
;

//---------------dance-single - C. Picardy----------------
#NOTEDATA:;
#CHARTNAME:;
#STEPSTYPE:dance-single;
#DESCRIPTION:C. Picardy;
#CHARTSTYLE:;
#DIFFICULTY:Medium;
#METER:6;
#RADARVALUES:0.372250,0.434824,0.311731,0.215814,0.000000,326.000000,287.000000,39.000000,27.000000,0.000000,0.000000,0.000000,0.000000,0.000000,0.372250,0.434824,0.311731,0.215814,0.000000,326.000000,287.000000,39.000000,27.000000,0.000000,0.000000,0.000000,0.000000,0.000000;
#CREDIT:C. Picardy;
#NOTES:
0000
0000
0000
0000
,
0000
0000
0000
0000
,
0000
0000
0000
0000
,
0000
0000
0000
0000
,
0001
0010
0001
0100
,
0010
0000
1000
0000
0100
0010
0001
0000
,
1000
0010
0100
0010
,
1000
0000
0100
0000
0010
0001
0100
0000
,
0010
1000
0001
0100
,
0010
0000
1000
0000
0001
0100
1000
0000
,
0100
0001
0010
0100
,
2000
3002
0203
0310
,
1000
0001
0100
0000
0010
0000
0010
0000
,
1000
0001
0010
0000
0100
0000
0100
0000
,
0010
0100
1000
0000
0001
0000
1000
0000
,
0001
1000
0010
0100
,
0001
0100
0010
0000
1000
0000
1000
0000
,
0010
0100
0001
0000
0010
0000
0010
0000
,
0100
1000
0010
0000
0200
0000
0310
0000
,
2000
0000
3001
0000
0200
0010
0310
0000
,
1001
0000
0110
0000
1000
0001
1000
0000
,
0110
0000
1000
0001
0200
0000
0300
0000
,
1001
0110
2002
3003
,
0010
0000
0100
1000
0020
0000
0130
0000
,
0101
0000
1100
0000
0001
1000
0100
0000
,
0011
0000
0010
0100
2000
0000
3001
0000
,
0101
1100
2002
3003
,
0020
0000
0130
0010
0200
0000
0300
0000
,
0001
1000
0010
0100
,
0001
0000
1000
0000
0010
0100
0001
0000
,
1000
0100
1000
0010
,
1000
0000
0100
0000
0010
0100
1000
0000
,
0001
0100
1000
0100
,
0001
0000
0010
0000
0100
0010
0001
0000
,
1000
0010
1000
0001
,
0100
0000
0010
0000
0010
1000
0001
0000
,
0110
0100
0001
1000
,
1100
0000
0010
0000
0100
0010
1000
0000
,
0011
0100
0010
1000
,
0110
0000
0001
0000
1000
0001
0010
0000
,
1100
0100
0110
0010
,
0011
0001
0101
0001
,
0110
1010
1100
0101
,
2002
0003
0010
3100
,
1001
0010
0100
0001
,
1000
0001
0100
0000
0001
0000
0001
0000
,
0010
0100
0010
0001
,
0100
0010
1000
0000
0100
0000
0100
0000
,
0010
0100
0010
0001
,
0001
0100
1000
0000
0100
0000
0010
0000
,
1000
0001
0010
0100
,
0012
1000
0100
0013
,
0100
0010
0100
0000
0001
0000
1000
0000
,
0010
0100
0010
0000
1000
0000
1000
0000
,
0100
0010
0100
0000
1000
0000
0001
0000
,
1000
0001
0100
0010
,
1000
0001
1000
0000
0010
0000
0100
0000
,
0001
1000
0001
0000
0010
0000
0100
0000
,
1000
0100
1000
0000
0020
0000
0130
0000
,
0002
1003
0020
0030
,
0101
0000
1100
0000
0010
1000
0100
0000
,
0110
0000
1000
0001
0200
0000
0310
0000
,
1001
0000
0101
0000
0101
0000
1000
0010
,
0200
0000
0301
0010
0200
0000
0300
0000
,
0011
0000
1001
0000
0100
0010
0100
0000
,
1001
0000
0010
0100
0020
0000
0031
0000
,
1010
0000
0110
0000
1001
0000
0100
0010
,
2000
0000
3100
0010
0002
0000
0000
0000
,
0003
0000
0000
0000
;

//---------------dance-single - C. Picardy----------------
#NOTEDATA:;
#CHARTNAME:;
#STEPSTYPE:dance-single;
#DESCRIPTION:C. Picardy;
#CHARTSTYLE:;
#DIFFICULTY:Hard;
#METER:8;
#RADARVALUES:0.524119,0.516354,0.287751,0.231800,0.159862,459.000000,423.000000,36.000000,29.000000,0.000000,0.000000,0.000000,0.000000,0.000000,0.524119,0.516354,0.287751,0.231800,0.159862,459.000000,423.000000,36.000000,29.000000,0.000000,0.000000,0.000000,0.000000,0.000000;
#CREDIT:C. Picardy;
#NOTES:
0000
0000
0000
0000
,
0000
0000
0000
0000
,
0000
0000
0000
0000
,
0000
0000
0000
0000
,
1001
0000
0001
0100
1000
0000
1000
0100
,
0001
0000
0000
0000
0001
0000
0100
0000
0010
1000
0010
0000
1000
0000
0000
0000
,
0110
0000
1000
0100
0001
0000
0001
0100
,
1000
0000
0000
0000
1000
0000
0100
0000
0010
0001
0010
0000
0001
0000
0000
0000
,
1000
0000
0100
0000
1000
0000
0100
1000
0000
0100
1000
0000
0100
0000
0010
0000
,
0001
0000
0010
0000
0001
0000
0010
0001
0000
0010
0001
0000
0100
0000
0001
0000
,
0010
0000
0100
0000
0010
0000
0100
0010
0000
0100
0010
0000
0100
0000
1000
0000
,
0002
0203
0310
1001
,
1000
0100
0010
0001
0010
0010
0100
2000
,
0000
0001
3001
0100
0020
0000
1030
0000
,
0001
0100
0010
0100
0002
0000
0103
0010
,
2000
0000
0000
0000
3001
0000
0000
0000
0100
0010
0100
0000
0010
0000
0000
0000
,
1000
0001
0100
0010
1000
1000
0100
0020
,
0000
0001
0031
0100
0020
0000
0130
0000
,
0001
0100
0010
0000
2000
0000
3001
0000
,
0200
0000
0310
0000
1000
0001
0100
0000
,
0101
0000
0000
0000
1001
0000
0000
0000
1000
0010
0000
0000
1000
0000
0100
0000
,
0020
0000
0031
0001
0100
0000
0110
0000
,
0101
0000
1100
0000
2002
0000
3003
0100
,
0020
0000
1030
0001
0100
0000
1001
0000
,
0110
0000
0000
0000
0011
0000
0000
0000
0100
0001
0000
0000
0010
0000
0100
0000
,
2000
0000
3010
0010
0100
0000
1001
0000
,
1010
0000
0011
0000
2002
0000
3003
0010
,
0200
0000
0310
0100
0002
0000
1003
0000
,
0010
0000
0000
0010
0100
0000
0001
0000
0010
0000
0000
0100
0010
0000
0100
0000
,
1000
0000
0000
0001
1000
0000
0010
0000
1000
0000
1000
0000
1010
0000
0000
0000
,
0001
0000
0000
0100
0001
0000
0100
0000
0010
0000
0000
1000
0010
0000
1000
0000
,
0001
0000
0000
0100
0001
0000
1000
0000
0100
0000
0100
0000
0110
0000
0000
0000
,
0001
0000
0000
0010
0001
0000
1000
0000
0100
0000
0000
0010
0100
0000
1000
0000
,
0001
0000
0000
0100
0010
0000
1000
0000
0001
0000
0001
0000
1001
0000
0000
0000
,
1000
0000
0000
0001
0100
0000
0010
0000
1000
0000
0000
1000
0100
0000
0010
0000
,
0001
0000
0000
1000
0100
0000
0010
0000
0001
1000
0001
0000
1001
0000
0000
0000
,
0110
1000
0010
1000
,
0001
0100
0010
1000
,
0001
0100
1000
0000
1000
0100
0001
0000
,
0001
0010
1000
0000
1000
0010
0001
0000
,
0100
0001
0100
0001
0100
0010
0100
0010
,
0100
1000
0100
1000
0100
0010
0100
0010
,
1000
0010
1000
0010
1000
0001
1000
0001
,
0200
0000
0000
0310
0100
0000
1001
0000
,
1000
0000
0001
0000
0100
0000
0001
1000
0000
1000
0001
0000
0100
0000
0010
0000
,
1000
0000
0001
0000
0010
0000
0001
1000
0000
1000
0001
0000
0010
0000
0100
0000
,
1000
0000
0100
0000
0010
0000
0100
1000
0000
1000
0010
0000
0100
0000
0001
0000
,
0010
0000
0001
0000
0100
0000
0010
0100
0000
0100
0001
0000
0010
0000
0100
0000
,
1000
0000
0100
0000
0001
0000
0100
0001
0000
0001
0100
0000
1000
0000
0010
0000
,
0001
0000
0010
0000
1000
0000
0010
0001
0000
0001
0010
0000
1000
0000
0001
0000
,
1000
0000
0100
0000
0010
0000
0001
0010
0000
0010
0100
0000
1000
0000
0010
0000
,
1000
0001
0100
0110
,
1000
0100
1000
0100
0010
0100
0010
0100
,
0010
0001
0010
0001
0100
0001
0100
0001
,
1000
0100
1000
0100
1000
0010
1000
0010
,
0100
0010
0100
0010
0100
0001
0100
0000
,
0001
0100
1000
0100
0001
0100
1000
0100
,
0001
0010
1000
0010
0001
0010
1000
0010
,
0001
0100
0010
0100
0001
0100
0010
1000
,
0100
0010
0001
0010
0100
0010
0001
0000
,
1100
0000
0000
0000
0101
0000
0000
0000
1000
0100
0000
0000
0010
0000
0100
0000
,
2000
0000
3010
0010
0100
0000
1001
0000
,
0101
0000
1100
0000
2002
0000
3003
0010
,
0200
0000
0310
0010
0001
0000
0110
0000
,
0011
0000
0000
0000
1010
0000
0000
0000
0001
0100
0000
0000
0010
0000
1000
0000
,
0200
0000
1300
1000
0010
0000
1001
0000
,
0101
0000
0110
0000
2002
0000
3003
0100
,
0020
0000
1030
0001
0200
0000
0000
0000
,
0300
0000
0000
0000
;
