#TITLE:Move your Body;
#SUBTITLE:;
#ARTIST:Eiffel 65;
#TITLETRANSLIT:;
#SUBTITLETRANSLIT:;
#ARTISTTRANSLIT:;
#GENRE:;
#CREDIT:;
#BANNER:moveyourbodybn.png;
#BACKGROUND:moveyourbodybg.png;
#LYRICSPATH:;
#CDTITLE:;
#MUSIC:moveyourbody.ogg;
#OFFSET:-0.951432;
#SAMPLESTART:29.590031;
#SAMPLELENGTH:12.000000;
#SELECTABLE:YES;
#BPMS:0.000000=129.990005
;
#STOPS:
;
#BGCHANGES:;
#KEYSOUNDS:;
#ATTACKS:;

//---------------dance-single - C. Picardy----------------
#NOTES:
     dance-single:
     :
     Beginner:
     1:
     0.089943,0.153902,0.077728,0.000000,0.000000,81.000000,71.000000,10.000000,0.000000,0.000000,0.000000,0.089943,0.153902,0.077728,0.000000,0.000000,81.000000,71.000000,10.000000,0.000000,0.000000,0.000000:
// measure 0
0000
0000
0000
0000
,  // measure 1
0000
0000
0000
0000
,  // measure 2
0000
0000
0000
0000
,  // measure 3
0000
0000
0000
0000
,  // measure 4
0001
0000
0000
0000
,  // measure 5
1000
0000
0000
0000
,  // measure 6
0001
0000
0000
0000
,  // measure 7
1000
0000
0000
0000
,  // measure 8
0010
0000
0010
0000
,  // measure 9
0010
0000
0000
0000
,  // measure 10
0100
0000
0100
0000
,  // measure 11
0100
0000
0000
0000
,  // measure 12
0001
0000
0001
0000
,  // measure 13
0001
0000
0000
0000
,  // measure 14
1000
0000
1000
0000
,  // measure 15
1000
0000
0000
0000
,  // measure 16
1001
0000
0000
0000
,  // measure 17
1001
0000
0000
0000
,  // measure 18
1001
0000
0000
0000
,  // measure 19
1001
0000
0000
0000
,  // measure 20
0110
0000
0000
0000
,  // measure 21
0110
0000
0000
0000
,  // measure 22
0110
0000
0000
0000
,  // measure 23
0110
0000
0000
0000
,  // measure 24
0100
0000
0000
0000
,  // measure 25
0010
0000
0000
0000
,  // measure 26
1000
0000
0000
0000
,  // measure 27
0001
0000
0000
0000
,  // measure 28
1000
0000
0000
0000
,  // measure 29
0001
0000
0000
0000
,  // measure 30
0100
0000
0000
0000
,  // measure 31
0010
0000
0000
0000
,  // measure 32
1000
0000
0000
0000
,  // measure 33
0000
0000
0000
0000
,  // measure 34
0010
0000
0000
0000
,  // measure 35
0100
0000
0000
0000
,  // measure 36
0010
0000
0000
0000
,  // measure 37
0100
0000
0000
0000
,  // measure 38
1000
0000
0000
0000
,  // measure 39
0001
0000
0000
0000
,  // measure 40
1000
0000
0000
0000
,  // measure 41
0001
0000
0000
0000
,  // measure 42
0100
0000
0100
0000
,  // measure 43
0000
0000
0000
0000
,  // measure 44
0010
0000
0010
0000
,  // measure 45
0000
0000
0000
0000
,  // measure 46
1000
0000
1000
0000
,  // measure 47
0000
0000
0000
0000
,  // measure 48
0001
0000
0001
0000
,  // measure 49
1001
0000
0000
0000
,  // measure 50
1000
0000
0000
0000
,  // measure 51
0001
0000
0000
0000
,  // measure 52
1000
0000
0000
0000
,  // measure 53
0001
0000
0000
0000
,  // measure 54
0100
0000
0000
0000
,  // measure 55
0010
0000
0000
0000
,  // measure 56
0100
0000
0000
0000
,  // measure 57
0010
0000
0000
0000
,  // measure 58
1000
0000
1000
0000
,  // measure 59
1000
0000
0000
0000
,  // measure 60
0001
0000
0001
0000
,  // measure 61
0001
0000
0000
0000
,  // measure 62
0010
0000
0010
0000
,  // measure 63
0010
0000
0000
0000
,  // measure 64
0100
0000
0100
0000
,  // measure 65
0100
0000
0000
0000
,  // measure 66
0110
0000
0000
0000
;

//---------------dance-single - C. Picardy----------------
#NOTES:
     dance-single:
     :
     Easy:
     3:
     0.242069,0.256504,0.163230,0.031091,0.000000,218.000000,197.000000,21.000000,4.000000,0.000000,0.000000,0.242069,0.256504,0.163230,0.031091,0.000000,218.000000,197.000000,21.000000,4.000000,0.000000,0.000000:
0000
0000
0000
0000
,
0000
0000
0000
0000
,
0000
0000
0000
0000
,
0000
0000
1000
0000
,
1000
0000
0001
0000
,
0001
0000
0100
0000
,
0010
0000
1000
0000
,
2002
0000
0000
3003
,
0100
0000
0010
0010
,
1000
0000
0001
0100
,
0001
0000
1000
1000
,
0001
0000
0100
0010
,
0100
0000
0001
1000
,
0001
0000
1000
0100
,
1000
0000
0001
0010
,
0001
0000
1000
1000
,
0001
1000
0001
1000
,
0010
0100
0010
0100
,
0001
1000
0001
1000
,
0100
0010
0100
0100
,
0010
0100
1000
1000
,
0001
1000
0001
0001
,
1000
0001
1000
0010
,
1001
0000
0000
0000
,
0010
0100
0001
0001
,
0001
1000
0100
0010
,
0010
0001
1000
1000
,
1000
0010
0100
0010
,
1000
0001
0010
0010
,
0010
0100
1000
0001
,
0010
0100
0010
0010
,
0010
0001
1000
0100
,
1001
0000
0100
0000
,
0010
0000
0100
0000
,
0001
0001
0001
0000
,
0000
1000
1000
0000
,
0110
0000
1001
0000
,
0100
0010
0010
1000
,
0001
1000
1000
0000
,
0000
0100
0010
0001
,
0001
1000
1000
0000
,
0100
0010
0100
0010
,
1000
1000
1001
0000
,
0100
0010
0010
0000
,
1001
0000
0110
0000
,
1000
0001
1000
0100
,
0010
0010
0110
0000
,
0100
0000
1001
0000
,
0100
0010
1000
0001
,
0220
0000
0000
0330
,
1001
0000
0010
0010
,
1001
0000
0100
0100
,
1001
0000
0010
0100
,
1001
0000
0001
1000
,
0110
0000
1000
0001
,
0110
0000
0100
0010
,
1001
0000
1000
0001
,
0110
0000
0100
0010
,
1001
0100
0010
0010
,
1000
0001
0100
0100
,
0001
0001
1000
0100
,
1000
1000
0001
0001
,
0001
0100
0010
0010
,
0010
1000
0100
0010
,
0001
1000
0100
0010
,
0100
0000
0000
0000
,
1001
0000
0000
0000
;

//---------------dance-single - C. Picardy----------------
#NOTES:
     dance-single:
     :
     Medium:
     5:
     0.325349,0.390586,0.279822,0.085501,0.000000,293.000000,257.000000,36.000000,11.000000,0.000000,0.000000,0.325349,0.390586,0.279822,0.085501,0.000000,293.000000,257.000000,36.000000,11.000000,0.000000,0.000000:
0000
0000
0000
0000
,
0000
0000
0000
0000
,
0000
0000
0000
0000
,
0000
0000
0010
0010
,
0100
0001
1000
1000
,
0100
0010
0001
0001
,
1000
0010
0100
0100
,
1001
0000
0100
0100
,
0010
0000
1000
0000
0001
1000
0001
0000
,
0100
0010
1000
0100
,
0010
0000
0001
0000
1000
0100
0010
0000
,
0001
1000
0010
0010
,
0110
1001
0100
0100
,
0110
1001
1000
1000
,
0001
0000
1000
0000
0010
0100
0010
0000
,
1000
0001
0010
0100
,
1100
0000
0101
0000
1000
0001
1000
0000
,
0110
1001
0100
0010
,
0110
0000
1001
0000
0100
0010
0100
0000
,
0110
1001
0010
0100
,
1100
0101
1000
0010
,
1010
0011
1000
0100
,
0011
0000
1100
0000
0001
0100
0010
0000
,
2002
0000
0000
3003
,
0001
0000
0100
0010
0100
0000
0010
0000
,
1000
0000
0001
0000
0100
0000
0010
1000
,
0001
0000
0010
0001
1000
0000
0100
0000
,
0010
0000
0100
0000
1000
0000
0001
0100
,
0010
0000
1000
0001
0100
0000
0100
0000
,
0110
0000
0001
0000
0010
0000
1000
0100
,
0010
0000
0001
0100
0010
0000
1000
0000
,
0001
0010
0100
1000
,
0220
0000
0000
0000
,
0000
0000
0330
0000
,
0100
0000
0100
0010
0100
0000
0000
0000
,
0001
0000
0001
0000
1000
0001
0000
0000
,
1000
0000
0000
1000
1000
0000
0000
0001
,
0001
0100
0010
0100
,
0001
1000
0010
0000
1001
0000
0000
0000
,
0100
0000
0010
0000
1000
0000
0100
0010
,
0100
0000
0010
0100
0010
0000
0000
0000
,
0100
0100
1000
0001
,
0010
0100
0010
0000
1001
0000
0000
0000
,
0100
0100
0010
1000
,
0001
0000
0000
0001
0001
0000
0000
0010
,
0010
0100
1000
0001
,
0010
0100
1000
0000
0001
0000
0000
0000
,
0100
0000
0100
0000
0100
0010
0000
0000
,
0100
0010
1000
0001
,
0120
0000
1000
1030
,
0001
0000
1000
0000
0100
0010
0100
0000
,
1000
1000
0001
0001
,
0100
0000
0010
0000
0100
0010
0100
0000
,
0001
1000
0010
0100
,
1100
0101
0010
1000
,
0101
1100
0001
0010
,
1100
0000
0101
0000
0100
0010
1000
0000
,
0001
0100
0010
1000
,
2001
0010
0100
3010
,
1002
0010
0100
0013
,
0210
0000
1000
0000
0001
0001
0301
0000
,
0010
0100
1000
0100
,
0102
1000
0010
1003
,
2100
0001
0010
3001
,
0100
0000
0001
0000
1000
0000
0100
0010
,
0100
1000
0000
0001
,
0200
0000
0000
0000
,
0300
0000
0000
0000
;

//---------------dance-single - ----------------
#NOTES:
     dance-single:
     :
     Hard:
     7:
     0.405298,0.449271,0.279822,0.069956,0.000000,365.000000,329.000000,36.000000,9.000000,0.000000,0.000000,0.405298,0.449271,0.279822,0.069956,0.000000,365.000000,329.000000,36.000000,9.000000,0.000000,0.000000:
0000
0000
0000
0000
,
0000
0000
0000
0000
,
0000
0000
0000
0000
,
0000
0000
1000
0001
,
0010
0010
0001
1000
,
0100
0100
0010
0100
,
1000
0000
1000
0000
0001
0100
0010
0000
,
2002
3003
0100
0100
,
0110
0000
1001
0000
0001
0100
0010
1000
,
0100
1001
0010
0100
,
1001
0000
0001
0010
0100
1000
0100
0010
,
0001
0100
0010
0100
,
0101
1001
0100
0010
,
0011
1010
0100
0010
,
1100
0000
1000
0100
0010
0001
0010
0100
,
1000
0010
1001
0110
,
0001
0100
0001
0100
0010
0100
0010
0100
,
0010
1000
0010
1000
0100
1000
0100
1000
,
0100
0010
0100
0010
0001
0010
0001
0010
,
0001
1000
0001
1000
0100
0010
0100
0010
,
0001
0010
0100
0010
0001
0010
0100
1000
,
0010
1000
0100
1000
0010
1000
0100
1000
,
0001
0100
0010
0100
0001
0100
0010
0100
,
0001
0000
0000
1000
0001
0100
1000
0100
,
0001
0000
1000
0100
0010
0000
0110
0000
,
0011
0000
0001
0100
1000
0000
1000
0100
,
0001
0000
0001
0010
1000
0000
0110
0000
,
0011
0000
1000
0100
0001
0001
0100
1000
,
0010
0000
0100
0001
0010
0000
0110
0000
,
0011
0000
1000
0100
0001
0000
0001
0100
,
1000
0000
1000
0010
0001
0000
0010
0000
,
1000
0000
0001
0100
0010
1000
0100
0010
,
2002
0000
0000
0000
,
0000
0000
3003
0000
,
0100
0000
0010
0100
0010
0000
1000
0000
,
0100
0000
0010
0001
0010
0100
0000
0000
,
1000
0000
0000
0001
1000
0000
0000
0100
,
0010
0001
0010
0000
0100
0000
0100
0000
,
1000
0100
0010
0000
0010
0000
0000
0000
,
0010
0000
1000
0001
0100
0000
0001
0001
,
0001
0000
1000
1000
1000
0000
0000
0100
,
0010
0010
0110
1001
,
1000
0000
0010
0100
0001
0000
1000
0000
,
0100
0000
0010
0100
1000
0000
0001
0000
,
0200
0000
0000
0310
0020
0000
0000
1030
,
1000
0100
0010
0001
,
1000
0100
1000
0100
1000
0000
0000
0000
,
0001
0100
0010
0000
,
1000
0000
0001
0100
0010
0000
1000
0100
,
0020
0000
0100
0130
,
1001
0000
0110
0000
0001
0100
1000
0100
,
0001
0110
1000
0100
,
0011
0000
1000
0100
0010
0001
0010
0100
,
1000
0001
0100
0010
,
1010
0110
0001
0010
,
0011
0110
1000
0001
,
0100
0000
0010
0100
0010
1000
0100
0010
,
0001
0001
1100
0011
,
1000
0100
1000
0100
0010
0100
0010
0100
,
0010
0001
0010
0001
0100
0001
0100
0001
,
0100
0010
0100
0010
1000
0010
1000
0010
,
1000
0001
1000
0001
0100
0000
0010
0000
,
1010
1100
0001
0010
,
1100
0101
0010
0100
,
0010
0000
1000
0000
0100
0010
0001
0010
,
0100
0000
0100
0000
0000
0000
0010
0100
,
2002
0000
0000
0000
,
0000
0000
0000
0000
,
3003
0000
0000
0000
;

//---------------dance-single - C. Picardy----------------
#NOTES:
     dance-single:
     :
     Challenge:
     9:
     0.420844,0.475698,0.349778,0.917196,0.031091,379.000000,334.000000,45.000000,118.000000,0.000000,39.000000,0.420844,0.475698,0.349778,0.917196,0.031091,379.000000,334.000000,45.000000,118.000000,0.000000,39.000000:
0000
0000
0000
0000
,
0000
0000
0000
0000
,
0000
0000
0000
0000
,
0000
0000
2000
0200
,
0010
0000
0001
3300
0200
0000
2000
0000
,
0001
0000
0010
3300
0200
0000
0020
0000
,
0001
0330
1000
0100
0010
0001
0010
0100
,
2000
0000
0000
3001
0100
1000
0100
0001
,
0202
0000
1000
0303
0001
0100
1000
0100
,
0202
0000
0010
0303
2000
0000
0200
0000
,
0010
3300
0100
0010
0001
0010
0100
2000
,
0002
0000
0010
3003
0200
0000
2300
0000
,
0002
0000
0010
3003
0002
0000
2000
0000
,
0010
0000
0010
3003
0200
0000
0020
0000
,
1000
0330
0010
1000
0100
0010
0001
2000
,
0200
0000
0010
3300
0100
0000
0010
0000
,
0202
0000
0010
0303
0010
1000
0001
0100
,
2002
0000
0010
3003
1000
0000
2200
0000
,
0010
3300
0100
0001
0010
0100
1000
0001
,
2002
0000
0010
3003
0002
0000
0200
0000
,
0010
0303
0101
0000
2000
0000
0200
0000
,
0010
3300
1100
0000
2001
0000
0200
0000
,
0001
3300
1000
0100
0010
0001
0010
0100
,
1001
0000
0000
0100
0010
1000
0100
0010
,
0022
0000
0000
0033
1000
0000
0100
0000
0220
0000
0000
0330
2200
0000
0000
3300
,
2002
0000
0000
3003
0100
0000
0001
0000
0022
0000
0000
0033
0100
0000
0010
0000
,
2020
0000
0000
3030
1000
0000
0001
0000
0202
0000
0000
0303
0220
0000
0000
0330
,
2020
0000
0000
3030
0100
0000
0010
0000
0001
0000
0010
0000
1000
0000
0100
0000
,
0202
0000
0000
0303
0100
0000
0010
0000
0022
0000
0000
0033
0202
0000
0000
0303
,
2200
0000
0000
3300
1000
0000
0100
0000
0220
0000
0000
0330
0001
0000
0100
0000
,
0202
0000
0000
0303
1000
0000
0100
0000
2200
0000
0000
3300
0220
0000
0000
0330
,
2002
0000
0000
3003
0001
0000
0100
0000
1000
0000
0100
0000
0010
0000
1000
0000
,
4020
0000
0000
0000
,
0000
0000
0000
0000
0000
0000
0000
0000
0000
0000
0000
0000
3030
0000
0000
1000
,
0001
0100
0010
1000
0001
0000
0001
0000
,
0001
1000
0100
0010
0001
0001
0000
0000
,
2000
0000
0000
3100
0200
0000
0000
0310
,
0010
0001
0001
0010
0001
0000
0011
0000
,
1000
0100
1000
0100
1000
0000
0001
0000
0100
0000
0000
0000
0100
0000
0000
0000
,
0100
0010
1000
0001
1000
1000
0100
0010
,
0110
0000
0100
1000
1100
0000
0000
0001
,
0010
0000
0010
0000
0100
0000
0010
0000
0100
0000
0000
0000
0011
0000
0000
1000
,
0100
0010
0100
1000
0010
0000
0010
0000
,
0010
0000
1000
0000
0100
0000
0010
0000
0001
0000
0001
0000
0100
0010
0100
0000
,
0002
0000
0000
0013
0020
0000
0000
0130
,
0100
0000
1000
0000
0001
0000
0100
0000
0002
0000
0000
0000
0103
0001
0100
0000
,
0010
1000
0010
1000
0010
0000
1000
0000
0100
0000
0000
0000
0100
0000
0000
0000
,
0100
0010
0001
0010
0100
1000
0000
0000
,
0102
0000
1003
0100
0002
0000
0103
1000
,
2002
3003
0100
0010
,
0202
0000
1000
0303
0001
0100
0010
2000
,
0200
0000
0010
3300
0002
0000
2000
0000
,
0010
3003
1000
0100
0001
0100
0010
0200
,
2000
0000
0001
3300
1000
0000
0001
0000
,
0202
0000
0010
0303
1000
0000
0010
0000
,
0220
0000
1000
0330
0001
0000
2002
0000
,
0010
3003
1000
0100
0010
0001
0100
0020
,
0200
0000
1000
0330
0001
0000
0100
0000
,
2002
0000
0010
3003
1000
0001
0100
0001
,
2002
0000
0010
3003
0100
0000
2200
0000
,
0010
3300
0100
1000
0010
0100
0001
1000
,
2002
0000
0010
3003
0200
0000
2000
0000
,
0001
0000
0010
3300
2000
0000
0200
0000
,
0010
0000
0001
3300
2002
0000
0010
0003
,
0002
3000
1003
0100
0001
0100
1000
0002
,
0200
0000
1000
0303
0000
0000
1000
0001
,
0204
0000
0000
0000
,
0000
0000
0000
0000
,
0303
0000
0000
0000
;
