#TITLE:Move This;
#SUBTITLE:;
#ARTIST:Technotronic feat. Ya Kid K;
#TITLETRANSLIT:;
#SUBTITLETRANSLIT:;
#ARTISTTRANSLIT:;
#GENRE:;
#CREDIT:;
#BANNER:movethisbn.png;
#BACKGROUND:movethisbg.png;
#LYRICSPATH:;
#CDTITLE:;
#MUSIC:Move This.ogg;
#OFFSET:0.000000;
#SAMPLESTART:79.507370;
#SAMPLELENGTH:14.840004;
#SELECTABLE:YES;
#BPMS:0.000000=120.690010
;
#STOPS:
;
#BGCHANGES:12.000=dancefloor.mp4=1.000=1=0=1=SongBgWithMovieViz==CrossFade==,
16.000=flash=1.600=0=0=1=====,
16.250=dancefloor.mp4=1.000=0=1=1=StretchRewind====,
32.000=discospotlights.mp4=1.000=0=1=1=StretchRewind==CrossFade_Fastest==,
62.000=movethisbg.png=1.000=0=0=1===CrossFade_Faster==,
64.000=flash=1.600=0=0=1=====,
64.250=dancefloor.mp4=1.000=0=1=1=StretchRewind====,
96.000=spinningstars.mp4=1.000=0=1=1=StretchRewind==CrossFade_Fastest==,
128.000=discospotlights.mp4=1.000=0=1=1=StretchRewind==CrossFade_Fastest==,
144.000=dancefloor.mp4=1.000=0=1=1=StretchRewind==CrossFade_Fastest==,
160.000=spinningstars.mp4=1.000=0=1=1=StretchRewind==CrossFade_Fastest==,
192.000=discospotlights.mp4=1.000=0=1=1=StretchRewind==CrossFade_Fastest==,
208.000=flash=1.000=0=0=1=====,
208.250=movethisbg.png=1.000=0=0=1=====,
99999=-nosongbg-=1.000=0=0=0 // don't automatically add -songbackground-
;
#KEYSOUNDS:;
#ATTACKS:;

//---------------dance-single - C. Picardy----------------
#NOTES:
     dance-single:
     :
     Beginner:
     1:
     0.100928,0.147505,0.133662,0.000000,0.000000,74.000000,60.000000,14.000000,0.000000,0.000000,0.000000,0.100928,0.147505,0.133662,0.000000,0.000000,74.000000,60.000000,14.000000,0.000000,0.000000,0.000000:
0000
0000
0000
0000
,
0000
0000
0000
0000
,
0000
0000
0000
0000
,
0000
0000
0000
0000
,
0010
0000
0000
0000
,
0000
0000
0000
0000
,
0010
0000
0000
0000
,
0000
0000
0000
0000
,
1001
0000
0000
0000
,
1001
0000
0000
0000
,
0110
0000
0000
0000
,
0110
0000
0000
0000
,
1001
0000
0000
0000
,
1001
0000
0000
0000
,
0110
0000
0000
0000
,
1001
0000
0000
0000
,
0010
0000
0010
0000
,
1000
0000
1000
0000
,
0001
0000
0001
0000
,
0100
0000
0100
0000
,
0010
0000
0000
0000
,
1000
0000
0000
0000
,
0001
0000
0000
0000
,
0100
0000
0000
0000
,
1001
0000
0000
0000
,
1001
0000
0000
0000
,
0110
0000
0000
0000
,
0110
0000
0000
0000
,
0100
0000
0000
0000
,
0001
0000
0000
0000
,
1000
0000
0000
0000
,
0010
0000
0000
0000
,
0001
0000
0001
0000
,
1000
0000
1000
0000
,
0010
0000
0010
0000
,
0100
0000
0100
0000
,
0001
0000
0000
0000
,
1000
0000
0000
0000
,
0010
0000
0000
0000
,
0100
0000
0000
0000
,
1000
0000
1000
0000
,
0001
0000
0001
0000
,
1000
0000
1000
0000
,
0001
0000
0001
0000
,
0010
0000
0000
0000
,
0010
0000
0000
0000
,
0100
0000
0000
0000
,
0100
0000
0000
0000
,
1001
0000
0000
0000
,
1001
0000
0000
0000
,
1000
0000
1000
0000
,
0001
0000
0001
0000
;

//---------------dance-single - C. Picardy----------------
#NOTES:
     dance-single:
     :
     Easy:
     3:
     0.212768,0.248229,0.114567,0.019095,0.000000,156.000000,144.000000,12.000000,2.000000,0.000000,0.000000,0.212768,0.248229,0.114567,0.019095,0.000000,156.000000,144.000000,12.000000,2.000000,0.000000,0.000000:
0000
0000
0000
0000
,
0000
0000
0000
0000
,
0000
0000
0000
0000
,
0000
0000
0000
0000
,
1000
0000
1000
0000
,
0001
0000
0001
0000
,
0010
0000
0010
0000
,
0000
0000
0010
0000
,
1001
0000
0100
0000
,
0100
0000
0010
0000
,
1001
0000
0010
0000
,
0010
0000
0100
0000
,
0110
0000
1000
0000
,
0001
0000
1000
0000
,
0110
0000
0001
0000
,
1000
0000
2002
3003
,
0001
0001
0001
0000
,
1000
1000
1000
0000
,
0001
0001
1000
1000
,
0001
1000
0001
0000
,
0100
0000
0010
0000
,
1000
0000
0001
0000
,
0010
0000
0100
0000
,
1000
0000
0001
0000
,
1000
0001
1000
0001
,
0100
0100
0000
0100
,
0010
0010
0000
1000
,
0001
0000
0100
0100
,
0010
0100
0010
0100
,
0001
1000
0001
1000
,
0100
0010
0100
0010
,
0001
1000
0001
1000
,
0001
0001
0001
1000
,
1000
1000
1000
0010
,
0100
0001
0100
1000
,
0100
0001
1000
0000
,
0010
0010
0110
0000
,
0001
0001
1001
0000
,
0100
0000
0010
0000
,
1000
0000
0001
0001
,
1000
0100
0001
0100
,
1000
0100
0001
0100
,
1000
0100
0001
0100
,
1000
1000
0001
0001
,
1000
0010
0001
0010
,
1000
0010
0001
0010
,
1000
0010
0001
0010
,
1000
1000
0001
0001
,
1001
0000
1001
0000
,
0110
0000
0110
0000
,
1000
0100
0001
0010
,
1000
0100
0001
0010
,
1001
0000
0000
0000
;

//---------------dance-single - C. Picardy----------------
#NOTES:
     dance-single:
     :
     Medium:
     5:
     0.345066,0.371896,0.238682,0.076378,0.014321,253.000000,228.000000,25.000000,8.000000,0.000000,0.000000,0.345066,0.371896,0.238682,0.076378,0.014321,253.000000,228.000000,25.000000,8.000000,0.000000,0.000000:
0000
0000
0000
0000
,
0000
0000
0000
0000
,
0000
0000
0000
0000
,
0000
0000
0000
0000
,
1000
1000
0001
0001
,
0100
0100
0010
0100
,
0001
0000
1000
0000
0001
0000
0000
1001
,
0000
0000
0100
0000
0100
0010
0100
0000
,
1001
0000
1000
0001
1000
0000
0100
0000
,
0010
0110
0010
1100
,
0001
0000
0100
0001
0100
0000
0001
0000
,
0100
0110
1000
1001
,
0100
0000
0001
0100
0020
0000
1030
0000
,
0001
0101
1000
1100
,
0010
0000
0100
0010
0100
0000
1001
0000
,
0100
0010
2000
0000
,
3001
0000
0100
0010
0100
0000
0010
0100
,
0010
0100
1001
0010
,
1000
0001
0001
0000
0001
1000
1000
0000
,
0100
0010
0010
0000
0010
0100
0100
0000
,
1000
0100
0010
0000
0100
0000
0010
0000
,
0001
0100
0020
0030
,
1000
0001
1000
0100
,
0010
0010
0001
0001
0020
0000
0030
0000
,
0100
0000
0010
0000
1100
0000
0100
0010
,
0100
0000
0011
0000
0100
0000
0010
1000
,
0010
0110
1000
1000
,
0001
0000
0001
0000
1000
0001
0100
0001
,
1000
1000
0100
0100
,
0010
0010
0001
0001
,
1000
0000
0010
0100
0001
0000
0110
0000
,
0000
0000
0001
1000
0001
0000
1000
0000
,
0001
0100
0001
0000
0101
0000
0100
0010
,
0100
0010
1010
1000
,
0001
0100
1000
0000
1000
0100
0001
0000
,
1100
0101
2002
3003
,
0010
0100
0010
0100
0010
0000
0010
0000
,
1000
0001
0200
0300
,
0001
0010
0001
0000
0100
0000
0100
0000
,
0001
0100
1000
0100
0002
0000
0003
0000
,
1000
0100
1000
0000
0001
1000
0001
0000
,
0100
0000
1001
0000
0010
0000
1000
0100
,
0010
1001
0010
0001
,
0000
0000
0010
0001
1000
1000
1000
0000
,
0100
0010
1000
0000
0100
0000
0010
0000
,
0001
0000
0010
0100
1000
0000
0100
0000
,
0010
0000
0001
0100
0010
0000
1001
0000
,
0100
0000
0010
0100
0010
0000
1000
0001
,
0100
0110
1000
0101
,
0010
0000
1010
0000
0100
0000
0100
0010
,
0001
1000
0100
0000
0010
0001
1000
0000
,
0010
0000
1000
0000
0001
0000
0000
0000
1000
0000
0000
0001
0000
0100
0000
0010
;

//---------------dance-single - C. Picardy----------------
#NOTES:
     dance-single:
     :
     Hard:
     7:
     0.456905,0.446275,0.248229,0.066831,0.124114,335.000000,309.000000,26.000000,7.000000,0.000000,0.000000,0.456905,0.446275,0.248229,0.066831,0.124114,335.000000,309.000000,26.000000,7.000000,0.000000,0.000000:
0000
0000
0000
0000
,
0000
0000
0000
0000
,
0000
0000
0000
0000
,
0100
0100
0100
0100
,
0010
0000
0000
1000
0010
0000
0100
0000
0010
0000
0000
1000
0010
0000
0100
0000
,
0010
0000
0000
0100
0010
0000
1000
0000
0010
0000
0000
0000
1000
0001
0000
0000
,
0100
0011
0100
0011
,
1000
0000
0000
0000
0001
1000
0000
0000
0010
0000
0000
0010
1000
0000
0001
0000
,
1001
0000
0001
0100
1000
0000
1000
0100
,
0001
0000
0001
0100
0010
0100
1000
0100
,
0001
0000
0001
0010
1000
0000
1000
0010
,
0001
0000
0001
0010
0100
1000
0100
0010
,
0001
0000
0001
0010
0100
0000
0011
0000
,
1000
0000
0011
0000
1000
0100
0001
0100
,
1000
0000
0010
1000
0100
0000
0100
1000
,
0010
0100
2002
3003
,
1000
0100
0010
0100
0001
0000
0001
0100
,
0010
0100
1000
0010
0001
0000
0001
0010
,
1000
0100
0001
0100
1000
0100
0001
0100
,
1000
0000
0010
0000
0001
0000
0010
0000
0100
0010
0000
0010
0100
0000
0000
0000
,
0001
0000
1000
0000
0001
0000
0100
0000
0001
0000
0000
1000
0000
0000
2000
0000
,
0000
3001
0001
1000
0100
0000
1100
0000
,
0010
1100
0010
0101
,
0011
0000
0000
0000
1100
0000
0000
0000
0001
1000
0000
1000
0001
0000
0000
0000
,
1000
0010
0100
0010
1000
0010
0100
0010
,
1000
0000
0101
0000
0001
0100
1000
0100
,
0001
1100
0010
0001
,
0100
0000
0020
0000
1000
1000
1030
0000
,
0001
1000
0100
1000
0010
0000
1001
0000
,
0010
0001
0010
0100
1000
0000
0101
0000
,
0010
0001
0100
0010
1000
0000
1001
0000
,
0100
0000
0010
0010
0020
0000
0000
0030
,
1000
0100
0001
0100
1000
0000
1000
0100
,
0001
0100
1000
0100
0001
0000
0100
1000
,
0001
0010
0001
0010
0100
1000
0100
1000
,
0001
0000
0010
0000
0100
0000
1000
0000
0001
0100
0000
0100
0010
0000
0000
0000
,
0010
0000
1000
0000
0100
0000
1000
0000
0010
0000
0000
0100
0000
0000
0200
0000
,
0000
0001
0301
0100
0010
0000
1001
0000
,
0100
0010
0000
0000
0100
0000
0010
0000
0100
0000
0000
0000
0100
0000
0010
0000
,
1000
0000
0001
0000
0100
0000
0010
0000
1000
0001
0000
0001
1000
0000
0000
0000
,
0001
0100
0010
0100
0001
0100
0010
0100
,
0001
0000
1100
0000
0100
0010
0001
0001
,
0010
1001
0100
0011
,
0100
0000
0001
1000
0001
1000
0010
0100
,
0010
1000
0100
0010
0001
0000
0110
0000
,
1000
0100
0001
0100
1000
0000
0101
0000
,
0001
0100
0100
0010
0100
0000
0110
0000
,
1001
0000
0001
0100
0020
0000
1030
0001
,
0100
0000
0001
0000
0100
0010
0000
0000
0100
0000
0010
0000
1000
0010
0000
0000
,
0100
0000
0100
0000
0001
0010
0000
0000
0100
0000
0000
0010
0000
0000
0001
0000
,
1000
0000
0001
0000
1000
0100
0000
0000
1000
0000
0001
0000
0100
0001
0000
0000
,
1000
0000
0000
0000
0010
0000
1000
0000
0001
0000
0000
1000
0000
1001
0000
1001
;

//---------------dance-single - C. Picardy----------------
#NOTES:
     dance-single:
     :
     Challenge:
     9:
     0.566017,0.571613,0.190945,0.248229,0.458269,415.000000,395.000000,20.000000,26.000000,6.000000,7.000000,0.566017,0.571613,0.190945,0.248229,0.458269,415.000000,395.000000,20.000000,26.000000,6.000000,7.000000:
// measure 0
0000
0000
0000
0000
,  // measure 1
0000
0000
0000
0000
,  // measure 2
0000
0000
0000
0000
,  // measure 3
0010
0010
0010
0010
,  // measure 4
0010
0000
0100
0010
0100
0000
0001
0000
0100
0000
0010
0100
0010
0000
1000
0000
,  // measure 5
0010
0000
0100
0010
0100
0000
0010
0000
1000
0000
0100
0000
0010
0001
0010
0000
,  // measure 6
0001
0000
0000
1000
0100
0000
0010
0000
0001
0000
0000
1000
0000
0000
2002
0000
,  // measure 7
0000
0000
3003
0000
0100
0010
0000
0001
1000
0001
0000
1000
0001
0000
0001
0100
,  // measure 8
0010
0000
1000
0000
0001
0000
0100
0000
0020
0000
0000
1000
0000
0000
0130
0000
,  // measure 9
0001
0000
0100
0010
0100
0000
0001
0100
0001
0000
1000
0100
1000
0000
0001
0000
,  // measure 10
1000
0000
0100
0000
0010
0000
0001
0000
0020
0000
0000
0100
0000
0000
0031
0000
,  // measure 11
0100
0000
0010
1000
0010
0000
1000
0001
1000
0001
0000
0100
0010
0000
1000
0000
,  // measure 12
1001
0000
0000
0000
0100
0000
0010
0000
0200
0000
0000
0000
0301
0000
1000
0001
,  // measure 13
1000
0000
0001
2000
0000
0010
0000
0000
0010
3000
0000
0000
0100
0001
0100
0001
,  // measure 14
0100
0000
0010
0000
1000
0000
0100
0000
0001
0000
0000
0001
0000
0000
0100
1000
,  // measure 15
0100
0000
0010
0001
0000
1000
0000
0000
2002
0000
0000
0000
0010
0000
3003
0000
,  // measure 16
1000
0100
0001
0100
1100
0000
1000
0010
,  // measure 17
0001
0010
1000
0010
0011
0000
1000
0100
,  // measure 18
0101
0100
1100
0100
0101
0100
1100
0100
,  // measure 19
0001
0000
0100
0000
0010
0000
1000
0000
0100
0010
0000
0100
0010
0000
0100
1000
,  // measure 20
0001
0000
0100
0000
1000
0000
0100
0000
0001
0000
0000
2000
0000
0000
0020
0000
,  // measure 21
0000
3030
1000
0000
0010
0000
1000
0000
0100
0001
0000
0001
0100
0000
0100
0000
,  // measure 22
1000
0100
0000
0010
0000
0100
0000
1000
0000
1000
0000
0000
0100
0000
0010
0000
,  // measure 23
0001
0000
0100
0000
1000
0000
0100
0000
0001
1000
0000
0010
0100
0000
0000
0000
,  // measure 24
1001
0100
0010
1000
0100
0010
0001
0200
,  // measure 25
0020
0000
1000
0330
0001
0100
0010
2000
,  // measure 26
0200
0000
0010
3300
0000
0000
0011
0000
,  // measure 27
1000
0000
0000
0001
0000
1000
0000
0010
0100
0010
0000
0100
0010
0000
0100
0000
,  // measure 28
0010
0000
1000
0000
0010
0000
0001
0000
0020
0000
0000
1000
0030
0000
0100
0000
,  // measure 29
0001
0000
0100
0000
0010
0000
0100
0000
2000
0000
0000
0000
3010
1000
0100
0000
,  // measure 30
0010
0001
0100
0002
2000
0000
0010
3003
,  // measure 31
1001
0000
0000
0000
0001
0000
0100
0000
0001
0100
0001
0100
0001
0100
0001
0100
,  // measure 32
0001
0100
1000
0100
0001
0000
1000
0100
,  // measure 33
0010
0100
0010
0000
0001
0010
0001
0000
1000
0000
0000
0000
0001
0000
0100
0000
,  // measure 34
0010
0100
0010
0000
1000
0010
1000
0000
0010
0100
0010
0000
1000
0010
1000
0000
,  // measure 35
0001
0000
0100
0000
1000
0000
0100
0000
0010
1000
0000
1000
0100
0000
0010
0100
,  // measure 36
1000
1000
M001
0001
010M
0100
0M10
0010
,  // measure 37
10M0
0000
1000
0000
M001
0000
0001
0000
010M
0010
0000
0010
0100
0000
0100
0000
,  // measure 38
0001
0100
0000
0010
0000
1000
0000
0001
0000
0001
0000
0000
1000
0000
1000
0000
,  // measure 39
0100
0000
0100
0000
0010
0000
0010
0000
0001
1000
0000
0010
0100
0000
0000
0000
,  // measure 40
0101
0100
0010
1000
0100
0010
0001
0100
,  // measure 41
0202
0000
0000
0000
0010
0000
0303
0000
0001
0100
1000
0000
0100
0000
0001
0000
,  // measure 42
0202
0000
1000
0303
0000
0000
1100
0000
,  // measure 43
0100
0000
0000
0010
0000
0001
0000
2000
0000
0000
0001
0000
0002
0000
3003
0000
,  // measure 44
1000
0000
0100
0000
0001
0000
0100
0000
0001
0100
0000
0001
0100
0000
1000
0000
,  // measure 45
0001
0000
0100
0000
1000
0000
0100
0000
0001
0100
0000
0001
0100
0000
1000
0000
,  // measure 46
0100
0000
0010
0000
0100
0000
0001
0000
0100
0010
0000
0100
0001
0000
0000
0000
,  // measure 47
1000
0000
0100
0000
0010
0000
0001
0010
0001
0010
0001
0010
0001
0010
0001
0010
,  // measure 48
0001
0000
1000
0000
0100
0010
0000
0000
0001
0000
1000
0000
0100
0010
0000
0000
,  // measure 49
0001
0000
0001
0000
1000
0100
0000
0000
0011
0000
0000
1001
0000
0000
0101
0000
,  // measure 50
0110
0000
1000
0010
1000
0000
0001
0000
0100
0000
0001
1000
0001
0000
1000
0100
,  // measure 51
1000
0000
0001
0000
0010
0000
0100
0000
1000
0000
0000
0002
0000
2000
0000
0010
,  // measure 52
0000
3003
0000
0000
0000
0000
0000
0000
0000
0000
0000
0000
0000
0000
0000
0000
;
